#TITLE:それは、遠い夏の日;
#SUBTITLE:;
#ARTIST:AKITO;
#TITLETRANSLIT:sorenatu;
#SUBTITLETRANSLIT:;
#ARTISTTRANSLIT:;
#CREDIT:;
#BANNER:sorenstu.png;
#BACKGROUND:sorenatu-bg.png;
#LYRICSPATH:;
#CDTITLE:cdtitle.png;
#MUSIC:sorenatu.mp3;
#OFFSET:-3.080;
#SAMPLESTART:13.000;
#SAMPLELENGTH:12.000;
#SELECTABLE:YES;
#BPMS:0.000=117.000;
#STOPS:;
#BGCHANGES:-6.170=sorenatu.avi=1.000=1=1=0,
99999=-nosongbg-=1.000=0=0=0 // don't automatically add -songbackground-
;

//---------------dance-single - ONI----------------
#NOTES:
     dance-single:
     ONI:
     Challenge:
     6:
     0.355,0.426,0.300,0.379,0.429: // measure 1
0000
0000
0000
0000
,  // measure 2
0000
0000
0000
0000
,  // measure 3
0000
0000
0000
0000
0000
0000
0000
0000
0000
0000
0001
0000
0000
1000
0000
0000
,  // measure 4
0002
0000
0003
0000
,  // measure 5
0000
0000
1000
0000
0000
0001
0000
0000
2000
0000
0000
0000
0000
0000
0000
0000
,  // measure 6
3000
0000
0000
0000
0000
0000
0000
0000
0000
0000
1000
0000
0000
0100
0000
0000
,  // measure 7
0002
0000
0003
0000
,  // measure 8
0000
0000
0001
0000
0000
0010
0000
0000
0200
0000
0000
0000
0000
0000
0000
0000
,  // measure 9
0300
0000
0000
0000
0000
0000
0000
0000
0000
0000
0010
0000
0000
0001
0000
0000
,  // measure 10
1000
0000
0000
0000
0000
0000
0110
0000
0000
0000
0000
0000
0001
0000
0000
0010
,  // measure 11
0000
0000
0100
0000
0000
0001
0000
0000
2000
0000
0000
0000
3000
0000
0000
0000
,  // measure 12
0000
0001
0000
0000
1000
0000
0000
0010
0000
0000
0001
0000
0000
0100
0000
0000
,  // measure 13
2000
0000
0000
0000
3000
0000
0000
0000
0000
1010
0000
0000
0102
0000
0000
0000
,  // measure 14
0003
0000
0000
0000
0000
0011
0000
0000
1200
0000
0000
0000
0000
0000
0000
0000
,  // measure 15
0300
0000
0000
0000
0000
0020
0030
0000
,  // measure 16
0002
0000
0000
0000
0003
0000
0000
0000
0000
0100
0000
0000
2000
0000
0000
0000
,  // measure 17
3000
0000
0000
0000
0000
0010
0000
0000
0200
0000
0000
0000
0300
0000
0000
0000
,  // measure 18
0000
0000
0000
0000
0000
0000
0000
0001
0000
0000
1000
0000
0000
0100
0000
0000
,  // measure 19
0100
0000
0000
0010
0000
0000
0002
0000
0000
0000
0003
0000
0000
0000
0000
1000
,  // measure 20
0000
0000
0000
0000
0001
0000
0000
0000
0000
0000
0010
0000
0000
0000
0000
0000
1000
0000
0000
0000
0000
0000
0000
0000
0000
1000
0000
0000
0200
0000
0000
0000
,  // measure 21
0000
0000
0000
0000
0000
0000
0000
0000
0300
0000
0000
0000
0000
1010
0000
0000
,  // measure 22
0021
0000
0000
0000
0030
0000
0000
0000
0000
0011
0000
0000
0201
0000
0000
0000
,  // measure 23
0300
0000
0000
0000
0000
1100
0000
0000
1020
0000
0030
0000
0000
0000
1000
0000
,  // measure 24
0000
0000
0000
0000
0000
0001
0000
0000
1000
0000
0000
0000
0000
0000
0000
0000
0000
0000
0000
0000
1001
0000
0000
0000
0000
0000
0000
0000
0000
1000
0000
0000
,  // measure 25
0001
0000
0000
0000
0000
0000
0000
0000
0000
0011
0000
0000
2100
0000
0000
0000
,  // measure 26
3000
0000
0000
0000
0000
0101
0000
0000
1020
0000
0000
0000
0000
0000
0000
0000
,  // measure 27
0000
0000
0000
0000
0030
2002
0000
3003
,  // measure 28
2002
0000
3003
2000
,  // measure 29
0000
0000
3000
0000
0000
0001
0000
0000
0010
0000
0000
1000
0000
0000
0200
0000
,  // measure 30
0000
0000
0000
0000
0000
0000
0000
0000
0300
0000
0100
0000
0000
0001
0000
0000
,  // measure 31
0010
0000
1000
0000
0020
0000
0000
0000
0000
0000
0000
0000
0030
0000
0000
0000
0000
0000
0020
0000
0000
0030
0000
0000
,  // measure 32
0000
0000
1000
0000
0000
0002
0000
0000
0003
0000
0000
0200
0000
0000
0000
0000
,  // measure 33
0000
0000
0000
0000
0000
0000
0000
0000
0300
0000
1000
0000
0000
0001
0000
0000
,  // measure 34
0100
0000
0000
0210
0000
0000
0000
0300
,  // measure 35
0000
0000
0000
0000
0000
0000
0100
0000
0000
0000
0000
0000
0000
0000
0000
1000
0000
0000
0000
0000
0000
0000
0000
0000
0001
0000
0010
0000
0001
0000
0000
0000
1000
0000
0000
0000
0000
0000
0000
0000
0000
0000
2000
0000
0000
0000
0000
0000
,  // measure 36
0000
0000
0000
0000
0000
0000
0000
0000
3000
0000
0001
0000
0000
1000
0000
0000
,  // measure 37
0010
0000
0000
0000
0000
0000
0000
0000
0000
0001
0000
0000
0000
0000
0000
0000
0000
0000
0100
0000
0000
0000
0000
0000
0000
0000
0000
1000
0000
0000
0000
0000
0000
0000
0000
0000
0001
0000
0010
0000
0001
0000
0000
0000
1000
0000
0000
0000
,  // measure 38
0000
0000
1000
0000
0000
0001
0000
0000
0210
0000
0000
0000
0000
0000
0000
0000
,  // measure 39
0000
0000
0000
0000
0300
0000
0000
0000
0000
0000
0001
0000
0000
0100
0000
0000
,  // measure 40
1000
0000
0001
1000
0100
0010
0001
0100
0010
2000
0000
0000
,  // measure 41
3000
0000
0000
0000
0000
0000
1000
0000
0000
0000
0000
0000
0000
0000
0000
0010
0000
0000
0000
0000
0000
0000
0000
0000
0001
0000
0000
0000
0000
0000
0000
0000
1000
0000
0000
0000
0001
0000
0000
0000
0010
0000
0000
0000
0100
0000
0000
0000
,  // measure 42
1000
0000
0000
0000
0010
0000
0000
0000
0100
0000
0000
0000
0002
0000
0000
0000
0000
0000
0000
0000
0000
0000
0000
0000
0003
0000
0000
0000
0000
0000
0001
0000
0000
0000
0000
0000
0000
0000
0000
1000
0000
0000
0000
0000
0000
0000
0000
0000
,  // measure 43
0001
0000
1000
0001
0010
0100
1000
0010
0100
0002
0000
0000
,  // measure 44
0003
0000
0000
0000
0000
0000
0001
0000
0000
0000
0000
0000
0000
0000
0000
1000
0000
0000
0000
0000
0000
0000
0000
0000
0001
0000
0000
0000
0000
0000
0000
0000
1000
0000
0000
0000
0001
0000
0000
0000
0010
0000
0000
0000
0100
0000
0000
0000
,  // measure 45
1000
0000
0000
0000
0001
0000
0000
0000
0010
0000
0000
0000
0200
0000
0000
0000
0000
0000
0000
0000
0000
0000
0000
0000
0300
0000
0000
0000
0000
0000
1000
0000
0000
0000
0000
0000
0000
0000
0000
0001
0000
0000
0000
0000
0000
0000
0000
0000
,  // measure 46
1000
0000
0000
0000
0001
0000
0000
0000
1000
0000
0000
0000
0000
0000
0000
0000
0000
0000
0010
0000
0000
0000
0000
0000
0000
0000
0000
0100
0000
0000
0000
0000
0000
0000
0000
0000
1000
0000
0000
0000
0000
0000
0000
0000
0000
0010
0000
0000
,  // measure 47
0000
0000
0000
0000
0000
0000
0001
0000
0000
0000
0000
0000
0000
0000
0000
0100
0000
0000
0000
0000
0000
0000
0000
0000
1000
0000
0000
0000
0001
0000
0000
0000
1000
0000
0000
0000
0000
0000
0000
0000
0000
0000
1000
0000
0000
0000
0000
0000
,  // measure 48
0000
0000
0011
0000
0000
0000
0000
0000
0110
0000
0000
0000
0000
0000
1100
0000
0000
0000
0000
0000
1001
0000
0000
0000
0000
0000
0000
0000
0000
0100
0000
0000
,  // measure 49
0020
0000
0000
0000
0000
0000
0030
0000
0000
1010
0000
0000
0102
0000
0000
0000
,  // measure 50
0003
0000
0000
0000
0000
0101
0000
0000
1020
0000
0000
0000
0000
0000
0000
0000
,  // measure 51
0000
0000
0000
0000
0000
0000
0000
0000
0030
0000
1000
0000
0000
0010
0000
0000
,  // measure 52
0001
0000
1000
0001
0010
0100
1000
0010
0100
0002
0000
0000
,  // measure 53
0003
0000
0000
0000
0000
0000
0001
0000
0000
0000
0000
0000
0000
0000
0000
0100
0000
0000
0000
0000
0000
0000
0000
0000
1000
0000
0000
0000
0000
0000
0000
0000
0001
0000
0000
0000
1000
0000
0000
0000
0100
0000
0000
0000
0010
0000
0000
0000
,  // measure 54
0001
0000
0000
0000
0100
0000
0000
0000
0010
0000
0000
0000
2000
0000
0000
0000
0000
0000
0000
0000
0000
0000
0000
0000
3000
0000
0000
0000
0000
0000
1000
0000
0000
0000
0000
0000
0000
0000
0000
0001
0000
0000
0000
0000
0000
0000
0000
0000
,  // measure 55
1000
0000
0001
1000
0100
0010
0001
0100
0010
2000
0000
0000
,  // measure 56
3000
0000
0000
0000
0000
0000
1000
0000
0000
0000
0000
0000
0000
0000
0000
0001
0000
0000
0000
0000
0000
0000
0000
0000
1000
0000
0000
0000
0000
0000
0000
0000
0001
0000
0000
0000
1000
0000
0000
0000
0100
0000
0000
0000
0010
0000
0000
0000
,  // measure 57
0001
0000
0000
0000
1000
0000
0000
0000
0100
0000
0000
0000
0020
0000
0000
0000
0000
0000
0000
0000
0000
0000
0000
0000
0030
0000
0000
0000
0000
0000
0001
0000
0000
0000
0000
0000
0000
0000
0000
1000
0000
0000
0000
0000
0000
0000
0000
0000
,  // measure 58
0002
0000
0000
0000
0003
0000
2000
0000
0000
0000
3000
0000
0001
0000
0000
0100
,  // measure 59
0000
0000
1000
0000
0000
0010
0000
0000
0200
0000
0000
0000
0000
0000
0300
0000
,  // measure 60
0000
0000
0001
0000
0000
0000
0000
0000
0100
0000
0000
0000
0000
0000
1000
0000
0000
0000
0000
0000
0001
0000
0000
0000
0000
0000
0000
0000
0000
0010
0000
0000
,  // measure 61
0200
0000
0000
0000
0000
0000
0300
0000
0000
1010
0000
0000
0102
0000
0000
0000
,  // measure 62
0003
0000
0000
0000
0000
0101
0000
0000
1020
0000
0000
0000
0030
0000
0000
0000
,  // measure 63
0000
0000
1000
0000
0000
0000
0000
0000
0001
0000
0000
0000
0000
0000
1000
0000
0000
0000
0000
0000
0010
0000
0000
0000
0000
0000
0000
0000
0000
0100
0000
0000
,  // measure 64
0020
0000
0000
0000
0000
0000
0030
0000
0000
1010
0000
0000
0102
0000
0000
0000
,  // measure 65
0003
0000
0000
0000
0000
0101
0000
0000
1010
0000
0000
0000
1100
0000
0000
0000
,  // measure 66
0101
0011
1010
0110
,  // measure 67
2002
3003
0000
0000
;

//---------------dance-single - BASIC----------------
#NOTES:
     dance-single:
     BASIC:
     Easy:
     1:
     0.063,0.094,0.029,0.014,0.000:
0000
0000
0000
0000
,
0000
0000
0000
0000
,
0000
0000
0000
0000
,
0010
0000
0000
0000
,
0000
0000
1000
0000
,
0000
0000
0000
0000
,
0001
0000
0000
0000
,
0000
0000
0100
0000
,
0000
0000
0000
0000
,
1000
0000
0000
0001
,
0000
0000
1000
0000
,
0000
0000
0000
0000
,
0100
0000
0000
0010
,
0000
0000
0100
0000
,
0000
0000
0000
0000
,
1000
0000
0000
0001
,
0000
0000
1000
0000
,
0000
0000
0000
0000
,
0100
0000
0000
0000
,
0000
0000
0010
0000
,
0000
0000
0000
0000
,
1000
0000
0000
0001
,
0000
0000
1000
0000
,
0000
0100
0000
0000
,
0001
0000
0000
1000
,
0000
0000
1001
0000
,
0000
0000
0000
0000
,
0020
0000
0000
0000
,
0000
0000
0000
0000
,
0000
0000
0030
0000
,
1000
0000
0000
0002
,
0000
0000
0000
0000
0000
0000
0000
0000
0003
0000
0000
0000
,
0000
0000
0000
0000
,
1000
0000
0000
0000
,
0000
0000
0001
0000
,
0000
0000
0000
0000
,
1000
0000
0000
0010
,
0000
0000
0100
0000
,
0000
0000
0000
0000
,
0001
0000
0000
0000
,
0000
0000
1000
0000
,
0000
0000
0000
0000
,
0001
0000
0000
0000
,
0000
0000
1000
0000
,
0000
0000
0000
0000
,
0010
0000
0000
1000
,
0000
0000
0010
0000
,
0000
0001
0000
0000
,
1000
0000
0000
0100
,
0000
0000
1001
0000
,
0000
0000
0000
0000
,
0001
0000
0000
0000
,
0000
0000
1000
0000
,
0000
0000
0000
0000
,
0001
0000
0000
0000
,
0000
0000
1000
0000
,
0000
0000
0000
0000
,
0001
0000
0000
1000
,
0000
0000
0100
0000
,
0000
0000
0000
0000
,
1000
0000
0000
0001
,
0000
0000
1001
0000
,
0000
0000
0000
0000
,
0001
0000
0000
0100
,
0000
0000
1000
0000
,
0000
0001
0000
0000
,
1001
0000
0000
0000
;

//---------------dance-single - TRICK----------------
#NOTES:
     dance-single:
     TRICK:
     Medium:
     4:
     0.133,0.189,0.057,0.000,0.025:
0000
0000
0000
0000
,
0000
0000
0000
0000
,
0000
0000
0000
0000
0000
0100
0000
0000
,
0010
0000
0000
0000
,
0000
0001
0000
0000
1000
0000
0000
0000
,
0000
0000
0000
0000
0000
1000
0000
0000
,
0001
0000
0000
0000
,
0000
0010
0000
0000
0100
0000
0000
0000
,
0000
0000
0000
0000
0000
0001
0000
0000
,
1000
0000
0000
0100
0000
0000
0001
0000
,
0000
1000
0000
0000
0001
0000
0000
0000
,
0000
1000
0000
0000
0000
0000
0000
0000
0000
0000
0001
0000
0000
0000
0000
0000
0000
0000
0000
0000
0000
0000
0000
0000
,
0100
0000
0000
1010
,
0000
0000
0101
0000
,
0000
0000
0000
0000
0000
0001
0000
0000
,
1000
0000
0000
0000
0001
0000
0000
0000
0000
0100
0000
0000
0000
0000
0000
0000
0000
0000
0001
0000
0000
0000
1000
0000
,
0000
0000
0000
0100
0000
0000
0000
0000
0000
0000
0000
0000
1000
0000
0000
0000
0001
0000
0000
0000
0000
0100
0000
0000
,
0000
0000
0000
0000
0000
0000
0001
0000
0000
0000
1000
0000
0000
0000
0000
0100
0000
0000
0000
0000
0000
0000
0000
0000
,
0100
0000
0000
0100
0000
0000
0000
0000
,
0000
0010
0000
0000
0010
0000
0000
0010
,
0000
0000
0000
0000
,
1010
0000
0000
0011
,
0000
0000
0000
0000
1000
0000
0000
0100
,
0000
0000
0100
0000
0000
0001
0000
0000
,
0001
0000
0000
1000
0000
0000
1000
0000
,
0000
0001
0000
0000
1001
0000
0000
0000
,
0000
0000
0000
0000
,
0010
0000
0000
0100
,
0000
0000
0000
0000
0010
0000
0000
1000
,
0000
0000
0000
0000
0000
0010
0000
0000
,
0001
0000
0000
0100
,
0000
0000
0000
0000
0000
0000
0000
0000
0000
0000
0000
1000
0000
0000
0000
0000
,
0000
0000
0000
0000
,
1000
0000
0000
0010
0000
0000
0000
0000
,
0000
0000
0000
0000
0001
0000
0000
0100
,
0000
0000
0000
0000
,
1000
0000
0000
1000
0000
0000
0010
0000
,
0000
0010
0000
0000
0001
0000
0000
0000
,
0000
0000
0000
0000
,
0001
0000
0000
0100
0000
0000
1000
0000
,
0000
0000
0000
0000
1000
0000
0000
0100
,
0000
0001
0000
0000
,
0001
0000
0000
0100
0000
0000
1000
0000
,
0000
0000
0000
0000
1000
0000
0000
0100
,
0000
0001
0000
0000
,
0010
0000
0000
1000
0000
0000
0100
0000
,
0000
0001
0000
0000
0010
0000
0000
1000
,
0000
0000
0001
0000
0000
1000
0000
0000
,
0001
0000
0000
0100
,
0000
0000
1001
0000
,
0000
0000
0000
0000
,
1000
0000
0000
0100
0000
0000
0001
0000
,
0000
0000
0000
0000
0001
0000
0000
0100
,
0000
1000
0000
0000
,
1000
0000
0000
0100
0000
0000
0001
0000
,
0000
0000
0000
0000
0001
0000
0000
0100
,
0000
1000
0000
0000
,
1000
0000
0000
0010
0000
0000
0001
0000
,
0000
0100
0000
0000
1000
0000
0000
0010
,
0000
0000
0001
0000
0000
1000
0000
0000
,
0001
0000
0000
1000
,
0000
0000
1001
0000
,
0000
0000
1000
0000
0000
0010
0000
0000
,
0001
0000
0000
0100
0000
0000
0100
0000
,
0000
1000
0000
0000
1000
0000
0000
0001
,
0000
0000
0001
0000
0000
1000
0000
0000
,
1001
0000
0000
0000
;

//---------------dance-single - HEAVY----------------
#NOTES:
     dance-single:
     HEAVY:
     Hard:
     5:
     0.220,0.260,0.072,0.000,0.211:
0000
0000
0000
0000
,
0000
0000
0000
0000
,
0000
0000
0000
0000
0000
0000
0000
0000
0000
0000
0100
0000
0000
0001
0000
0000
,
0010
0000
0000
0000
,
0000
0000
0010
0000
0000
1000
0000
0000
0100
0000
0000
0000
0000
0000
0000
0000
,
0000
0000
0000
0000
0000
0000
0000
0000
0000
0000
0010
0000
0000
0001
0000
0000
,
0100
0000
0000
0000
,
0000
0000
0100
0000
0000
1000
0000
0000
0010
0000
0000
0000
0000
0000
0000
0000
,
0000
0000
0000
0000
0000
0001
0000
0000
,
1000
0000
0000
0100
0000
0000
0001
0000
,
0000
1000
0000
0000
0001
0000
0000
0000
,
0000
1000
0000
0000
0000
0000
0000
0010
0000
0000
0001
0000
0000
0100
0000
0000
,
0100
0000
0000
0000
0000
0000
0000
0000
0000
1000
0000
0000
0010
0000
0000
0000
,
0000
0000
0000
0000
0000
0001
0000
0000
0100
0000
0000
0000
0000
0000
0000
0000
,
0000
0000
0000
0000
0000
0001
0000
0000
,
1000
0000
0000
0000
0001
0000
0000
0000
0000
0100
0000
0000
0000
0000
0001
0000
0000
0000
1000
0000
0000
0000
0010
0000
,
0000
0000
0000
0100
0000
0000
0000
0000
0010
0000
0000
0000
1000
0000
0000
0000
0001
0000
0000
0000
0000
0100
0000
0000
,
0000
0000
0001
0000
0000
0000
1000
0000
0000
0000
0010
0000
0000
0000
0000
0100
0000
0000
0000
0000
0001
0000
0000
0000
,
0100
0000
0000
0000
0010
0000
0000
0000
0000
1000
0000
0000
0000
0000
0100
0000
0000
0000
0010
0000
0000
0000
0001
0000
,
0000
0000
0000
0010
0000
0000
0000
0000
0100
0000
0000
0000
1000
0000
0000
0000
0010
0000
0000
0000
0000
0001
0000
0000
,
0000
0000
1000
0000
0000
0001
0000
0000
,
1000
0000
0000
0010
0000
0000
0001
0000
,
0000
0000
0000
0010
0000
0000
0000
0000
0000
0000
0000
0000
1000
0000
0000
0000
0001
0000
0000
0000
0000
0100
0000
0000
,
0000
0000
0000
0000
0000
0000
0001
0000
0000
0000
1000
0000
0000
0000
0000
0100
0000
0000
0000
0000
0000
0000
0000
0000
,
0001
0000
0000
1001
0000
0000
1000
0000
,
0000
1001
0000
0000
1001
0000
0000
0000
,
0000
0000
0000
0000
,
0010
0000
0000
0100
0000
0000
0100
0000
,
0000
1000
0000
0000
0010
0000
0000
1000
,
0000
0000
0001
0000
0000
0010
0000
0000
,
0001
0000
0000
0100
0000
0000
0100
0000
,
0000
0010
0000
0000
0010
0000
0000
1000
,
0000
1000
0000
0000
,
1000
0000
0000
0010
0000
0000
0010
0000
,
0000
0001
0000
0000
0001
0000
0000
0100
,
0000
0000
0100
0000
0000
0001
0000
0000
,
1000
0000
0000
0010
0000
0000
0100
0000
,
0000
0001
0000
0000
1000
0000
0000
0000
,
0000
0000
0000
0000
,
0001
0000
0000
0000
1000
0000
0000
0000
0000
0100
0000
0000
0000
0000
0000
0000
0000
0000
1000
0000
0000
0000
0001
0000
,
0000
0000
0000
1001
0000
0000
0000
0000
0000
0000
0000
0000
1000
0000
0000
0000
0001
0000
0000
0000
0000
0100
0000
0000
,
0000
0000
0000
0000
0000
0000
0001
0000
0000
0000
1000
0000
0000
0000
0000
1001
0000
0000
0000
0000
0000
0000
0000
0000
,
0001
0000
0000
0000
1000
0000
0000
0000
0000
0100
0000
0000
0000
0000
0000
0000
0000
0000
1000
0000
0000
0000
0001
0000
,
0000
0000
0000
1000
0000
0000
0000
0000
0000
0000
0000
0000
1000
0000
0000
0000
0001
0000
0000
0000
0000
0100
0000
0000
,
0000
0000
0000
0000
0000
0000
0001
0000
0000
0000
1000
0000
0000
0000
0000
0001
0000
0000
0000
0000
0000
0000
0000
0000
,
0010
0000
0000
0000
1000
0000
0000
0000
0000
0001
0000
0000
0000
0000
0000
0000
0000
0000
0100
0000
0000
0000
0000
0000
,
0000
0000
0000
0001
0000
0000
0000
0000
1000
0000
0000
0000
0010
0000
0000
0000
0000
0000
0000
0000
0000
1000
0000
0000
,
0000
0000
0100
0000
0000
0000
0001
0000
0000
0000
0100
0000
0000
0000
0000
1000
0000
0000
0000
0000
0000
0000
0000
0000
,
0001
0000
0000
0000
1000
0000
0000
0000
0000
0100
0000
0000
0000
0000
0000
0000
0000
0000
1000
0000
0000
0000
0001
0000
,
0000
0100
0000
0000
1001
0000
0000
0000
,
0000
0000
0000
0000
,
1000
0000
0000
0000
0001
0000
0000
0000
0000
0100
0000
0000
0000
0000
0000
0000
0000
0000
0001
0000
0000
0000
1000
0000
,
0000
0000
0000
1001
0000
0000
0000
0000
0000
0000
0000
0000
0001
0000
0000
0000
1000
0000
0000
0000
0000
0100
0000
0000
,
0000
0000
0000
0000
0000
0000
1000
0000
0000
0000
0001
0000
0000
0000
0000
1001
0000
0000
0000
0000
0000
0000
0000
0000
,
1000
0000
0000
0000
0001
0000
0000
0000
0000
0100
0000
0000
0000
0000
0000
0000
0000
0000
0001
0000
0000
0000
1000
0000
,
0000
0000
0000
0001
0000
0000
0000
0000
0000
0000
0000
0000
0001
0000
0000
0000
1000
0000
0000
0000
0000
0100
0000
0000
,
0000
0000
0000
0000
0000
0000
1000
0000
0000
0000
0001
0000
0000
0000
0000
1000
0000
0000
0000
0000
0000
0000
0000
0000
,
0010
0000
0000
0000
0001
0000
0000
0000
0000
1000
0000
0000
0000
0000
0000
0000
0000
0000
0010
0000
0000
0000
0000
0000
,
0000
0000
0000
1000
0000
0000
0000
0000
0001
0000
0000
0000
0100
0000
0000
0000
0000
0000
0000
0000
0000
0001
0000
0000
,
0000
0000
0100
0000
0000
0000
1000
0000
0000
0000
0100
0000
0000
0000
0000
0001
0000
0000
0000
0000
0000
0000
0000
0000
,
1000
0000
0000
0000
0001
0000
0000
0000
0000
0100
0000
0000
0000
0000
0000
0000
0000
0000
0001
0000
0000
0000
1000
0000
,
0000
0100
0000
0000
1001
0000
0000
0010
,
0000
0000
0100
0000
0000
0000
1000
0000
0000
0000
0100
0000
0000
0000
0000
0010
0000
0000
0000
0000
0000
0000
0000
0000
,
0001
0000
0000
0000
0010
0000
0000
0000
0000
0100
0000
0000
0000
0000
0000
0000
0000
0000
0001
0000
0000
0000
0100
0000
,
0000
0000
0000
1000
0000
0000
0000
0000
0000
0000
0000
0000
0001
0000
0000
0000
0010
0000
0000
0000
0000
0100
0000
0000
,
0000
0000
0000
0000
0000
0000
0001
0000
0000
0000
0100
0000
0000
0000
0000
1000
0000
0000
0000
0000
0001
0000
0000
0000
,
1001
0000
0000
0000
;
