#TITLE:silent sky;
#SUBTITLE:;
#ARTIST:SHIKI;
#TITLETRANSLIT:;
#SUBTITLETRANSLIT:;
#ARTISTTRANSLIT:;
#CREDIT:;
#BANNER:silent sky.png;
#BACKGROUND:silent sky-bg.png;
#LYRICSPATH:;
#CDTITLE:cdtitle.png;
#MUSIC:silent sky.mp3;
#OFFSET:-1.260;
#SAMPLESTART:12.700;
#SAMPLELENGTH:12.000;
#SELECTABLE:YES;
#BPMS:0.000=189.000,164.000=94.000,192.000=189.000,296.000=94.000;
#STOPS:;
#BGCHANGES:;

//---------------dance-single - BASIC----------------
#NOTES:
     dance-single:
     BASIC:
     Easy:
     3:
     0.254,0.438,0.147,0.052,0.000:
0000
0000
0000
0000
,
0000
0000
0000
0000
,
0000
0000
0000
0000
,
0000
0000
0000
0000
,
0000
0000
0000
0000
,
0000
0000
0000
0000
,
0000
0000
0000
0000
,
0000
0000
0000
0000
,
0000
0000
0000
0000
,
0010
0000
0100
0000
,
0010
0100
1000
0001
,
0100
0010
1000
0001
,
0100
0000
0010
0000
,
1000
0001
0010
0100
,
1000
0010
0100
0001
,
0100
0000
0000
0000
,
0010
0000
0000
1000
,
0001
0010
0000
1000
,
0100
0000
0001
0010
,
1000
0100
0001
0010
,
1000
0100
0001
1000
,
0001
0010
0000
1000
,
0100
0000
0001
0010
,
1000
0100
0001
0010
,
1000
0100
0001
0010
,
0000
1000
0000
0001
,
0000
0100
0010
0100
,
0001
0010
0001
0010
,
0001
0010
0001
1001
,
0000
1000
0000
0001
,
0000
0100
0010
0100
,
1000
0010
1000
0010
,
1000
0010
1000
1001
,
0000
0001
0100
1000
,
0010
0000
0001
0000
,
0100
0000
0000
0000
1000
0000
0000
0010
,
0000
1001
0110
1001
,
0000
0100
0000
0010
,
0011
0000
1000
0100
,
0001
1000
0100
1000
,
0001
0010
0001
1001
,
1000
1000
1000
1000
,
0001
0001
0001
0001
,
1000
1000
1000
1000
,
0001
0001
0001
0001
,
1000
1100
0100
0011
,
0010
1100
0100
0011
,
0010
1010
0100
0101
,
0200
0000
0000
0300
,
1001
0000
1000
0100
,
0001
0000
0100
0000
,
0010
1000
0100
0001
,
2000
0000
0000
0000
,
3000
1000
0001
0100
,
1000
0000
0100
0000
,
0010
0001
0100
1000
,
0002
0000
0000
0000
,
0003
0000
0000
0000
,
0001
0000
0010
0000
,
0001
0100
1000
0100
,
0002
0000
0000
0000
,
0003
0000
1001
0000
,
1000
0000
0010
0000
,
1000
0010
0001
0010
,
2000
0000
0000
0000
,
3000
0000
0000
0000
,
0010
0000
0000
0000
,
0100
0000
0000
0000
,
0010
0000
0000
0000
,
0100
0000
0000
0000
,
0010
0000
0000
0000
,
0100
0000
0000
0000
,
0010
0000
0000
0000
,
0000
0010
1001
0110
,
1000
0000
0100
0000
,
0001
0000
0010
0000
,
1000
0000
0100
0000
,
0001
0000
2000
0000
,
3000
0000
0000
0000
;

//---------------dance-single - TRICK----------------
#NOTES:
     dance-single:
     TRICK:
     Medium:
     5:
     0.337,0.505,0.095,0.086,0.043:
0000
0000
0000
0000
,
0000
0000
0000
0000
,
0000
0000
0000
0000
,
0000
0000
0000
0000
,
0000
0000
0000
0000
,
0000
0000
0000
0000
,
0000
0000
0000
0000
,
0000
0000
0000
0000
,
0000
0000
0000
0000
,
0010
0000
0000
0100
0000
0000
0001
0000
,
0100
0000
0000
1000
0000
0000
0001
0000
,
0100
0010
1000
0001
,
0100
0100
0010
0000
1001
0000
0100
0000
,
1000
0000
0000
0100
0000
0000
0100
0000
,
0010
0000
0000
0001
0000
0000
0001
0000
,
0200
0000
0000
0000
,
0300
0000
0000
0000
0000
1000
0100
0000
,
0020
0000
0030
0001
0000
0000
1000
0000
,
0100
0000
0000
0010
0000
0000
0001
1000
,
0001
0100
0001
0010
,
1000
0000
0100
0000
0010
0001
0100
0000
,
2000
0000
3000
0010
0000
0000
0001
0000
,
0100
0000
0000
0010
0000
1000
0010
0001
,
1000
0100
0001
0010
,
1000
0000
0100
0000
0001
0010
0100
1000
,
0000
0000
1000
0000
0100
0000
0001
0010
,
0000
0000
0000
0010
0000
0000
0100
0000
0000
0000
0000
0000
1000
0000
0000
0000
0100
0000
0000
0000
0001
0000
0000
0000
,
0100
1000
0100
0001
,
0100
0000
1000
0000
0001
0000
1000
0001
,
0000
0000
0001
0000
0100
0000
1000
0010
,
0000
0000
0000
0010
0000
0000
0100
0000
0000
0000
0000
0000
0001
0000
0000
0000
0100
0000
0000
0000
1000
0000
0000
0000
,
0100
0001
0100
1000
,
0100
0000
0001
0000
1000
0000
0001
1000
,
0000
0000
0001
0000
0100
0000
1000
0010
,
0000
0000
0000
0010
0000
0000
0001
0000
0000
0000
0000
0000
0001
0000
0000
0000
0100
0000
0000
0000
1000
0000
0000
0000
,
0100
0000
0000
0000
1000
0100
0000
0010
,
0000
1001
0110
1001
,
0000
0100
0010
0100
,
0011
0000
0000
0000
0000
0000
1000
0000
0100
0000
0001
0000
,
1001
1000
0100
1000
,
0001
0010
0001
1001
,
1000
0001
1000
0000
0010
0100
0010
0000
,
1000
0001
1000
0000
0010
0100
0010
0000
,
0001
1000
0001
0000
0010
0100
0010
0000
,
0001
1000
0001
0000
0010
0100
0010
0000
,
1000
0100
0010
0000
0001
0100
0010
0000
,
1000
0100
0010
0000
0001
0100
0010
0000
,
0010
0100
1000
0010
0100
0001
0100
1000
,
0200
0000
0000
0000
0000
0000
0300
1000
,
0001
0100
0000
0000
1000
0000
0100
0000
,
0001
0000
0000
0100
0000
0000
0010
0000
,
1000
0000
0000
0100
0000
0000
0001
0000
,
2000
0000
0000
0000
,
3000
0001
0000
0000
0010
0000
0100
0000
,
1000
0000
0000
0100
0000
0000
0010
0000
,
0001
0000
0000
0010
0000
0000
1000
0000
,
0220
0000
0000
0000
,
0000
0000
0000
0330
,
0100
0000
0000
0010
0000
0000
1000
0000
,
0001
0000
0000
0100
0000
0000
1000
0000
,
0002
0000
0000
0000
,
0003
1000
0000
0000
0001
0000
0100
0000
,
1000
0000
0000
0010
0000
0000
0100
0000
,
1000
0000
0000
0010
0000
0000
0001
0000
,
2000
0000
0000
0000
,
3000
0000
0000
0000
,
0010
0000
0000
1000
0100
0000
0000
0000
,
0010
0000
0000
0000
0001
0100
0000
0000
,
0010
0000
0000
0000
1000
0100
0000
0000
,
0010
0000
0000
0000
0001
0100
0000
0000
,
0010
0000
0000
0000
0001
1000
0000
0000
,
0010
0000
0000
0000
1000
0001
0000
0000
,
0010
0000
0000
0000
0001
1000
0000
0000
,
0000
0110
1001
0110
,
1000
1000
0000
0000
0100
0100
0000
0000
,
0001
0001
0000
0000
0010
0010
0000
0000
,
1000
1000
0000
0000
0100
0100
0000
0000
,
0001
0000
0001
0000
0000
0000
0000
0000
1000
0000
1000
0000
0000
2000
0010
3001
;

//---------------dance-single - HEAVY----------------
#NOTES:
     dance-single:
     HEAVY:
     Hard:
     8:
     0.540,0.674,0.251,0.061,0.112:
0000
0000
0000
0000
,
0000
0000
0000
0000
,
0000
0000
0000
0000
,
0000
0000
0000
0000
,
0000
0000
0000
0000
,
0000
0000
0000
0000
,
0000
0000
0000
0000
,
0000
0000
0000
0000
,
0000
0000
0000
0000
,
0010
0000
1000
0000
0001
0010
0100
0000
,
1000
0000
0010
0000
1000
0100
0001
0000
,
0100
0000
0010
0000
1000
0100
0001
0000
,
0100
0100
0010
0001
1000
0000
1001
0000
,
1000
0000
0100
0000
0010
0001
0100
0000
,
0010
0000
0001
0000
0001
0100
1000
0000
,
0100
0000
0010
0000
0100
0100
1000
0100
,
0001
0000
1001
0000
0000
0001
0100
0000
,
0110
0000
0000
1001
0000
0000
0011
0000
,
1100
0000
0000
0110
0000
0000
0001
1000
,
0001
0010
0100
0010
0001
0010
1000
0010
,
0001
1000
0100
0010
0001
0010
0100
1000
,
1001
0000
0000
0110
0000
0000
1010
0000
,
0101
0000
0000
0110
0000
1000
0010
0001
,
1000
0001
0100
1000
0001
0010
0100
1000
,
0010
0100
0001
0010
1000
0010
0100
2000
,
3000
0000
1100
0000
0101
0000
0001
0010
,
0000
0000
0000
0010
0000
0000
0100
0000
0000
0000
0000
0000
1000
0000
0000
0000
0100
0000
0000
0000
0001
0000
0000
0000
,
0100
1000
0100
1000
0100
0010
0100
0010
,
0100
1000
0100
0010
0001
0100
1000
0001
,
1001
0000
0001
0000
0100
0000
1000
0010
,
0000
0000
0000
0010
0000
0000
0100
0000
0000
0000
0000
0000
0001
0000
0000
0000
0100
0000
0000
0000
1000
0000
0000
0000
,
0100
0010
0100
0010
0100
0001
0100
0001
,
0100
0010
1000
0010
0100
0010
0001
1000
,
1001
0000
0001
0000
0100
0000
1000
0010
,
0000
0000
0000
0010
0000
0000
0001
0000
0000
0000
0000
0000
0001
0000
0000
0000
0100
0000
0000
0000
1000
0000
0000
0000
,
0100
0000
0000
0000
0002
0203
0300
2000
,
3000
1001
0110
1001
,
0000
0000
0000
0000
0000
0000
0000
0000
0100
0000
0000
0000
0000
0000
0000
0000
0010
0000
0000
0000
0000
0000
0000
0000
0100
0000
0000
0000
0000
0000
0000
0010
,
0001
0000
0000
0000
0000
0000
0000
0000
0000
0000
0000
0000
0000
0000
0000
0000
0000
0000
0000
0000
0000
0000
0000
0000
0000
0000
0000
0000
0000
0000
0000
0000
0000
0000
0000
0000
0000
0000
0000
0000
0000
0000
0000
0000
0000
0000
0000
0000
0000
0000
0000
0000
0000
0000
0000
0000
0000
0000
0000
0000
0000
0000
0000
0000
0000
0000
0000
0000
0000
0000
0000
0000
0000
0000
0000
0000
0000
0000
0000
0000
0000
0000
0000
0000
0000
0000
0000
0000
0000
0000
0000
0000
0000
0000
0000
0000
1000
0000
0000
0000
0000
0000
0000
0000
0000
0000
0000
0000
0000
0000
0000
0000
0000
0000
0000
0000
0000
0000
0000
0000
0000
0000
0000
0000
0000
0000
0000
0000
0100
0000
0000
0000
0000
0000
0000
0000
0000
0000
0000
0000
0000
0000
0000
0000
0000
0000
0000
0000
0000
0000
0000
0000
0000
0000
0000
0000
0000
0000
0000
0000
0001
0000
0000
0000
0000
0000
0000
0000
0000
0000
0000
0000
0000
0000
0000
0000
0000
0000
0000
0000
0000
0000
0000
0000
0000
0000
0001
0000
0000
0000
0000
0000
,
1000
0100
1000
0100
1000
0010
1000
0010
,
1000
0100
0010
0100
0001
0010
1000
0100
,
1000
0000
0001
0000
1000
0000
0100
0000
0010
0000
0100
0010
0000
0010
0100
0000
,
1000
0000
0010
0000
1000
0000
0100
0000
0010
0000
0100
0010
0000
0010
0001
0000
,
0010
0000
0100
0000
1000
0000
0010
0000
0100
0000
0100
0010
0000
0010
1000
0000
,
0001
0000
1000
0000
0010
0000
0100
0000
0010
0000
0100
0010
0000
0010
0100
0000
,
1000
0000
0100
0000
0010
0000
0100
0000
1000
0000
0100
0010
0000
0010
0001
0000
,
1000
0000
0100
0000
0001
0000
0010
0000
0100
0000
0100
0010
0000
0010
0100
0000
,
0001
0000
0100
0000
1000
0000
0010
0000
0100
0000
0001
0100
0000
1000
0100
0000
,
0200
0000
0000
0000
0000
0000
0300
1000
,
0001
0100
0000
0000
1000
0000
0100
0000
,
0001
0000
0100
0000
1000
0100
0010
0000
,
0001
0000
0100
0000
0001
0010
0100
0000
,
1000
0000
0010
0000
0100
0100
0010
1000
,
0001
0001
0000
0000
0010
0000
0100
0000
,
1000
0000
0010
0000
1000
0100
0010
0000
,
0001
0000
0100
0000
0001
0010
0100
0000
,
0010
0010
0100
1000
0001
0010
0100
0100
,
0010
1000
0001
0100
1000
0010
0100
0001
,
0100
0000
0001
0000
1000
0010
1000
0000
,
0001
0000
1000
0000
0001
0010
0001
0000
,
1000
0000
0100
0000
0010
0001
1000
0100
,
0010
1000
0000
0000
0001
0000
0100
0000
,
1000
0000
0001
0000
0100
0010
0100
0000
,
0001
0000
1000
0000
0010
0100
0010
0000
,
0001
0000
0100
0010
0100
0001
0100
1000
,
0100
0010
0001
0010
1000
0100
0010
0001
,
0010
0100
0010
1000
,
0100
0010
0001
0100
,
0010
1000
0010
0100
,
0010
0000
1000
0000
0001
0100
1000
0000
,
0010
0100
0001
0100
,
0010
0100
1000
0001
,
0010
1000
0001
0100
,
0010
0110
1001
0110
,
1000
1000
1100
0000
0100
0100
0110
0000
,
0001
0001
0011
0000
0010
0010
0110
0000
,
1000
1000
1100
0000
0100
0100
0110
0000
,
0001
0000
0001
0000
0011
0000
0000
0000
1000
0000
1000
0000
0001
2000
0010
0002
,
3003
0000
0000
0000
;

//---------------dance-single - ONI----------------
#NOTES:
     dance-single:
     ONI:
     Challenge:
     10:
     0.851,1.000,1.000,0.545,0.428: // measure 1
0000
0000
0000
0000
,  // measure 2
0000
0000
0000
0000
,  // measure 3
0000
0000
0000
0000
,  // measure 4
0000
0000
0000
0000
,  // measure 5
0000
0000
0000
0000
,  // measure 6
0000
0000
0000
0000
,  // measure 7
0000
0000
0000
0000
,  // measure 8
0000
0000
0000
0000
,  // measure 9
0000
0000
0000
0000
,  // measure 10
0010
0100
1000
0000
0001
0010
0100
0000
,  // measure 11
1000
0000
0100
0010
0000
0001
0100
0001
1000
0000
0100
0000
0001
0000
0000
0000
,  // measure 12
0100
0001
0010
0000
1000
0100
0001
0000
,  // measure 13
0100
0010
0100
0000
0010
0100
0001
0010
1000
0000
0010
0000
1001
0000
0000
0000
,  // measure 14
1000
0010
0100
0000
0010
0001
0100
0000
,  // measure 15
0010
0000
0100
0010
0001
0000
0010
0100
0001
0000
0100
0000
1000
0000
0000
0000
,  // measure 16
0100
0000
0001
0000
0010
0000
0000
0000
0100
1000
0100
0000
1000
0000
0100
0000
,  // measure 17
0001
0000
0100
1000
0100
0010
0001
0010
0001
0010
0001
0000
0100
0000
1000
0000
,  // measure 18
0220
0000
0330
2002
0000
3003
2020
3030
,  // measure 19
0202
0000
0303
0220
0000
0330
0001
1000
,  // measure 20
0002
0010
0100
0010
0103
2000
0100
0010
3100
0010
0002
0010
0100
0013
0100
2000
,  // measure 21
0100
0010
3100
0010
0002
0010
0100
2003
0100
0010
3001
0100
0010
1000
0001
0000
,  // measure 22
2002
0000
3003
0220
0000
0330
2020
3030
,  // measure 23
0202
0000
0303
0220
0330
0001
0100
0010
,  // measure 24
2000
0100
0010
3100
0010
0002
0010
0100
0013
0100
2000
0100
0010
3100
0010
0002
,  // measure 25
0010
0100
0013
0100
2000
0100
0010
3002
0010
0100
1003
0010
0001
0010
2000
0000
,  // measure 26
3000
0000
1100
0000
0101
0000
0001
0010
,  // measure 27
0000
0000
0000
0010
0000
0000
0100
0000
0000
0000
0000
0000
1010
0000
0000
0000
0110
0000
0000
0000
0101
0000
0000
0000
,  // measure 28
0100
0001
0010
0100
1000
0010
0001
0010
,  // measure 29
1000
0010
0100
0010
0001
0100
1000
0001
,  // measure 30
1001
0000
0011
0000
0110
0000
1000
0010
,  // measure 31
0000
0000
0000
0010
0000
0000
0100
0000
0000
0000
0000
0000
0011
0000
0000
0000
0110
0000
0000
0000
1001
0000
0000
0000
,  // measure 32
1010
0010
0100
0001
0100
1000
0100
0001
,  // measure 33
0100
0010
1000
0010
0001
0100
1000
0001
,  // measure 34
1001
0000
0101
0000
1100
0000
1000
0010
,  // measure 35
0000
0000
0000
0010
0000
0000
0001
0000
0000
0000
0000
0000
0101
0000
0000
0000
0110
0000
0000
0000
1001
0000
0000
0000
,  // measure 36
0120
0000
0000
0030
0101
0120
0030
2100
,  // measure 37
0000
3000
2002
3003
0220
0330
2002
0000
,  // measure 38
3003
0000
0000
0000
0000
0000
0000
0000
0110
0000
0000
0000
0000
0000
0000
0000
0011
0000
0000
0000
0000
0000
0000
0000
1100
0000
0000
0000
0000
0000
0000
2000
,  // measure 39
0200
0000
0000
0000
0000
0000
0000
0000
0000
0000
0000
0000
0000
0000
0000
0000
0000
0000
0000
0000
0000
0000
0000
0000
0000
0000
0000
0000
0000
0000
0000
0000
0000
0000
0000
0000
0000
0000
0000
0000
0000
0000
0000
0000
0000
0000
0000
0000
0000
0000
0000
0000
0000
0000
0000
0000
0000
0000
0000
0000
0000
0000
0000
0000
0000
0000
0000
0000
0000
0000
0000
0000
3300
0000
0000
0000
0000
0000
0000
0000
0000
0000
0000
0000
0000
0000
0000
0000
0000
0000
0000
0000
0000
0000
0000
0000
1010
0000
0000
0000
0000
0000
0000
0000
0000
0000
0000
0000
0000
0000
0000
0000
0000
0000
0000
0000
0000
0000
0000
0000
0000
0000
0000
0000
0000
0000
0000
0000
0110
0000
0000
0000
0000
0000
0000
0000
0000
0000
0000
0000
0000
0000
0000
0000
0000
0000
0000
0000
0000
0000
0000
0000
0000
0000
0000
0000
0000
0000
0000
0000
0101
0000
0000
0000
0000
0000
0000
0000
0000
0000
0000
0000
0000
0000
0000
0000
0000
0000
0000
0000
0000
0000
0000
0000
0000
0000
0001
0000
0000
0000
0000
0000
,  // measure 40
1000
0100
0010
0001
0100
1000
0100
0001
,  // measure 41
0100
0010
1000
0100
0001
0010
1000
0100
,  // measure 42
1001
0000
0011
0000
1100
0000
0110
0000
0011
0000
0002
0010
0000
1003
0100
0000
,  // measure 43
1010
0000
0011
0000
1100
0000
0110
0000
0101
0000
2000
0010
0000
3001
0100
0000
,  // measure 44
0011
0000
1100
0000
1010
0000
0110
0000
1001
0000
0002
0010
0000
1003
0100
0000
,  // measure 45
0011
0000
1100
0000
0110
0000
1010
0000
0101
0000
2000
0010
0000
3001
0100
0000
,  // measure 46
1010
0000
0011
0000
0110
0000
1010
0000
1100
0000
0200
0001
0000
0310
1000
0000
,  // measure 47
1010
0000
0110
0000
1001
0000
1010
0000
0101
0000
2000
0010
0000
3001
0100
0000
,  // measure 48
0011
0000
0110
0000
1100
0000
0011
0000
1100
0000
0002
0010
0000
1003
0100
0000
,  // measure 49
2002
0000
0000
0000
0000
0000
3003
1001
,  // measure 50
1001
0110
0000
0000
0101
0000
1010
0000
,  // measure 51
0010
0100
1000
0000
0001
0010
0100
0000
,  // measure 52
1000
0000
0100
0010
0000
0001
0100
0001
1000
0000
0100
0000
0001
0000
0000
0000
,  // measure 53
0100
0001
0010
0000
1000
0100
0001
0000
,  // measure 54
0100
0010
0100
0000
0010
0100
0001
0010
1000
0000
0010
0000
1001
0000
0000
0000
,  // measure 55
1000
0010
0100
0000
0010
0001
0100
0000
,  // measure 56
0010
0000
0100
0010
0001
0000
0010
0100
0001
0000
0100
0000
1000
0000
0000
0000
,  // measure 57
0100
0000
0001
0000
0010
0000
0000
0000
0100
1000
0100
0000
1000
0000
0100
0000
,  // measure 58
0001
0000
0100
1000
0100
0010
0001
0010
0001
0010
0001
0000
0100
0000
1000
0000
,  // measure 59
0100
0010
0001
0000
1000
0100
0010
0000
,  // measure 60
0001
0000
0010
0100
0000
1000
0010
1000
0001
0000
0010
0000
1000
0000
0000
0000
,  // measure 61
0010
1000
0100
0000
0001
0010
1000
0000
,  // measure 62
0010
0100
0010
0000
0100
0010
1000
0100
0001
0000
0100
0000
1001
0000
0000
0000
,  // measure 63
0001
0100
0010
0000
0100
1000
0010
0000
,  // measure 64
0100
0000
0010
0100
1000
0000
0100
0010
1000
0000
0010
0000
0001
0000
0000
0000
,  // measure 65
0010
0000
1000
0000
0100
0000
0000
0000
0010
0001
0010
0000
0001
0000
0010
0000
,  // measure 66
1000
0000
0010
0001
0010
0100
1000
0100
1000
0100
1000
0000
0010
0000
0001
0000
,  // measure 67
0110
0000
1001
0000
0010
0100
1000
0000
,  // measure 68
1010
0000
0110
0100
0000
0000
0110
0000
,  // measure 69
0011
1100
0110
0101
,  // measure 70
0010
0000
0100
0000
1000
0000
0001
0010
0001
0010
0100
0000
1000
0000
0000
0000
,  // measure 71
1010
0110
0101
1100
,  // measure 72
0011
0000
0110
0100
0000
1000
0001
0000
,  // measure 73
0010
0100
1000
0000
0001
0010
0100
0000
,  // measure 74
0010
0000
1000
0000
0100
0010
0100
0010
0001
0000
1000
0000
1001
0000
0000
0000
,  // measure 75
1002
0000
1000
0003
1100
0000
0000
0000
0102
0000
0100
0003
0110
0000
0000
0000
,  // measure 76
2001
0000
0001
3000
0011
0000
0000
0000
2010
0000
0010
3000
0110
0000
0000
0000
,  // measure 77
1020
0000
1000
0030
1100
0000
0000
0000
0102
0000
0100
0003
0110
0000
0000
0000
,  // measure 78
2001
0000
0001
3000
0011
0000
0000
0000
1020
0000
1000
0030
0001
2000
0010
0002
,  // measure 79
3003
0000
0000
0000
;
