#TITLE:seraphic snow;
#SUBTITLE:;
#ARTIST:Ta-k;
#TITLETRANSLIT:;
#SUBTITLETRANSLIT:;
#ARTISTTRANSLIT:;
#CREDIT:;
#BANNER:seraphic snow.png;
#BACKGROUND:seraphic snow-bg.png;
#LYRICSPATH:;
#CDTITLE:cdtitle.png;
#MUSIC:seraphic snow.mp3;
#OFFSET:-0.900;
#SAMPLESTART:54.280;
#SAMPLELENGTH:12.000;
#SELECTABLE:YES;
#DISPLAYBPM:135.000;
#BPMS:0.000=135.000,324.000=80.000,324.250=85.000,324.500=90.000,324.750=95.000,325.000=100.000,325.250=105.000,325.667=110.000,326.000=115.000,326.333=120.000,326.750=135.000,327.000=150.000,327.250=180.000,327.500=250.000,328.000=300.000,332.000=250.000,332.500=220.000,333.000=180.000,333.500=150.000,334.000=135.000,334.250=120.000,334.500=100.000,334.750=80.000,335.000=70.000,335.250=60.000,335.500=50.000,335.750=45.000,336.000=40.000,336.750=135.000;
#STOPS:;
#BGCHANGES:68.000=BGA.avi=1.000=0=0=1,
336.750=seraphic snow-bg.png=1.000=0=0=1,
99999=-nosongbg-=1.000=0=0=0 // don't automatically add -songbackground-
;

//---------------dance-single - beginner----------------
#NOTES:
     dance-single:
     beginner:
     Beginner:
     1:
     0.166,0.187,0.013,0.000,0.000:
0000
0000
0000
0000
,
0000
0000
0000
0000
,
0000
0000
0000
0000
,
0000
0000
0000
0000
,
0000
0000
0000
0000
,
1000
0000
0000
1000
,
0000
0001
0000
0001
,
0000
1000
0000
1000
,
0000
0001
0000
0001
,
0000
1000
0000
0100
,
0000
0010
0000
0001
,
0000
0010
0000
0100
,
0000
1000
0000
1000
,
1000
1000
0000
0100
,
0000
0010
0000
0001
,
0000
1000
0000
0010
,
0000
0100
0000
1001
,
1001
0000
0001
0000
,
1000
0000
0010
0000
,
0100
0000
0001
0000
,
0100
0000
0010
0000
,
1000
0000
1000
0000
,
0010
0000
0010
0000
,
0001
0000
0001
0000
,
0010
0000
0010
0000
,
1000
0000
1000
0000
,
0100
0000
0100
0000
,
0001
0000
0001
0000
,
0100
0000
0100
0000
,
1000
0000
1000
0000
,
0001
0000
0001
0000
,
1000
0000
1000
0000
,
0001
0000
0001
0000
,
1000
0000
1000
0000
,
1000
0000
1000
0000
,
0001
0000
0001
0000
,
0001
0000
0001
0000
,
0100
0000
0100
0000
,
0100
0000
0100
0000
,
0010
0000
0010
0000
,
0010
0000
0010
0000
,
1000
0000
1000
0000
,
0001
0000
0001
0000
,
0100
0000
0100
0000
,
0001
0000
0001
0000
,
1000
0000
1000
0000
,
0001
0000
0001
0000
,
0010
0000
0010
0000
,
0001
0000
0001
0000
,
0000
1000
0000
1000
,
0000
0001
0000
0100
,
0000
0001
0000
0001
,
0000
1000
0000
0100
,
0000
1000
0000
1000
,
0000
1000
0000
0100
,
0000
0001
0000
0001
,
0000
0001
0000
0100
,
0000
1000
1000
1000
,
0000
0001
0001
0001
,
0000
0100
0100
0100
,
0000
0010
0010
0010
,
0000
1000
1000
1000
,
0000
0001
0001
0001
,
0000
0100
0100
0100
,
0000
0010
0010
0010
,
0000
1000
0000
1000
,
0000
0001
0000
0001
,
0000
0010
0010
0010
,
0000
0100
0100
0100
,
0000
0001
0000
0001
,
0000
1000
0000
1000
,
0000
0010
0010
0010
,
0000
0100
0100
0100
,
0000
0001
0001
0001
,
0000
1000
1000
1000
,
0000
0100
0100
0100
,
0000
0010
0010
0010
,
0000
1000
1000
1000
,
0000
0001
0001
0001
,
0000
0100
0100
0100
,
0000
0010
0010
0010
,
0010
0000
0000
0000
;

//---------------dance-single - BASIC----------------
#NOTES:
     dance-single:
     BASIC:
     Easy:
     3:
     0.255,0.278,0.079,0.251,0.000:
0000
0000
0000
0000
,
2000
0000
0000
0000
,
3002
0000
0000
0000
,
0023
0000
0000
0000
,
0000
0000
0000
0030
,
2000
0000
0000
0000
,
3002
0000
0000
0000
,
0023
0000
0000
0000
,
0000
0000
0000
0030
,
1000
0001
0000
0001
,
1000
0100
0000
0100
,
1000
0010
0000
0010
,
0001
0010
0000
0010
,
1001
1000
0000
1000
,
0100
1000
0000
0010
,
1001
0100
0000
1000
,
0100
0001
0010
1000
,
1001
1000
0010
0100
,
0000
0001
0010
0100
,
0000
1000
0001
0010
,
0000
1000
0010
0100
,
0000
0001
0010
0100
,
0000
1000
0100
0010
,
0000
0001
0010
0100
,
0000
1000
0100
0001
,
0000
0001
0100
1000
,
0000
1000
0010
0001
,
0000
0001
0010
1000
,
0000
1000
0100
0001
,
0000
1000
0100
0001
,
0000
0001
0010
1000
,
0000
0001
0010
1000
,
0100
0001
1000
0001
,
1002
0003
2000
3000
,
0200
0300
0020
0030
,
0002
0003
2000
3000
,
0020
0030
0200
0300
,
0002
0003
0020
0030
,
0200
0300
2000
3000
,
0002
0003
0200
0300
,
0020
0030
2000
3000
,
0002
0003
2000
3000
,
0020
0030
2000
3000
,
0200
0300
0020
0030
,
0002
0003
2000
3000
,
0022
0000
0033
0000
,
2200
0000
3300
0000
,
2002
0000
0000
0000
,
0000
0000
0000
0000
,
3003
1000
0100
0001
,
0000
0001
0100
1000
,
0000
1000
0100
0001
,
0000
0001
0100
1000
,
0000
1000
0100
0010
,
0000
1000
0100
0010
,
0000
0001
0100
0010
,
0000
0001
0100
0010
,
0000
1000
1000
1000
,
0000
0001
0001
0001
,
0000
1000
1000
1000
,
0000
0001
0001
0001
,
0000
1000
1000
1001
,
0000
0001
0001
1001
,
0000
1000
1001
1000
,
0000
0001
1001
0001
,
0000
1000
0010
0100
,
0010
0001
0010
0100
,
0010
1000
0010
0010
,
0001
0010
0010
1000
,
0001
0100
0001
1000
,
0100
1000
1000
1000
,
1000
0010
0010
0010
,
0001
0001
0001
1000
,
0001
0010
0001
1000
,
0010
1000
0001
0100
,
0010
0100
0001
1000
,
0100
0010
0100
1000
,
0001
0010
0010
0010
,
1000
0010
0010
0010
,
0001
0100
1000
0010
,
0001
0100
1000
0010
,
2002
0000
0000
0000
,
0000
0000
0000
0000
,
0000
0000
0000
0000
,
0000
0000
0000
3003
0000
0000
0000
0000
0000
0000
0000
0000
0000
0000
0000
0000
;

//---------------dance-single - TRICK----------------
#NOTES:
     dance-single:
     TRICK:
     Medium:
     6:
     0.420,0.417,0.244,0.198,0.000:
0000
0000
0000
0000
,
1000
0000
1000
0000
,
0001
0000
0001
0000
,
0010
0000
0010
0000
,
1000
0000
1000
0000
,
0001
0000
0001
0000
,
0010
0000
0010
0000
,
1000
0000
1000
0000
,
0001
0000
0001
0000
,
1000
0001
0010
0001
,
1000
0100
0010
0100
,
1000
0010
1000
0010
,
0001
0010
1000
0010
,
1001
1000
0001
1000
,
0100
1000
0100
0001
,
1001
0100
1000
0010
,
1001
0100
1000
0110
,
1001
1100
0010
0100
,
1001
0011
0010
0100
,
1001
1010
0001
0010
,
1001
1010
0010
0100
,
1001
0011
0010
0100
,
1001
1010
0100
0010
,
1001
0101
0010
0100
,
1001
1010
0100
0001
,
1001
0101
0100
1000
,
1001
1100
0010
0001
,
1001
0011
0010
1000
,
1010
1100
0100
0001
,
1001
0101
0100
1000
,
1001
1100
0010
1000
,
1001
0101
0010
1000
,
0100
0001
1000
0001
,
1001
0002
2003
3100
,
0200
0310
0020
0031
,
0002
1003
2000
3100
,
0020
0031
0200
0310
,
0002
1003
0020
0031
,
0200
0310
2000
3100
,
0002
1003
0200
0301
,
0020
0130
2000
3010
,
0002
0103
2000
3001
,
0020
1030
2000
3100
,
0200
0310
0020
1030
,
0002
0103
2000
3010
,
0002
0100
0100
0013
,
2000
0010
0100
3100
,
2002
0000
0000
0000
,
0000
0000
0000
0000
,
3003
0000
1000
0100
0010
0000
0001
0001
,
0001
0000
0001
0100
0010
0000
1000
1000
,
1000
0000
1000
0100
0010
0000
0001
0001
,
0001
0000
0001
0100
0010
0000
1000
1000
,
1000
0000
1000
1000
1000
0000
0010
0001
,
0100
0000
0001
0001
0001
0000
0010
1000
,
0100
0000
0001
0001
0100
0000
0010
1000
,
1000
0000
1000
1000
0100
0000
0010
0001
,
0001
0000
1000
0100
0001
0000
1000
0100
,
0001
0000
0001
0100
1000
0000
0001
0100
,
1000
0000
1000
0010
1000
0000
1000
1000
,
1000
0000
0001
0010
0001
0000
0001
0001
,
0001
0000
1000
1000
1000
0000
0001
0100
,
1000
0000
0001
0001
0001
0000
1000
0100
,
0001
0000
1000
0010
0100
0000
0100
0001
,
0010
0000
0001
0010
0100
0000
0100
1000
,
0010
0000
1000
0100
0010
0100
0001
0100
,
1000
0000
0001
0100
0010
0100
1000
0100
,
0001
0000
1000
1000
0010
0100
1000
0100
,
0001
0000
0001
0001
0010
0100
0001
0100
,
1000
0000
0010
0010
0001
0010
1000
0100
,
0001
0000
0010
0010
1000
0010
0001
0100
,
1000
0000
0010
0001
1000
0100
0010
0001
,
0100
0000
0010
1000
0001
0010
0100
1000
,
0100
0000
0010
0010
0001
0010
1000
0100
,
0010
0000
0010
0010
0001
0010
1000
0100
,
0010
0000
0100
0010
0001
0100
1000
0010
,
0100
0000
0100
0010
1000
0100
0001
0010
,
0100
0000
0010
0010
0010
0100
0010
1000
,
0100
0000
0010
0010
0010
0100
0010
0001
,
0100
0000
0100
1000
0010
0100
1000
0100
,
0001
0010
0100
0010
1000
0010
0001
0100
,
2002
0000
0000
0000
,
0000
0000
0000
0000
,
0000
0000
0000
0000
,
0000
0000
0000
3003
0000
0000
0000
0000
0000
0000
0000
0000
0000
0000
0000
0000
;

//---------------dance-single - HEAVY----------------
#NOTES:
     dance-single:
     HEAVY:
     Hard:
     9:
     0.613,0.584,0.238,0.231,0.238:
0000
0000
0000
0000
,
1000
1000
0001
1000
0010
0010
0100
0010
,
0001
0001
1000
0100
0001
0001
0010
1000
,
0010
0010
0100
1000
0010
0010
0001
0100
,
1000
1000
0010
0001
0010
0010
1000
0100
,
0001
0001
0010
1000
0001
0001
0100
1000
,
0010
0010
0100
1000
0001
0001
0100
1000
,
0010
0010
0100
1000
0100
0100
0010
0001
,
0100
0100
1000
0010
0001
0001
0010
0100
,
1000
1000
0001
0010
0100
0100
0001
1000
,
0010
0010
0100
0001
0010
0010
0100
1000
,
0100
0100
0010
0001
1000
1000
0010
0001
,
0100
0100
0010
1000
0100
0100
0010
0001
,
1001
1000
0100
0010
0001
0001
0100
0010
,
0100
0100
1000
0100
0001
0001
0010
1000
,
1001
0001
0100
0010
1000
1000
0010
0001
,
1001
1000
0100
0001
1000
1000
0110
0110
,
1001
1000
1100
0000
0010
0001
0100
0000
,
1001
0001
0011
0000
0010
1000
0100
0000
,
1001
1000
1010
0000
0001
0100
0010
0000
,
1001
0010
1010
0000
0010
0001
0100
0000
,
1001
0100
0110
0000
0010
0001
0100
0000
,
1001
0001
0101
0000
0100
1000
0010
0000
,
1001
0100
0110
0000
1000
0100
0001
0000
,
1001
0001
0011
0000
1000
0100
0001
0000
,
1001
0100
0001
0010
0100
0010
1000
0100
,
1001
1000
0010
0100
0010
0001
1000
0100
,
1001
0010
0001
0010
1000
0100
1000
0010
,
1001
1000
0100
0010
0100
0001
0100
1000
,
1001
0001
0100
0010
0100
1000
0100
0001
,
1001
1000
0100
0010
0100
0001
0010
1000
,
1001
0001
0010
0100
1000
0010
0001
0010
,
1000
0010
0100
0001
0010
1000
0010
0001
,
1001
0000
0002
0010
2003
0100
3100
0000
,
0200
0010
0310
0001
0020
0000
0031
1000
,
0002
0010
1003
0000
2000
0100
3100
0001
,
0020
0000
0031
0001
0200
1000
0310
0000
,
1002
0100
0103
0000
2001
0100
3100
0000
,
0120
0001
1030
0000
0120
1000
0031
0000
,
0002
1003
0200
0301
,
0020
0130
2000
3010
,
1002
0100
0103
0000
2001
0100
3100
0000
,
0020
1000
0130
0000
0200
0001
0310
0000
,
2000
3001
0020
0130
,
0002
0103
2000
3010
,
0002
0100
0013
0100
2000
0100
3001
0000
,
2000
0100
3010
0100
0002
0100
1003
0100
,
0001
0010
0100
1000
0100
0001
0010
0100
,
1000
0010
0001
1000
0010
0001
1000
0001
,
1000
0001
0000
0000
0001
1000
0000
0000
1000
0100
0000
0000
0100
0010
0000
0000
,
0001
0010
0000
0000
0100
1000
0000
0000
1000
0100
0000
0000
0100
0010
0000
0000
,
0010
0001
0000
0000
0001
0100
0000
0000
0100
1000
0000
0000
1000
0010
0000
0000
,
0010
0100
0000
0000
0100
0001
0000
0000
0001
0010
0000
0000
0100
1000
0000
0000
,
1000
0001
0000
0000
0001
0010
0000
0000
0010
0100
0000
0000
0100
1000
0000
0000
,
1000
0100
0000
0000
0100
0010
0000
0000
0010
0001
0000
0000
0001
0010
0000
0000
,
0010
1000
0000
0000
1000
0010
0000
0000
0010
0001
0000
0000
0001
1000
0000
0000
,
1000
0100
0000
0000
0100
0010
0000
0000
0010
0001
0000
0000
0001
0010
0000
0000
,
0010
0100
0000
0000
0100
1000
0000
0000
1000
0001
0000
0000
0001
1000
0000
0000
,
1000
0100
0000
0000
0100
0001
0000
0000
0001
0010
0000
0000
0010
1000
0000
0000
,
1000
0100
0001
1000
0100
0001
1000
0100
,
0010
1000
0100
0010
1000
0100
0001
1000
,
0100
0001
0000
0000
0001
0010
0000
0000
1000
0100
0000
0000
0001
0010
0000
0000
,
1000
0100
0000
0000
0001
0010
0000
0000
1000
0100
0000
0000
0100
0001
0000
0000
,
0001
0010
0000
0000
0010
1000
0000
0000
1000
0100
0000
0000
0100
0001
0000
0000
,
0001
0100
0000
0000
1000
0100
0000
0000
0001
0100
0000
0000
1000
0100
0000
0000
,
0002
0000
1003
0000
0010
0100
0002
0000
,
2003
0000
3001
0000
0010
0100
1000
0100
,
0001
0000
1000
0100
0010
0000
1000
0000
,
0001
0010
0001
0100
0010
0100
0001
0100
,
1000
0000
0010
1000
0001
0000
1000
0100
,
0001
0000
1000
0000
0001
0010
0001
0100
,
1000
0100
0000
0000
0100
1000
0000
0000
1000
0100
0000
0000
0010
0001
0000
0000
,
0001
0100
0000
0000
0010
0000
1000
0000
0001
0000
0010
0000
0100
0000
1000
0000
,
0100
0000
0010
0010
0001
0010
1000
0100
,
0010
0000
0010
0000
0001
0010
1000
0100
,
0010
0001
0000
0000
0001
0010
0000
0000
0100
1000
0000
0000
1000
0100
0000
0000
,
0100
0000
0100
0010
1000
0100
0001
0010
,
0200
0000
0320
0000
0130
0000
0010
1000
,
0100
0010
0000
0000
0001
0010
0000
0000
0100
1000
0000
0000
0010
0000
0001
0000
,
0100
1000
0010
0001
1000
0010
1000
0001
,
1000
0000
0100
0000
0001
0000
0010
0000
1000
0100
0010
0001
0100
0010
1000
0001
,
2002
0000
0000
0000
,
0000
0000
0000
0000
,
0000
0000
0000
0000
,
0000
0000
0000
3003
0000
0000
0000
0000
0000
0000
0000
0000
0000
0000
0000
0000
;

//---------------dance-single - ONI----------------
#NOTES:
     dance-single:
     ONI:
     Challenge:
     10:
     0.764,0.695,0.528,0.561,0.390: // measure 1
0000
0000
0000
0000
,  // measure 2
1000
0010
1001
1000
0010
1000
0110
0010
,  // measure 3
0001
0010
1100
0100
0001
0010
0110
1000
,  // measure 4
0010
0100
1001
1000
0100
0010
0011
0001
,  // measure 5
0100
1000
1100
1000
0100
0001
0101
0100
,  // measure 6
0010
1000
1010
0001
0010
0100
1100
1000
,  // measure 7
0100
0010
0101
1000
0001
0010
0110
1000
,  // measure 8
0010
0001
0110
1000
0100
0001
0110
0001
,  // measure 9
0100
1000
1001
0010
0001
0100
0110
0100
,  // measure 10
1000
0001
0101
0010
0100
0010
0101
0001
,  // measure 11
0100
0010
1010
0100
0010
0001
0101
1000
,  // measure 12
0100
1000
1010
0001
1000
0100
0110
0001
,  // measure 13
0100
0001
0110
1000
0100
1000
0110
0001
,  // measure 14
1001
1000
0110
0010
0001
0010
0110
0010
,  // measure 15
0100
0010
1010
0100
0001
0100
0011
1100
,  // measure 16
1001
0001
0100
0010
1001
1000
0010
0001
,  // measure 17
1001
0000
1000
0000
0100
0000
0001
0000
0000
0001
0000
0000
0100
0000
0010
0100
,  // measure 18
1001
0000
1000
0000
1100
0000
0000
0000
0010
0001
0100
0000
1001
0000
0000
0000
,  // measure 19
1001
0000
0001
0000
0011
0000
0000
0000
0010
1000
0100
0000
1001
0000
0000
0000
,  // measure 20
1001
0000
1000
0000
1010
0000
0000
0000
0100
0001
0010
0000
1001
0000
0000
0000
,  // measure 21
1001
0000
0010
0000
1010
0000
0000
0000
0100
1000
0010
0000
1001
0000
0000
0000
,  // measure 22
1001
0000
0001
0000
0011
0000
0000
0000
0100
1000
0010
0000
1001
0000
0000
0000
,  // measure 23
1001
0000
1000
0000
1100
0000
0000
0000
0100
0001
0010
0000
1001
0000
0000
0000
,  // measure 24
1001
0000
0001
0000
0101
0000
0000
0000
0010
1000
0100
0000
1001
0000
0000
0000
,  // measure 25
1001
0000
0100
0000
0101
0000
0000
0000
0010
0001
0100
0000
1001
0000
0000
0000
,  // measure 26
1001
0000
0100
0000
0001
0000
0010
0000
0100
0001
0010
0000
1001
0000
0100
0000
,  // measure 27
1001
0000
1000
0000
0010
0000
0100
0000
0010
1000
0001
0000
1001
0000
0100
0000
,  // measure 28
1001
0000
0010
0000
0001
0000
0010
0000
1000
0001
0100
0000
1010
0000
0010
0000
,  // measure 29
1001
0000
0010
0000
1000
0000
0100
0000
0010
1000
0100
0000
1001
0000
0010
0000
,  // measure 30
1001
0000
0001
0000
0100
0000
0010
0000
0100
0001
1000
0000
1001
0000
0010
0000
,  // measure 31
1001
0000
0100
0000
1000
0000
0100
0000
0001
1000
0010
0000
0101
0000
0100
0000
,  // measure 32
1001
0001
0010
1000
0100
0010
0001
0100
,  // measure 33
1000
0100
0010
0001
0100
1000
0010
0100
,  // measure 34
1001
0000
0002
0100
2003
0100
3002
0010
,  // measure 35
0203
1000
0302
1000
0023
1000
0230
1000
,  // measure 36
0302
0010
2003
0100
3020
0100
2030
0001
,  // measure 37
3020
0100
2030
0001
3200
1000
0320
1000
,  // measure 38
0032
0203
2300
3020
,  // measure 39
0032
2003
3002
0203
,  // measure 40
0302
0023
0230
2300
,  // measure 41
3020
0230
0302
0023
,  // measure 42
2030
3200
2300
3020
,  // measure 43
2030
3002
0203
0320
,  // measure 44
2030
3200
0320
0230
,  // measure 45
0302
0203
2300
3020
,  // measure 46
0031
0010
1000
0100
0010
1000
0100
0001
,  // measure 47
0020
0000
0000
0000
0000
0030
1000
0100
,  // measure 48
0001
0100
0001
0000
0100
0001
0000
0010
1000
0000
1000
0100
0000
0100
0001
0000
,  // measure 49
0001
0010
0000
1000
0100
0000
0100
1000
0001
0010
0000
0100
1000
0000
0001
1000
,  // measure 50
0100
1000
0010
0000
0010
0001
0000
0001
0100
0000
0100
1000
0000
1000
0001
0000
,  // measure 51
0001
0010
0000
0010
0001
0000
0100
0010
0100
0010
0000
0100
1000
0000
0010
0100
,  // measure 52
0001
1000
0100
0000
0001
0100
0000
0010
1000
0000
0001
0100
0000
0010
0100
0000
,  // measure 53
1000
0010
0000
0100
0001
0000
0010
0100
0010
0001
0000
1000
0100
0000
0001
0010
,  // measure 54
0100
1000
0010
0000
0010
1000
0000
0001
0100
0000
1000
0100
0000
0001
0100
0000
,  // measure 55
1000
0100
0000
0100
0010
0000
0010
1000
0100
1000
0000
0010
0001
0000
0010
1000
,  // measure 56
0100
0010
0001
0000
0010
1000
0000
0010
0001
0000
1000
0100
0000
0010
0001
0010
,  // measure 57
0001
0000
1000
0100
0000
0100
0001
0000
0100
1000
0000
0001
0010
0000
1000
0100
,  // measure 58
1000
0001
0010
0000
1000
0100
0000
0010
0001
0000
0001
0010
0000
0100
1000
0000
,  // measure 59
1000
0001
0000
0001
0010
0000
0100
1000
0100
1000
0000
0001
0010
0000
0100
0000
,  // measure 60
1000
0100
0000
0010
0001
0000
0001
1000
0000
1000
0100
0000
0100
0010
0001
0010
,  // measure 61
0001
0000
0010
0001
0000
1000
0100
0000
0100
1000
0000
0000
1000
0100
0010
0001
,  // measure 62
1000
0100
0010
0000
0100
0001
0000
0100
1000
0000
0010
0001
0000
0010
0100
0000
,  // measure 63
1000
0100
0000
0010
0001
0000
0001
0100
0010
1000
0000
1000
0100
0000
0010
0001
,  // measure 64
1000
0100
0010
0000
1000
0100
0000
0010
0001
0000
0001
0010
0000
0100
1000
0000
,  // measure 65
1000
0100
0000
0010
0001
0000
0001
0100
1000
0100
0000
0010
1000
0000
1000
0100
,  // measure 66
0002
1000
1003
0100
0010
0000
0002
0100
,  // measure 67
2003
0000
3002
0000
0013
0100
1000
0100
,  // measure 68
1002
0000
1003
0100
0020
0000
1030
0100
,  // measure 69
1010
0010
0001
0100
0010
0100
0001
0100
,  // measure 70
2001
0000
3020
1000
0032
0000
1003
0100
,  // measure 71
1002
0000
2003
0000
3001
0010
0001
0100
,  // measure 72
2000
0000
3100
0200
0010
0301
2000
0100
,  // measure 73
3001
0000
0010
1000
0100
0001
0010
1000
,  // measure 74
0200
0000
0310
0010
0002
0010
2003
0100
,  // measure 75
3020
0000
0130
0000
0002
0010
1003
0200
,  // measure 76
0010
0300
0002
0200
0003
0000
1000
0300
,  // measure 77
0010
1100
0101
0110
2001
0000
3002
0010
,  // measure 78
0203
0000
0310
1000
0100
0002
0010
2003
,  // measure 79
0100
3100
0002
0000
0203
0000
0320
0001
,  // measure 80
0230
1000
0310
0002
0100
0023
1000
0031
,  // measure 81
2000
0000
0010
0000
3002
0000
0100
0000
1003
0100
0010
0001
0100
0010
1000
0001
,  // measure 82
2002
0000
0000
0000
,  // measure 83
0000
0000
0000
0000
,  // measure 84
0000
0000
0000
0000
,  // measure 85
0000
0000
0000
3003
0000
0000
0000
0000
0000
0000
0000
0000
0000
0000
0000
0000
;
