#TITLE:探し物;
#SUBTITLE:;
#ARTIST:ONOKEN;
#TITLETRANSLIT:sagasimono;
#SUBTITLETRANSLIT:;
#ARTISTTRANSLIT:;
#CREDIT:;
#BANNER:sagasimono.png;
#BACKGROUND:sagasimono-bg.png;
#LYRICSPATH:;
#CDTITLE:cdtitle.png;
#MUSIC:sagasimono.mp3;
#OFFSET:0.020;
#SAMPLESTART:53.400;
#SAMPLELENGTH:12.000;
#SELECTABLE:YES;
#DISPLAYBPM:20.000:80.000;
#BPMS:0.000=80.000,160.000=78.000,160.250=76.000,160.500=74.000,160.750=72.000,161.000=70.000,161.250=68.000,161.500=66.000,161.750=64.000,162.000=62.000,162.250=60.000,162.500=58.000,162.750=54.000,163.000=48.000,163.250=40.000,163.500=30.000,163.750=20.000,164.000=80.000,197.000=60.000,197.750=40.000,198.250=20.000,198.500=18.000,198.750=16.000,199.000=14.000,199.250=13.000,199.500=12.500,199.750=8.000,200.000=80.000;
#STOPS:;
#BGCHANGES:;

//---------------dance-single - BASIC----------------
#NOTES:
     dance-single:
     BASIC:
     Easy:
     2:
     0.181,0.155,0.155,0.025,0.000: // measure 1
0000
0000
0000
0000
,  // measure 2
1000
0001
0100
0010
,  // measure 3
1000
0100
1001
0000
,  // measure 4
0001
1000
0100
0010
,  // measure 5
0001
0100
1001
0000
,  // measure 6
0001
0100
0010
1000
,  // measure 7
0001
0100
1001
0000
,  // measure 8
1000
0010
0100
0001
,  // measure 9
1000
0100
1001
0000
,  // measure 10
1001
0010
1000
0100
,  // measure 11
0001
0010
1001
0000
,  // measure 12
1001
0010
1000
0100
,  // measure 13
0001
0010
1001
0000
,  // measure 14
1001
1000
0100
0001
,  // measure 15
1000
0010
1001
0000
,  // measure 16
1001
0001
0010
1000
,  // measure 17
0001
0100
1001
0000
,  // measure 18
1000
0010
0100
0001
,  // measure 19
0100
0010
1000
0000
,  // measure 20
0001
0100
0010
1000
,  // measure 21
0010
0100
0001
0000
,  // measure 22
1000
0100
0001
1000
,  // measure 23
0001
0100
1000
0000
,  // measure 24
0001
0100
1000
0001
,  // measure 25
1000
0100
0001
0000
,  // measure 26
1000
1000
0001
0001
,  // measure 27
0100
0100
1001
0000
,  // measure 28
0001
0001
1000
1000
,  // measure 29
0100
0100
1001
0000
,  // measure 30
1000
1000
0010
0010
,  // measure 31
0001
0001
0100
1001
,  // measure 32
0001
0001
0100
0100
,  // measure 33
1000
1000
0010
1001
,  // measure 34
1000
0001
0100
0010
,  // measure 35
1000
0001
0100
0010
,  // measure 36
1000
0001
0010
0100
,  // measure 37
1000
0001
0010
0100
,  // measure 38
1000
0010
0100
0001
,  // measure 39
0100
0010
1000
0001
,  // measure 40
0100
0010
1000
0001
,  // measure 41
1000
0001
0100
0010
,  // measure 42
1001
1000
0100
0001
,  // measure 43
0010
1000
1001
0000
,  // measure 44
1001
0001
0100
1000
,  // measure 45
0010
0001
1001
0000
,  // measure 46
0110
1000
0010
0001
,  // measure 47
0100
1000
0110
0000
,  // measure 48
0110
0001
0100
1000
,  // measure 49
0010
0001
0220
0330
,  // measure 50
2002
0000
0000
0000
,  // measure 51
3003
0000
0000
0000
;

//---------------dance-single - ANOTHER----------------
#NOTES:
     dance-single:
     ANOTHER:
     Medium:
     3:
     0.254,0.249,0.093,0.162,0.000:
0000
0000
0000
0000
0000
0000
1000
0010
,
1000
0001
0100
0010
,
1000
0100
0001
0010
2000
3000
0001
0010
,
0001
1000
0010
0100
,
0001
0010
1000
0100
0002
0003
1000
0100
,
1000
0001
0100
0010
,
1000
0100
0001
0010
2000
3000
0001
0010
,
0001
1000
0010
0100
,
0001
0100
1000
0010
0002
0003
1000
0001
,
1000
0000
0010
0100
0001
0000
0100
0000
,
1000
0100
0001
0010
2000
3000
0001
1000
,
0001
0000
0100
0010
1000
0000
0010
0000
,
0001
0100
1000
0010
0002
0003
1000
0001
,
1000
0000
0010
0100
0001
0000
0100
0000
,
1000
0010
0001
0100
2000
3000
0001
1000
,
0001
0000
0100
0010
1000
0000
0010
0000
,
0001
0100
1000
0010
0002
0003
1000
0010
,
1001
0010
0100
0001
,
0100
0010
1000
0001
0200
0000
0300
0000
,
0001
0100
0010
1000
,
0010
0100
0001
1000
0020
0000
0030
0000
,
1000
0010
1000
0001
,
0010
0100
1000
0001
0200
0000
0300
0000
,
0001
0100
0010
1000
,
0010
1000
0001
0100
0020
0000
0030
0000
,
1000
1000
0001
0001
,
0100
0100
0010
0010
2000
0000
3000
0000
,
0001
0001
1000
1000
,
0010
0010
0100
0100
0002
0000
0003
0000
,
1000
1000
0010
0010
,
0001
0001
1000
1000
0200
0000
0300
0000
,
0001
0001
0100
0100
,
1000
1000
0001
0001
0020
0000
0030
0000
,
1000
0001
0100
0010
,
1000
0001
0100
0010
,
1000
0001
0010
0100
,
1000
0001
0010
0100
,
1010
0110
0101
0110
,
1010
0110
0101
1001
,
1100
1001
0011
0001
,
2000
3000
0002
0003
0200
0300
0020
0030
,
1001
0000
1000
0010
0100
0000
0001
0100
,
0010
0000
1000
0001
2000
0000
3000
0000
,
1001
0000
0001
0010
0100
0000
1000
0010
,
0100
0000
0001
1000
0002
0000
0003
0000
,
0010
0100
0001
0100
0010
1000
0001
0100
,
0001
1000
0010
0001
0200
0000
0300
0000
,
0100
0010
1000
0010
0100
0001
1000
0010
,
1000
0001
0100
1000
0020
0000
0030
0000
,
2002
0000
0000
0000
,
3003
0000
0000
0000
,
;

//---------------dance-single - MANIAC----------------
#NOTES:
     dance-single:
     MANIAC:
     Hard:
     6:
     0.378,0.311,0.236,0.187,0.000:
0000
0000
0000
0000
0000
0000
1000
0010
,
1000
0000
0001
0010
0100
0001
0010
0100
,
1000
0100
0001
0010
2000
3000
0001
0010
,
0001
0000
1000
0010
0100
1000
0100
0010
,
0001
0010
1000
0100
0002
0003
1000
0100
,
1000
0000
0001
0010
0100
0001
0010
0100
,
1000
0100
0001
0010
2000
3000
0001
0010
,
0001
0000
1000
0010
0100
1000
0100
0010
,
0001
0100
1000
0010
0002
0003
1000
0001
,
1001
0000
0010
0100
1001
0010
0100
0001
,
1000
0100
0001
0010
2002
3003
0001
1000
,
1001
0000
0100
0010
1001
0100
0010
1000
,
0001
0100
1000
0010
2002
3003
1000
0001
,
1001
0000
0010
0100
1001
0010
0100
0001
,
1000
0010
0001
0100
2002
3003
0001
1000
,
1001
0000
0100
0010
1001
0100
0010
1000
,
0001
0100
1000
0010
2002
3003
1000
0010
,
1001
0100
0010
0001
0100
0010
1000
0001
,
0100
1000
0010
0001
0210
0000
1300
0010
,
1001
0010
0100
1000
0001
0100
0010
1000
,
0010
0001
0100
1000
0120
0000
0031
0100
,
1001
0100
0010
0001
1000
0010
0100
0001
,
0100
1000
0010
0001
0210
0000
1300
0010
,
1001
0010
0100
1000
0001
0100
0010
1000
,
0100
0001
0010
1000
0120
0000
0031
0100
,
1001
0010
1000
0001
0010
0001
1000
0001
,
1000
0100
0001
0010
2001
0000
3010
0100
,
1001
0100
0001
1000
0100
1000
0001
1000
,
0001
0010
1000
0100
1002
0000
0103
0010
,
1001
0001
1000
0010
0001
0100
0001
1000
,
0001
0100
0001
0010
2100
0000
3010
0100
,
1001
0010
1000
0001
0010
0001
1000
0001
,
1000
0100
0001
0010
2001
0000
3010
0100
,
1001
0100
0010
1000
0001
0100
0010
1000
,
0001
0100
0010
1000
0100
0010
0001
0100
,
0010
1000
0001
0100
0010
1000
0001
0100
,
0010
1000
0100
0010
0001
1000
0010
0100
,
0001
1000
0100
1000
0001
0100
0010
0100
,
0001
1000
0010
0100
0010
1000
0001
0100
,
0010
0001
0010
0100
0001
1000
0010
0100
,
1000
0010
0001
0100
1000
0010
0001
1000
,
1001
1000
1000
0100
0100
0001
0001
0010
,
0010
1000
0100
0001
2002
3003
0100
0010
,
1001
0001
0001
0100
0100
1000
1000
0010
,
0010
0001
0001
0100
2002
3003
0100
0010
,
1001
1000
0010
0001
1000
0010
0001
0100
,
1000
0001
0100
1000
2002
3003
1000
0010
,
1001
0001
0010
1000
0001
0010
1000
0100
,
0001
1000
0100
0001
0220
0000
0330
0000
,
2002
0000
0000
0000
,
3003
0000
0000
0000
,
;

//---------------dance-single - SMANIAC----------------
#NOTES:
     dance-single:
     SMANIAC:
     Challenge:
     10:
     0.626,0.777,0.330,0.323,0.687:
0000
0000
0000
0000
0000
0000
1000
0010
,
0001
0000
0000
0100
0000
0000
1001
0000
0000
0001
0000
0000
1000
0000
0000
0001
0010
0100
1000
0000
0000
0100
0000
0000
,
1000
0100
0001
0010
2002
3003
0001
0100
,
1000
0000
0000
0010
0000
0000
1001
0000
0000
1000
0000
0000
0001
0000
0000
1000
0100
0010
0001
0000
0000
0010
0000
0000
,
0001
0010
1000
0100
2002
3003
1000
0100
,
0001
0000
0000
0010
0000
0000
1001
0000
0000
0001
0000
0000
1000
0000
0000
0001
0010
0100
1000
0000
0000
0100
0000
0000
,
1000
0100
0001
0010
2002
3003
0001
0010
,
1000
0000
0000
0100
0000
0000
1001
0000
0000
1000
0000
0000
0001
0000
0000
1000
0100
0010
0001
0000
0000
1000
0000
0000
,
0001
0100
1000
0010
2002
3003
1000
0001
,
1001
0000
0000
0100
0000
0000
0010
0000
0000
0100
0000
0000
1001
0000
0000
1000
0010
0100
0001
0000
0000
1000
0000
0000
,
0100
0001
0010
1000
2002
3003
0001
1000
,
1001
0000
0000
0010
0000
0000
0100
0000
0000
0010
0000
0000
1001
0000
0000
0001
0100
0010
1000
0000
0000
0001
0000
0000
,
0010
1000
0100
0001
2002
3003
1000
0001
,
1001
0000
0000
1000
0000
0000
0100
0000
0000
0001
0000
0000
1001
0000
0000
0010
1000
0001
0100
0000
0000
0001
0000
0000
,
1000
0010
0001
0100
2002
3003
0001
1000
,
1001
0000
0000
0001
0000
0000
0010
0000
0000
1000
0000
0000
1001
0000
0000
0100
0001
1000
0010
0000
0000
1000
0000
0000
,
0001
0000
0100
0000
1000
0000
0010
0000
2002
0000
3003
0000
1000
0100
0001
0010
,
1001
0100
0010
0001
0100
0010
1000
0001
,
0100
1000
0100
1000
0010
0001
1000
0110
0110
2002
0000
3003
0001
0010
1000
0100
,
1001
0010
0100
1000
0010
0100
0001
1000
,
0010
0000
0000
0001
0000
0000
0010
0000
0000
0001
0000
0000
0100
0000
0000
1000
0000
0000
0100
0000
0000
0010
0000
0000
0001
0000
0010
0000
0100
0000
2000
0000
0000
0000
0000
0000
3001
0000
0000
0010
0000
0000
1000
0000
0000
0100
0000
0000
,
1001
0010
0100
1000
0010
0100
0001
1000
,
0010
0001
0010
0001
0100
1000
0001
0110
0110
2002
0000
3003
1000
0100
0001
0010
,
1001
0100
0010
0001
0100
0010
1000
0001
,
0100
0000
0000
1000
0000
0000
0100
0000
0000
1000
0000
0000
0010
0000
0000
0001
0000
0000
0010
0000
0000
0100
0000
0000
1000
0000
0100
0000
0010
0000
0002
0000
0000
0000
0000
0000
1003
0000
0000
0100
0000
0000
0001
0000
0000
0010
0000
0000
,
1001
0010
1000
0100
0001
1000
0010
1000
,
0001
0010
1000
0100
0001
1000
0001
0110
0110
2002
0000
3003
0001
0100
1000
0010
,
1001
0100
0001
1000
0100
1000
0001
1000
,
0001
0000
0000
0010
0000
0000
0001
0000
0000
0010
0000
0000
1000
0000
0000
0100
0000
0000
1000
0000
0000
0100
0000
0000
1000
0000
0100
0000
0010
0000
0002
0000
0000
0000
0000
0000
1003
0000
0000
0100
0000
0000
0001
0000
0000
0010
0000
0000
,
1001
0100
0001
0010
1000
0001
0100
0001
,
1000
0100
0001
0010
1000
0001
1000
0110
0110
2002
0000
3003
1000
0010
0001
0100
,
1001
0010
1000
0001
0010
0001
1000
0001
,
1000
0000
0000
0100
0000
0000
1000
0000
0000
0100
0000
0000
0001
0000
0000
0010
0000
0000
0001
0000
0000
0010
0000
0000
0001
0000
0010
0000
0100
0000
2000
0000
0000
0000
0000
0000
3001
0000
0000
0100
0000
0000
1000
0000
0000
0010
0000
0000
,
0001
0010
0100
0010
0001
0010
0100
1000
0100
0010
0100
1000
0001
0010
1000
0010
,
0001
0100
1000
0100
0001
0010
0100
1000
0001
0100
0010
0100
0001
0100
0010
1000
,
0100
0010
0001
0100
0010
0100
0001
1000
0010
1000
0001
0010
0100
0010
0001
1000
,
0010
1000
0010
0100
0001
0010
0100
0010
0001
0100
0010
0100
0001
0100
0010
1000
,
1001
0001
0010
0001
1000
0100
0010
0100
1000
0001
0100
0010
1000
0001
0100
0010
,
1000
0010
0100
0001
0100
0010
1000
0001
0100
0010
0100
0001
0010
0100
0010
0001
,
1000
0010
0100
0001
1000
0001
0010
1000
0010
0001
1000
0010
0001
0010
1000
0001
,
2000
0000
0000
0000
3000
0000
0000
0000
0000
0000
0000
0000
0020
0000
0000
0000
0030
0000
0000
0000
0000
0000
0000
0000
0002
0000
0000
0000
0003
0000
0000
0000
0000
0000
0000
0000
0200
0000
0000
0000
0300
0000
0000
0000
0000
0000
0000
0000
2000
0000
0000
0000
3000
0000
0000
0000
0000
0000
0000
0000
0200
0000
0000
0000
0300
0000
0000
0000
0000
0000
0000
0000
0002
0000
0000
0000
0003
0000
0000
0000
0000
0000
0000
0000
0020
0000
0000
0000
0030
0000
0000
0000
0000
0000
0000
0000
2000
0000
0000
0000
3000
0000
0000
0000
0000
0000
0000
0000
0200
0000
0000
0000
0300
0000
0000
0000
0000
0000
0000
0000
0002
0000
0003
0000
0000
0000
0000
0000
0000
0000
0000
0000
0020
0000
0030
0000
0000
0000
0000
0000
0000
0000
0000
0000
2000
0000
3000
0000
0000
0000
0000
0000
0000
0000
0000
0000
0200
0000
0300
0000
0000
0000
0000
0000
0000
0000
0000
0000
0002
0000
0003
0000
0000
0000
0000
0000
0000
0000
0000
0000
2000
0000
3000
0000
0000
0000
0000
0000
0000
0000
0000
0000
,
1001
1000
0010
1000
0010
0001
0100
0001
0100
1000
0010
1000
0010
0001
0100
0001
,
0100
1000
0010
0001
0100
1000
0001
0110
0110
2002
0000
3003
0001
0100
1000
0010
,
1001
0001
0010
0001
0010
1000
0100
1000
0100
0001
0010
0001
0010
1000
0100
1000
,
0100
0000
0000
0001
0000
0000
0010
0000
0000
1000
0000
0000
0100
0000
0000
0001
0000
0000
1000
0000
0000
0001
0000
0000
1000
0000
0010
0000
0100
0000
0002
0000
0000
1003
0000
0000
0100
0000
0000
0001
0000
0000
0010
0000
0000
1000
0000
0000
,
1001
1000
0010
1000
0010
0001
0100
0001
0100
0001
0010
0001
0010
1000
0100
1000
,
0100
0001
1000
0100
0001
0010
1000
0110
0110
2002
0000
3003
1000
0100
0001
0010
,
1001
0001
0010
0001
0010
1000
0100
1000
0100
1000
0010
1000
0010
0001
0100
0001
,
0100
0000
0000
1000
0000
0000
0001
0000
0000
0100
0000
0000
1000
0000
0000
0010
0000
0000
0001
0000
0000
1000
0000
0000
0001
0000
0010
0000
0100
0000
2000
0000
0000
3001
0000
0000
0100
0000
0000
1000
0000
0000
0010
0000
0000
0001
0000
0000
,
1001
0000
0000
0000
0000
0000
0000
0000
0000
0000
0000
0000
0000
0000
0000
0000
0000
0000
0000
0000
0000
0000
0000
0000
0001
0000
0000
0000
0000
0000
0000
0000
0000
0000
0000
0000
0000
0000
0000
0000
0000
0000
0000
0000
0000
0000
0000
0000
0100
0000
0000
0000
0000
0000
0000
0000
0000
0000
0000
0000
0000
0000
0000
0000
0000
0000
1000
0000
0000
0000
0000
0000
0000
0000
0000
0000
0000
0000
0000
0000
0000
0000
0000
0000
0001
0000
0000
0000
0000
0000
0000
0000
0000
0000
0000
0000
0100
0000
0000
0000
0000
0000
0000
0000
0000
0000
0000
0000
1000
0000
0000
0000
0000
0000
0001
0000
0000
0000
0000
0000
1000
0000
0100
0000
0010
0000
0001
0000
0010
0000
0100
0000
1000
0000
0010
0000
0001
0000
0100
0000
1000
0000
0010
0000
2002
0000
0000
0000
0000
0000
0000
0000
0000
0000
0000
0000
0000
0000
0000
0000
0000
0000
0000
0000
0000
0000
0000
0000
0000
0000
0000
0000
0000
0000
0000
0000
0000
0000
0000
0000
0000
0000
0000
0000
0000
0000
0000
0000
0000
0000
0000
0000
,
3003
0000
0000
0000
;
