#TITLE:pangaea;
#SUBTITLE:;
#ARTIST:sasakure.UK;
#TITLETRANSLIT:;
#SUBTITLETRANSLIT:;
#ARTISTTRANSLIT:;
#CREDIT:;
#BANNER:Pangaea.png;
#BACKGROUND:Pangaea-bg.png;
#LYRICSPATH:;
#CDTITLE:cdtitle.png;
#MUSIC:pangaea.mp3;
#OFFSET:-0.140;
#SAMPLESTART:119.750;
#SAMPLELENGTH:15.600;
#SELECTABLE:YES;
#BPMS:0.000=95.000,36.000=118.000;
#STOPS:;
#BGCHANGES:-0.250=pangaea.avi=1.000=1=1=0,
308.000=Pangaea-bg.png=1.000=1=0=1,
99999=-nosongbg-=1.000=0=0=0 // don't automatically add -songbackground-
;

//---------------dance-single - BASIC----------------
#NOTES:
     dance-single:
     BASIC:
     Easy:
     2:
     0.107,0.221,0.111,0.029,0.000: // measure 1
0000
0000
0000
0000
,  // measure 2
0000
0000
0000
0000
,  // measure 3
0000
0000
0000
0000
,  // measure 4
0000
0000
0000
0000
,  // measure 5
0000
0000
0000
0000
,  // measure 6
0000
0000
0000
0000
,  // measure 7
0000
0000
0000
0000
,  // measure 8
0000
0000
0000
0000
,  // measure 9
0000
0000
0000
0000
,  // measure 10
1001
0000
0000
0000
,  // measure 11
0010
0000
0000
0000
,  // measure 12
0100
0000
0100
0000
,  // measure 13
0100
0000
0000
0000
,  // measure 14
0010
0000
0000
0000
,  // measure 15
0001
0000
0000
0000
,  // measure 16
1000
0000
0000
0000
,  // measure 17
0020
0000
0000
0030
,  // measure 18
1001
0000
0000
0010
,  // measure 19
0000
0000
0000
0000
,  // measure 20
0001
0000
0000
0000
,  // measure 21
1000
0000
0000
0000
,  // measure 22
1001
0000
0000
0010
,  // measure 23
0000
0000
0000
0000
,  // measure 24
1000
0000
0000
0000
,  // measure 25
0001
1000
0001
1000
,  // measure 26
1001
0000
0000
0000
,  // measure 27
0010
0000
0000
0000
,  // measure 28
0100
0000
0000
0000
,  // measure 29
0001
0000
0000
0000
,  // measure 30
1000
0000
0000
0010
,  // measure 31
0100
0000
0000
0000
,  // measure 32
0100
0000
0000
0100
0000
0000
0000
0100
,  // measure 33
0000
0000
0000
0000
0000
0100
0000
0000
,  // measure 34
0020
0000
0000
0000
,  // measure 35
0000
0000
0000
0000
,  // measure 36
0230
0000
0000
0000
,  // measure 37
0000
0000
0000
0000
,  // measure 38
0320
0000
0000
0000
,  // measure 39
0000
0000
0000
0000
,  // measure 40
0230
0000
0000
0000
,  // measure 41
0000
0000
0000
0000
,  // measure 42
0301
0000
0000
0000
,  // measure 43
1000
0000
0010
0100
,  // measure 44
0010
0000
0000
0000
,  // measure 45
0000
0000
0000
0000
,  // measure 46
0010
0000
0000
0000
,  // measure 47
1000
0000
0001
1000
,  // measure 48
0001
1000
0010
0100
,  // measure 49
0010
0000
0000
0000
,  // measure 50
1001
0000
0000
0000
,  // measure 51
0110
0000
0000
0000
,  // measure 52
1001
0000
0000
0000
,  // measure 53
0010
0000
0000
0000
,  // measure 54
0110
0000
0000
0000
,  // measure 55
0110
0000
0000
0000
,  // measure 56
1001
0000
0000
0000
,  // measure 57
1001
0000
0000
0000
,  // measure 58
1000
0001
0010
0000
,  // measure 59
1000
0001
0100
0000
,  // measure 60
1000
0010
0100
0000
,  // measure 61
0001
0010
0100
0000
,  // measure 62
0010
0000
0100
0000
,  // measure 63
0010
0010
0100
0100
,  // measure 64
0100
0000
0000
0000
,  // measure 65
0100
0001
1000
0001
,  // measure 66
1000
0001
0000
0010
,  // measure 67
0100
0000
0000
1000
,  // measure 68
0010
0000
0000
0001
,  // measure 69
0100
0100
0100
0100
,  // measure 70
0001
0000
1000
0000
,  // measure 71
0001
0001
1000
1000
,  // measure 72
1001
0000
0110
0000
,  // measure 73
1001
0000
0000
0000
,  // measure 74
1001
0000
0000
0000
,  // measure 75
0110
0000
0000
0000
,  // measure 76
1001
0000
0110
0000
,  // measure 77
1001
0000
0000
0000
;

//---------------dance-single - TRICK----------------
#NOTES:
     dance-single:
     TRICK:
     Medium:
     5:
     0.238,0.376,0.169,0.017,0.131:
0000
0000
0000
0000
,
0000
0000
0000
0000
,
0000
0000
0000
0000
,
0000
0000
0000
0000
,
0000
0000
0000
0000
,
0000
0000
0000
0000
,
0000
0000
0000
0000
,
0000
0000
0000
0000
,
0000
0000
0000
0000
,
1001
0000
0000
0100
0000
0000
0100
0000
0000
0000
0000
0000
0000
0000
0000
0000
,
0010
0000
0000
0100
0000
0000
0100
0000
0000
0000
0000
0000
0000
0000
0000
0000
,
0100
0000
0000
1000
0000
0000
1000
0000
0100
0000
0000
0001
0000
0000
0001
0000
,
0100
0000
0000
0100
0000
0000
0100
0000
0000
0000
0100
0000
0000
0000
0000
0000
,
0000
0010
1000
0001
0000
0001
1000
0100
,
0000
0000
0000
0000
,
0000
0001
1000
0010
0000
0010
1000
0001
,
0020
0000
0000
0030
,
1001
0000
0000
0010
,
1000
0000
0000
0100
0000
0000
0010
0000
0000
0000
0000
0000
0000
0000
0000
0000
,
0001
0000
0000
1000
0000
0000
0100
0000
0000
0000
0000
0000
0000
0000
0000
0000
,
0010
0000
0000
0001
0000
0000
0100
0000
0000
0000
0000
0000
0000
0000
0000
0000
,
1001
0000
0000
0010
,
1000
0000
0000
0001
0000
0000
0010
0000
0000
0000
0000
0000
0000
0000
0000
0000
,
1000
0000
0000
0100
0000
0000
0001
0000
0000
0000
0000
0000
0000
0000
0000
0000
,
1001
0000
0000
1000
0001
0000
0000
0001
1000
0000
0000
1000
0001
0000
0000
0001
,
1000
0001
0010
0100
,
0010
0000
0000
0000
0000
0010
0000
0000
,
0100
0000
0100
1000
,
0001
0000
0000
0110
0000
1001
0000
0110
,
0000
1000
0001
0010
,
0100
0000
0000
0000
0000
0010
0000
0000
,
0100
1000
1000
0100
0000
0001
0100
0100
,
0000
1000
0100
0100
0000
0100
0000
0000
,
0010
0000
0000
0010
0000
0000
0010
0000
0000
0000
0000
0000
0000
0000
0000
0000
,
0010
0000
0000
0010
0000
0000
0010
0000
0000
0000
0000
0000
0000
0000
0000
0000
,
0100
0000
0000
0100
0000
0000
0100
0000
0000
0000
0000
0000
0000
0000
0000
0000
,
0100
0000
0000
0100
0000
0000
0100
0000
0000
0000
0000
0000
0000
0000
0000
0000
,
0001
0000
0000
0001
0000
0000
0001
0000
0000
0000
0000
0000
0000
0000
0000
0000
,
1000
0000
0000
1000
0000
0000
1000
0000
0000
0000
0000
0000
0000
0000
0000
0000
,
1000
0000
0000
0010
0000
0000
0001
0000
0000
0000
0000
0000
0000
0000
0000
0000
,
1000
0000
0000
0010
0000
0000
0001
0000
0000
0000
0000
0000
0000
0000
0000
0000
,
1001
0000
0000
0000
,
1000
0000
0010
0100
,
0010
0000
0010
0000
1000
0001
0000
0100
,
0000
0010
0000
0100
0000
0100
0000
0000
,
0010
0000
0000
0000
,
1000
0000
0001
1000
,
0001
0000
0000
1000
0001
0000
0000
0001
1000
0000
0000
1000
0001
0000
0000
0001
,
1000
0000
0000
0000
,
1001
0000
0000
0100
0000
0000
0100
0000
0000
0000
0000
0000
0000
0000
0000
0000
,
0110
0000
0000
0001
0000
0000
0001
0000
0000
0000
0000
0000
0000
0000
0000
0000
,
1001
0000
0000
0010
0000
0000
0010
0000
0000
0000
0000
0000
0000
0000
0000
0000
,
0010
0000
0000
0100
0000
0000
0100
0000
0000
0000
0000
0000
0000
0000
0000
0000
,
1001
0000
0000
0010
0000
0000
0010
0000
0000
0000
0000
0000
0000
0000
0000
0000
,
0110
0000
0000
1000
0000
0000
1000
0000
0000
0000
0000
0000
0000
0000
0000
0000
,
1001
0000
0000
0100
0000
0000
0100
0000
0000
0000
0000
0000
0000
0000
0000
0000
,
1001
0000
2002
3003
,
1000
0001
0010
1000
,
0010
0001
0100
1001
,
1000
0010
0100
0001
,
0010
0001
1000
0100
,
0010
0010
0100
0000
,
1001
0110
1001
0110
,
0100
0001
1000
0010
,
0100
0000
0000
0001
1000
0000
0000
1000
0001
0000
0000
0001
1000
0000
0000
1000
,
0001
0000
1000
0010
0100
0000
0010
0001
,
0100
0000
1000
0010
0001
0000
1000
0000
,
0010
0001
0100
0000
1000
0010
0001
0000
,
0001
0100
1000
0000
0100
0000
0100
0000
,
0001
0010
1000
0000
,
0110
1001
0110
1001
,
0001
0010
1000
0000
0001
0010
0100
0000
,
1001
0000
0000
1000
0001
0000
0000
0001
1000
0000
0000
1000
0001
0000
0000
0001
,
1000
0010
0100
0000
1000
0010
0001
0000
,
1001
0000
0000
0001
1000
0000
0000
1000
0001
0000
0000
0001
1000
0000
0000
1000
,
0001
0100
1000
0000
0110
0000
0000
0000
,
1001
0000
0000
0000
;

//---------------dance-single - HEAVY----------------
#NOTES:
     dance-single:
     HEAVY:
     Hard:
     7:
     0.372,0.443,0.344,0.058,0.149:
0000
0000
0000
0000
,
0000
0000
0000
0000
,
0000
0000
0000
0000
,
0000
0000
0000
0000
,
0000
0000
0000
0000
,
0000
0000
0000
0000
,
0000
0000
0000
0000
,
0000
0000
0000
0000
,
0000
0000
0000
0000
,
1001
0000
0000
1000
0000
0000
1000
0000
0000
0000
0010
0000
0100
0000
0100
0000
,
0010
0000
0000
0100
0000
0000
0100
0000
0000
0000
0100
0000
0001
0000
0001
0000
,
0100
0000
0000
1000
0000
0000
1100
0000
0100
0000
0000
0001
0000
0000
0101
0000
,
0100
0000
0000
0100
0000
0000
0100
0000
0000
0000
0100
0000
0010
0000
0010
0000
,
1000
1010
1001
0100
0000
0011
1001
0100
,
0100
1000
0010
0100
0001
0010
0100
1000
,
0001
1001
1010
0010
0000
1001
0011
0010
,
0020
0000
0000
0100
0000
0000
0100
0000
0000
0000
0100
0000
0130
0000
0100
0000
,
1001
0000
0000
1000
0000
0000
0010
0000
0000
0000
0000
0000
0010
0000
0000
0000
,
1000
0000
0000
0100
0000
0000
0010
0000
0000
0000
0001
0000
0100
0000
0100
0000
,
0001
0000
0000
1000
0000
0000
0100
0000
0000
0000
0100
0000
0100
0000
0100
0000
,
0010
0000
0000
0001
0000
0000
0100
0000
0000
0000
1000
0000
0001
0000
1000
0000
,
0001
0000
0000
0010
0000
0000
0100
0000
0000
0000
0100
0000
0010
0000
0000
0000
,
1000
0000
0000
0001
0000
0000
0010
0000
0000
0000
1000
0000
0100
0000
0100
0000
,
0000
0010
0100
0001
0000
1000
0001
0000
,
1001
0000
0000
1000
0100
0000
0000
0001
0010
0000
0000
1000
0100
0000
0000
0001
,
0010
0010
1000
0001
0000
0100
1000
0001
,
0000
1000
0010
0100
0000
0010
0001
0100
,
0000
0100
1000
0010
0000
0100
0000
1001
,
0000
0000
0000
0011
0000
1010
0000
0101
,
0100
0000
0000
0100
0000
0000
0100
0000
0000
0000
0000
0000
0010
0000
0000
0000
,
0100
0000
0000
0001
0000
0000
1000
0000
0000
0000
0010
0000
0100
0000
0000
0000
,
0100
1000
0010
1010
0000
0001
0100
1100
,
0000
1000
0001
1001
0000
1001
0000
0000
,
0020
0000
0000
0000
0000
0030
0010
0000
,
0010
0000
0000
1000
0000
0000
0100
0000
0000
0000
0001
0000
0100
0000
0100
0000
,
0100
0000
0000
1000
0000
0000
0010
0000
0020
0000
0000
0000
0000
0000
0000
0000
,
0130
0000
0000
1000
0000
0000
0010
0000
0000
0000
0001
0000
0100
0000
1000
0000
,
0002
0000
0000
0000
0000
0003
1000
0000
,
0010
0000
0000
0001
0000
0000
0100
0000
0000
0000
0100
0000
1000
0000
0001
0000
,
0000
1000
0010
0001
0000
0010
0100
1000
,
0000
0000
0010
0000
0001
0000
0010
0000
0100
0000
0000
0100
0000
0000
0100
0000
,
1001
1000
0100
0100
0000
0001
0001
0010
,
0000
1000
1000
0100
0000
0001
1000
1000
,
0000
0000
0120
0000
0130
0100
0000
1001
,
0000
1010
0000
0101
0000
1001
0000
0000
,
0010
0100
0001
0100
0000
0100
1000
0010
,
0000
0001
0100
1000
0000
1000
0001
1000
,
1001
0000
0000
0001
0010
0000
0000
1000
0100
0000
0000
0001
0010
0000
0000
1000
,
0200
0000
0000
0010
0000
0000
0010
0000
0000
0000
0000
0000
0300
0000
0000
0000
,
1001
0000
0000
1000
0000
0000
1000
0000
0000
0000
0010
0000
0000
0000
0010
0000
,
0110
0000
0000
0100
0000
0000
0100
0000
0000
0000
1000
0000
1000
0000
1000
0000
,
1001
0000
0000
0001
0000
0000
0001
0000
0000
0000
0100
0000
0000
0000
0100
0000
,
1100
0000
0000
1000
0000
0000
1000
0000
0000
0000
0010
0000
0010
0000
0010
0000
,
1010
0000
0000
1000
0000
0000
1000
0000
0000
0000
0100
0000
0000
0000
0100
0000
,
0101
0000
0000
0001
0000
0000
0001
0000
0000
0000
0010
0000
0010
0000
0010
0000
,
1010
0000
0000
1000
0000
0000
1000
0000
0000
0000
0001
0000
0000
0000
1000
0000
,
0001
0000
0010
0000
0100
0000
1001
0000
0000
0110
0000
0000
2002
0000
0000
0000
0000
0000
3003
0000
0000
0000
0000
0000
,
1000
0010
0100
0100
0001
1000
0100
0000
,
0110
0001
0100
1001
,
1000
0010
0100
1000
0100
0001
0010
0000
,
0110
0001
1000
0110
,
0010
0100
0010
0000
0100
0000
0100
0000
,
1001
0110
1001
0110
,
1000
0010
0100
1000
0100
0001
0010
0100
,
1000
0000
0000
1000
0010
0000
0000
0010
0100
0000
0000
0100
0001
0000
0000
0001
,
1000
0000
0110
0000
0001
0000
0010
0001
,
0100
1200
0301
0010
,
0120
0000
0100
0000
0031
0100
1000
0000
,
1010
0000
0100
0000
0100
1000
0010
0000
,
0011
0010
1000
0100
,
1001
0110
1001
0110
,
0001
0010
0100
0001
0010
1000
0100
0001
,
1001
0000
0000
1000
0100
0000
0000
0100
0001
0000
0000
0001
1000
0000
0000
1000
,
0010
0001
0100
1000
0010
0100
1000
0010
,
1001
0000
0000
0001
0010
0000
0000
0010
1000
0000
0000
1000
0100
0000
0000
0100
,
0001
0000
0010
0000
1000
0000
0100
0000
0000
0010
0000
0000
0110
0000
0000
0000
0000
0000
0000
0000
0000
0000
0000
0000
,
1001
0000
0000
0000
;

//---------------dance-single - ONI----------------
#NOTES:
     dance-single:
     ONI:
     Challenge:
     11:
     0.824,1.000,0.652,0.903,0.804:
0000
0000
0000
0000
0000
0000
0000
0000
0000
0000
0000
0000
0000
0000
0000
0000
0000
0000
0000
0000
0000
0000
0000
0000
0000
0000
0000
0000
0000
0000
0000
0000
0000
0000
0000
0000
0000
0000
0000
0000
0000
0000
0000
0000
0000
0000
0000
0000
0000
0000
0000
0000
0000
0000
0000
0000
0000
0000
0000
0000
0000
0000
0000
0010
,
0000
0000
0000
0000
0000
0000
0000
0000
0000
0000
0000
0000
0000
0000
0000
0000
0100
0000
0000
0000
0000
0000
0000
0000
0000
0000
0000
0000
0000
0000
0000
0000
0000
0000
0000
0000
0000
0000
0000
0000
0000
0000
0000
0000
0000
0000
0000
0000
0000
0000
0000
0000
0000
0000
0000
0000
0000
0000
0000
0000
0000
0000
0000
0001
,
0000
0000
0000
0000
0000
0000
0000
0000
0000
0000
0000
0000
0000
0000
0000
0000
1000
0000
0000
0000
0000
0000
0000
0000
0000
0000
0000
0000
0000
0000
0000
0000
0000
0000
0000
0000
0000
0000
0000
0000
0000
0000
0000
0000
0000
0000
0000
0000
0000
0000
0000
0000
0000
0000
0000
0100
0000
0000
0000
0000
0000
0000
0000
0000
,
0000
0000
0000
0000
0000
0000
0000
0000
0000
0000
0000
0000
0010
0000
0000
0000
0000
0000
0000
0000
0000
0000
0000
0000
0000
0000
0000
0000
0000
0000
0000
0000
0000
0000
0000
0000
0000
0000
0000
0000
0000
0000
0000
0000
0000
0000
0000
1000
,
0000
0000
0000
0000
0000
0000
0000
0000
0000
0000
0000
0000
0000
0001
0000
0000
0000
0000
0000
0000
0000
0000
0000
0000
0000
0000
0000
0000
0000
0000
0000
0000
0000
0000
0000
0000
0000
0010
0000
0000
0000
0000
0000
0000
0000
0000
0000
0000
0000
0000
0000
0000
0000
0000
0000
0000
0000
0000
0000
0000
0000
0000
0000
0000
,
0000
0000
0000
0000
0000
0000
0000
0000
0000
0000
0000
0000
0000
0000
0000
0000
0000
0000
0000
0000
0000
0000
0000
0000
0000
0000
0000
0000
0000
0000
0000
0000
0000
0000
0000
0000
0100
0000
0000
0000
0000
0000
0000
0000
0000
0000
0000
0000
0000
0000
0000
0000
0000
0000
0000
0000
0000
0000
0000
0000
0000
0000
0000
0000
0000
0000
0000
0000
0000
0000
0000
0000
0000
0000
0000
0000
0000
0000
1000
0000
0000
0000
0000
0000
0000
0000
0000
0000
0000
0000
0000
0000
0000
0000
0000
0000
0000
0000
0000
0000
0000
0000
0000
0000
0000
0000
0000
0000
0000
0000
0000
0000
0001
0000
0000
0000
0000
0000
0000
0000
0000
0000
0000
0000
0000
0000
0000
0000
0000
0000
0000
0000
0000
0000
0000
0000
0000
0000
0000
0000
0000
0000
0000
0000
0000
0000
0000
0000
0000
0000
0000
0000
0000
0000
0000
0000
0000
0000
0000
0000
0000
0000
0100
0000
0000
0000
0000
0000
0000
0000
0000
0000
0000
0000
0000
0000
0000
0000
0000
0000
0010
0000
0000
0000
0000
0000
0000
0000
0000
0000
0000
0000
,
0000
0000
0000
0100
0000
0000
0000
0000
0000
0100
0000
0000
0000
0000
0000
0100
,
0000
0000
0000
0200
0000
0000
0000
0000
0000
0000
0000
0000
0000
0000
0000
0000
,
0000
0000
0000
0300
,
1001
0000
0000
0000
0000
0000
1010
0000
0000
0000
0000
0000
0100
0000
1000
0100
1000
0000
0000
0000
0010
0000
0100
0000
0000
0000
1000
0000
0100
0000
0010
0000
,
0110
0000
0000
0101
0000
0000
1000
0010
1000
0000
0100
0001
0000
0000
0011
0000
,
0010
0000
1000
0010
0000
0000
1010
0000
0100
0000
0010
0100
0000
0000
1001
0000
,
0010
0000
0100
0001
0000
0000
1001
0000
0000
0000
0101
0000
0010
0000
0010
0000
,
1000
1010
1001
0100
0100
0011
1001
0100
,
0001
0000
0100
0010
0100
0000
0001
0000
0010
0000
0100
0000
1000
0000
0100
0000
0010
0000
0100
0000
1000
0000
0010
0000
0000
0000
1000
0000
0001
0000
0100
0000
,
0100
0000
0001
0100
0001
0100
0010
0000
0000
0000
1001
0000
1001
0000
0110
0000
,
0010
0000
1000
0100
0000
0001
0100
0000
0000
0000
0010
0000
0010
0000
0010
0000
,
1001
0000
1000
0100
0000
0010
0001
0000
0001
0000
0100
0000
0110
0000
0010
0000
,
0100
0000
1000
0100
0000
0010
1000
0000
0000
0000
1010
0000
1010
0000
1001
0000
,
0001
0000
1000
0010
0000
0100
0001
0000
0000
0000
0110
0000
0110
0000
1001
0000
,
0001
0000
0001
0100
0000
0010
1000
0000
1010
0000
0101
0000
0001
0000
1000
0000
,
0001
0000
0010
0100
0000
0100
1000
0000
0000
0000
0110
0000
0011
0000
0110
0000
,
1000
0000
0001
1000
0000
1000
0001
0000
0000
0000
1100
0000
0110
0000
1100
0000
,
0000
0011
0110
0011
0000
1000
0001
0000
,
1001
0000
0000
0000
0001
0000
0000
1000
0100
0000
0000
0000
0010
0000
0000
0001
0010
0000
0000
0000
0100
0000
0000
1000
0100
0000
0000
0000
0010
0000
0000
0001
,
0010
0000
0010
0100
1000
0000
0001
0000
0000
0000
0100
0010
0100
0000
0001
0000
,
0000
0000
1000
0010
1000
0000
0100
0000
0000
0000
0010
0001
1000
0000
0100
0000
,
0000
0000
0100
1000
0100
0000
0010
0000
0000
0000
0100
0000
0000
0000
1001
0000
,
0000
0001
1000
0011
0000
1010
0000
0101
,
0100
0000
0010
0100
0000
0001
0100
0000
0000
0000
0000
0000
0020
0000
0000
0000
,
0130
0000
0001
0100
0000
0010
1000
0000
0000
0000
0110
0000
1001
0000
0000
0000
,
1100
1000
0001
0011
0000
0011
0110
1100
,
0000
1010
0110
0101
0000
1001
0000
0000
,
0010
0000
0000
0200
0320
0230
0320
0230
0320
0230
0320
0230
0320
0230
0320
0230
0320
0230
0320
0230
0320
0230
0320
0230
,
0310
0000
0100
0001
0100
0001
0100
0001
0000
0000
0100
1000
0100
1000
0100
1000
,
0100
0000
0000
0020
0230
0320
0230
0320
0230
0320
0230
0320
0230
0320
0230
0320
0230
0320
0230
0320
0230
0320
0230
0320
,
0130
0000
0001
1000
0001
1000
0001
1000
0000
0000
0001
0010
0001
0010
0001
0010
,
0001
0000
0000
2000
3002
2003
3002
2003
3002
2003
3002
2003
3002
2003
3002
2003
3002
2003
3002
2003
3002
2003
3002
2003
,
3001
0000
1000
0010
1000
0010
1000
0010
0000
0000
1000
0001
1000
0001
1000
0001
,
1000
0000
0000
0002
2003
3002
2003
3002
2003
3002
2003
3002
2003
3002
2003
3002
2003
3002
2003
3002
2003
3002
2003
3002
,
1003
0000
0001
0010
0001
0010
0001
0010
0000
0000
0100
1000
0100
1000
0001
1000
,
1001
0000
0001
0010
0100
0000
1100
0000
0000
0000
1000
0010
0100
0000
0101
0000
,
0000
0000
0001
1000
0001
0000
0101
0000
0000
0000
1000
0001
1000
0000
0101
0000
,
0110
0000
0010
0000
1001
0110
0000
1001
,
0000
0000
1010
0000
0000
0000
0101
0000
0000
0000
1001
0000
0000
1000
0000
0000
,
0010
0000
0010
0100
0001
0000
1001
0000
1000
0000
0100
1000
0010
0000
0110
0000
,
0100
0000
0001
1000
0100
0000
1100
0000
1000
0000
0010
0001
0100
0000
1000
0000
,
1001
0000
0000
0000
0100
0000
0000
0010
0001
0000
0000
0000
0010
0000
0000
0100
1000
0000
0000
0000
0100
0000
0000
0010
0001
0000
0000
0000
0010
0000
0000
0100
,
1000
0000
0010
0100
0000
0100
0010
0000
0000
0000
0100
0000
0100
0000
0100
0000
,
1001
0000
0010
1000
0000
1000
0100
0000
1001
0000
0020
0000
0000
0100
0030
0000
,
0110
0000
0001
0100
0000
0100
0001
0000
0110
0000
2000
0000
0100
0000
3100
0000
,
1001
0000
0010
0001
0000
0001
0100
0000
1001
0000
0010
0000
1001
0000
0100
0000
,
1001
0110
0110
1001
0000
0010
1000
0001
,
0011
0000
0001
1000
0000
1000
0010
0000
0110
0000
0200
0000
0000
0010
0300
0000
,
0101
0000
0001
0100
0000
0010
1000
0000
1001
0000
0010
0000
0010
0000
0010
0000
,
1001
0000
0000
0000
1000
0000
0010
0000
0000
0000
0010
0000
0100
0000
0010
0100
0010
0000
0000
0000
1000
0000
0100
0000
0000
0000
0010
0000
0001
0000
1000
0000
,
1001
0000
0000
0000
0000
0000
0000
0000
0000
0000
0000
0000
0000
0000
0000
0000
1010
0000
0000
0000
0000
0000
0000
0000
0000
0000
0000
0000
0000
0000
0000
0000
0101
0000
0000
0000
0000
0000
0000
0000
0000
0000
0000
0000
0000
0000
0000
0000
0110
0000
0000
0000
0000
0000
0000
0000
0000
0000
0000
0000
0000
0000
0000
0000
0000
0000
0000
0000
0000
0000
0000
0000
1001
0000
0000
0000
0000
0000
0000
0000
0000
0000
0000
0000
0000
0000
0000
0000
0000
0000
0000
0000
0000
0000
0000
0000
2002
0000
0000
3003
0000
0000
0000
0000
0000
0000
0000
0000
0000
0000
0000
0000
0000
0000
0000
0000
0000
0000
0000
0000
0001
0000
0000
0000
0000
0000
0000
0000
0000
0000
0000
0000
0000
0000
0000
0000
0000
0000
0000
0000
0000
0000
0000
0000
0010
0000
0000
0000
0000
0000
0000
0000
0000
0000
0000
0000
0000
0000
0000
0000
0000
0000
0000
0000
0000
0000
0000
0000
0100
0000
0000
0000
0000
0000
0000
0000
0000
0000
0000
0000
0000
0000
0000
0000
0000
0000
0000
0000
0000
0000
0000
0000
,
1001
0000
0100
0010
0100
0000
1000
0000
0001
0000
0010
0100
0000
0100
0000
0010
,
1000
0001
1200
0000
0301
1000
1001
1001
,
0010
0000
1000
0000
0100
0000
0001
0000
0100
0010
0000
1010
0000
0101
0000
0010
,
0001
0100
1010
0100
0011
0100
1001
1001
,
0010
0000
0000
0000
0110
0000
0000
0000
0100
0000
0010
0100
0000
0000
0010
0000
,
1100
0010
0101
0010
1100
0010
0101
0010
,
1001
0000
0100
0000
0010
1000
0000
0011
0000
0000
0010
0000
1000
0010
0000
0100
,
0000
0000
0100
0000
0001
0000
0000
0010
0100
0000
0000
0000
0100
0000
0000
0100
1000
0000
0000
0000
1000
0000
0000
1000
0010
0000
0000
0000
0010
0000
0000
0100
,
0001
0010
0100
1000
0100
0010
0001
0010
0100
0010
0001
0010
0100
1000
0100
0010
,
0100
1000
0100
0010
0100
1000
0010
0100
0001
0010
0100
1000
0100
0001
0100
1000
,
0100
0001
0100
1000
0010
0100
0001
0010
1000
0010
0001
0010
1000
0010
0001
0010
,
0100
1000
0100
0010
0001
0100
0010
1000
0100
0010
0001
0100
0010
1000
0100
0010
,
0100
1000
0001
0010
0100
0010
0001
1000
0100
0001
0100
1000
0001
1000
0001
0010
,
0011
0100
1010
0100
0011
0100
1010
0100
,
1001
2000
3200
0320
0230
2300
3200
0320
0230
2300
3200
0302
0203
2300
3020
0230
,
0302
0203
2300
3200
0302
0203
2300
3200
0302
0023
2030
3020
0032
0023
2030
3020
,
0032
0203
2300
3200
0302
0023
2030
3020
0032
0203
2300
3200
0302
0023
2030
3200
,
0302
0203
2300
3020
0032
0023
2030
3200
0302
0203
2300
3020
0032
0023
2030
3200
,
0301
0000
0000
0000
0010
0000
0000
0000
1000
0000
0000
0000
0100
0000
0000
0000
0000
0000
0010
0000
0000
0000
0000
0000
0110
0000
0000
0000
0000
0000
0010
0000
0000
0100
0000
0000
0010
0000
0000
0001
0000
0000
0000
0000
0000
0100
0000
0000
,
1000
0000
0000
0000
;
