#TITLE:p-chick-park(・◇・);
#SUBTITLE:;
#ARTIST:ピヨスケ;
#TITLETRANSLIT:p-chick-park;
#SUBTITLETRANSLIT:;
#ARTISTTRANSLIT:pyosuke;
#CREDIT:;
#BANNER:p-chick-park.png;
#BACKGROUND:p-chick-park-bg.png;
#LYRICSPATH:;
#CDTITLE:cdtitle.png;
#MUSIC:p-chick-park.mp3;
#OFFSET:-1.420;
#SAMPLESTART:72.040;
#SAMPLELENGTH:12.000;
#SELECTABLE:YES;
#BPMS:0.000=170.000,168.000=340.000,228.000=170.001,364.000=85.001,380.000=170.000;
#STOPS:224.000=0.176
,225.000=0.176
,226.000=0.176
,227.000=0.176
;
#BGCHANGES:0.000=p-chick-park.avi=1.000=1=1=0,
415.000=p-chick-park-bg.png=1.000=1=0=1,
99999=-nosongbg-=1.000=0=0=0 // don't automatically add -songbackground-
;

//---------------dance-single - BASIC----------------
#NOTES:
     dance-single:
     BASIC:
     Easy:
     4:
     0.194,0.273,0.020,0.020,0.000: // measure 1
0000
0000
0000
0000
,  // measure 2
0000
0000
0000
0000
,  // measure 3
0000
1000
0000
0001
,  // measure 4
0000
0010
0000
0100
,  // measure 5
0000
0010
0000
0001
,  // measure 6
0000
1000
0000
0100
,  // measure 7
0000
1000
0000
0010
,  // measure 8
0000
0100
0000
0001
,  // measure 9
0000
0010
0000
0100
,  // measure 10
1000
0000
0000
0000
,  // measure 11
0010
0000
1000
0000
0001
0000
0000
0100
,  // measure 12
0000
0100
0000
0100
0000
0000
0000
0000
,  // measure 13
0010
0000
1000
0000
0001
0000
0000
0001
,  // measure 14
0000
1000
0000
0100
0000
0000
0000
0000
,  // measure 15
1000
0000
1000
0000
1000
0000
0000
0010
,  // measure 16
0000
0100
0000
0100
0000
0001
0000
1000
,  // measure 17
0000
0000
0000
0010
0000
0000
0000
0000
,  // measure 18
0100
0000
0000
0000
0000
0100
0000
0000
,  // measure 19
0001
0000
0100
0000
0010
0000
0000
0100
,  // measure 20
0000
0100
0000
0100
0000
0000
0000
0000
,  // measure 21
1000
0000
0001
0000
0010
0000
0000
1000
,  // measure 22
0000
0100
0000
1000
0000
0000
0000
0000
,  // measure 23
0100
0000
0010
0000
1000
0000
0000
0010
,  // measure 24
0000
0100
0000
0001
0000
1000
0000
0010
,  // measure 25
0000
0000
0000
1000
0000
0000
0000
0000
,  // measure 26
0100
0000
0000
0000
0000
0010
0000
0000
,  // measure 27
0001
0000
0001
0000
,  // measure 28
0000
0000
0000
0000
,  // measure 29
1000
0000
1000
0000
,  // measure 30
0000
0000
0000
0000
,  // measure 31
0001
0000
0100
0000
,  // measure 32
1000
0000
0010
0000
,  // measure 33
0001
0000
0000
0010
0000
0000
0100
0000
,  // measure 34
0000
1000
0000
0000
1001
0000
0000
0000
,  // measure 35
1000
0000
0000
0000
,  // measure 36
0000
0000
0000
0000
0000
0000
0000
0001
,  // measure 37
0000
0000
0000
0000
,  // measure 38
0000
0000
0000
0000
,  // measure 39
1000
0000
0000
0000
,  // measure 40
0001
0000
0000
0000
,  // measure 41
1000
0000
0010
0000
,  // measure 42
0100
0000
0001
0000
,  // measure 43
1000
0000
0000
0000
,  // measure 44
0001
0000
0000
0000
,  // measure 45
0100
0000
0000
0000
,  // measure 46
0010
0000
0000
0000
,  // measure 47
0100
0000
0000
0000
,  // measure 48
0001
0000
0000
0000
,  // measure 49
1000
0000
0000
0000
,  // measure 50
0001
0000
0000
0000
,  // measure 51
0100
0000
0000
0000
,  // measure 52
0010
0000
0000
0000
,  // measure 53
1000
0000
0000
0000
,  // measure 54
0100
0000
0000
0000
,  // measure 55
0010
0000
0000
0000
,  // measure 56
0001
0000
0000
0000
,  // measure 57
0200
0000
0000
0300
,  // measure 58
0000
0001
0000
0010
,  // measure 59
0000
0001
0000
1000
,  // measure 60
0000
0010
0000
1000
,  // measure 61
0000
1000
1000
1000
,  // measure 62
0000
0001
0000
1000
,  // measure 63
0000
0100
0000
0010
,  // measure 64
0000
0100
0000
1000
,  // measure 65
0000
0001
0001
0001
,  // measure 66
0000
1000
0010
1000
,  // measure 67
0000
1000
0000
1000
,  // measure 68
0000
0001
0100
0001
,  // measure 69
0000
0001
0000
0001
,  // measure 70
0000
1000
0010
0100
,  // measure 71
0000
0100
0000
0001
,  // measure 72
1000
0010
0100
0001
,  // measure 73
0000
0010
0001
1000
,  // measure 74
0001
1000
0000
0001
,  // measure 75
0000
0100
0000
0010
,  // measure 76
0000
1000
0000
0100
,  // measure 77
0000
1000
0000
0001
,  // measure 78
0000
0010
0000
0001
,  // measure 79
0000
0010
0000
0010
,  // measure 80
0000
0100
0000
1000
,  // measure 81
0000
0100
0000
1000
,  // measure 82
0001
0000
0001
0000
,  // measure 83
0001
0000
0000
0000
,  // measure 84
1000
0000
1000
0000
,  // measure 85
1000
0000
0000
0000
,  // measure 86
0001
0000
0010
0000
,  // measure 87
0001
0000
1000
0000
,  // measure 88
0100
0000
0000
0010
0000
0000
1000
0000
,  // measure 89
0000
0100
0000
0000
0001
0000
0000
0000
,  // measure 90
0001
0000
0000
0010
0000
0000
0100
0000
,  // measure 91
0000
1000
0000
0000
1001
0000
0000
0000
,  // measure 92
0000
1000
0000
1000
,  // measure 93
0000
0001
0000
0001
,  // measure 94
0000
1000
0000
1000
,  // measure 95
0000
0001
0000
0001
,  // measure 96
2002
0000
0000
3003
,  // measure 97
0001
0000
0010
0000
,  // measure 98
0100
0000
0010
0000
,  // measure 99
0001
0000
1000
0000
,  // measure 100
0010
0000
0100
0000
,  // measure 101
0100
0000
1000
0000
,  // measure 102
0010
0000
0001
0000
,  // measure 103
0010
0000
1000
0000
,  // measure 104
0001
0000
0100
0100
;

//---------------dance-single - TRICK----------------
#NOTES:
     dance-single:
     TRICK:
     Medium:
     6:
     0.371,0.478,0.309,0.026,0.000:
0000
0000
0000
0000
,
0000
0000
0000
0000
,
0000
0000
1000
0000
0010
0100
0000
0100
,
0000
0100
0000
0010
0000
1000
0000
0100
,
0000
0010
1000
0000
0000
0000
0001
0000
,
0000
1000
0000
0110
,
0000
0000
0001
0000
0010
0100
0000
0100
,
0000
0100
0000
0001
0000
0010
0000
0100
,
0000
0001
0010
0000
0000
0000
0110
0000
,
1001
0000
0000
0000
,
0010
0000
1000
0100
0000
0010
0000
0100
,
0000
0100
0000
0100
0010
0000
0001
0100
,
0000
0000
1000
0100
0000
0010
0000
1000
,
0000
1001
0000
0001
0000
0010
0000
0010
,
0100
0000
1000
0000
1000
0001
0000
0010
,
0000
1100
0000
0001
0000
1001
0000
1000
,
0000
0000
1000
0010
0000
0001
0100
0000
,
0100
0000
0000
0100
0000
0100
0000
0000
,
0001
0000
0010
0100
0000
0001
0000
0100
,
0000
1100
0000
1000
0010
0000
0100
0001
,
0000
0000
0001
0010
0000
0010
0000
1100
,
0000
0011
0000
0100
0000
0100
0000
0100
,
0010
0000
0010
0000
1000
0100
0000
0001
,
0000
0100
0000
1000
0000
0010
0000
0011
,
0000
0001
0000
1100
0000
0100
0000
0010
,
0100
0000
0000
0100
0000
0010
0000
0000
,
0001
0000
0000
0000
0001
0000
0000
0001
,
0000
0001
0000
0001
0000
0000
0000
0000
,
1000
0000
0000
0000
1000
0000
0000
1000
,
0000
1000
0000
1000
0000
0000
0000
0000
,
0001
0010
0100
1000
,
0001
0010
0100
1000
,
0001
0010
0000
0010
0100
0000
0100
1000
,
0000
1000
0010
0000
0001
1000
0000
0000
,
1001
0000
0000
0000
,
0000
0000
0000
0000
0000
0000
0000
0010
,
0000
0000
0000
0000
,
0000
0000
0000
0000
0000
0000
0010
0100
,
1001
1000
0000
0100
,
0000
0010
0000
0001
,
1000
0001
0010
0100
,
1000
0010
0100
0001
,
1000
0000
0010
0000
,
0100
0000
0001
0000
,
0100
0000
1000
0000
,
0100
0000
0001
0000
,
0010
0000
1000
0000
,
0010
0000
0001
0000
,
0010
0000
0100
0000
,
1000
0000
0010
0000
,
1000
0000
0100
0000
,
0001
0000
1000
0000
,
0010
0000
0001
0000
,
0100
0000
1000
0000
,
0100
0000
0001
0000
,
0010
0000
0100
0000
,
1000
1000
1000
1000
,
1000
0001
0010
0010
,
0100
1001
0010
0100
,
1100
0011
1100
1000
,
1001
1000
0010
1000
,
0001
0001
0010
0100
,
1001
0110
0010
1100
,
1000
0100
0001
1001
,
0010
0001
0001
0001
,
1001
1000
0010
0100
,
1001
0010
0100
0001
,
1001
0001
0001
0001
,
1001
0001
0001
0001
,
1001
0001
0010
0100
,
1001
0010
0100
1000
,
1001
0110
0010
0100
,
1001
0100
0110
1001
,
0001
0000
0010
0000
0000
0010
0001
0000
,
0100
0000
0010
0000
0000
1000
0100
0000
,
0010
0000
0001
0000
0000
0010
0100
0000
,
1000
0000
0010
0000
0000
0100
0001
0000
,
0001
0000
0010
0000
0000
0100
1000
0000
,
0001
0000
1000
0000
0000
0010
0100
0000
,
0001
1000
0001
0110
,
1000
0001
1000
0110
,
0001
0000
0000
0000
0001
0000
0000
0001
,
0000
0001
0000
0001
0000
0000
0000
0000
,
1000
0000
0000
0000
1000
0000
0000
1000
,
0000
1000
0000
1000
0000
0000
0000
0000
,
1000
0010
0100
0001
,
1000
0010
0100
0001
,
1000
0000
0000
0100
0000
0000
0001
0000
,
0000
0010
0000
0000
1001
0000
0000
0000
,
0001
0000
0000
0010
0000
0000
1000
0000
,
0000
0100
0000
0000
2002
3003
0000
0000
,
1000
1000
1000
1000
,
0001
0001
0001
0001
,
1000
1000
1000
1000
,
0001
0010
0100
1000
,
2002
0000
0000
3003
,
0001
1000
0100
0010
,
1001
0100
1000
1000
,
0011
1000
1100
0010
,
0010
0100
0100
0010
,
1001
0010
0001
0100
,
1010
0100
1001
0010
,
0010
0100
0100
1001
,
0110
1001
0010
0100
;

//---------------dance-single - HEAVY----------------
#NOTES:
     dance-single:
     HEAVY:
     Hard:
     8:
     0.517,0.717,0.454,0.013,0.000:
0000
0000
0000
0000
,
0000
0000
0000
0000
,
1000
0000
0001
0000
0010
0100
1000
0100
,
0010
0011
1001
0100
,
0010
1000
0100
0010
0001
0100
0000
1000
,
0010
0100
0001
0000
1001
0000
0110
0000
,
0001
0000
1000
0000
1000
0010
0100
0010
,
1000
0000
1010
0000
0001
0010
0100
0100
,
1000
0010
0001
0000
0100
0000
1100
0010
,
0001
0000
0000
0000
,
1000
0000
1000
1000
0100
0010
0000
0001
,
0000
0001
0000
0001
0000
0010
0001
0100
,
0000
0000
0001
0001
0100
0010
0000
1001
,
0000
0100
0000
0010
0000
0010
0000
0011
,
0000
0000
1001
0000
1000
0001
0000
0010
,
0000
0100
0000
0100
0000
1001
0000
1000
,
0000
1000
0010
0100
0000
0001
0010
0100
,
0100
1000
0010
0100
0000
1000
0000
1000
,
0001
0000
0001
0001
1000
0100
0000
0010
,
0000
1100
0000
0010
0000
1001
1000
0100
,
0001
0000
1000
1000
0010
0100
0000
1000
,
0000
0110
0000
0010
0000
1001
0000
0100
,
0000
0000
0010
0000
1000
0100
0000
1001
,
0000
0100
0000
0100
0000
0010
0000
0001
,
0000
0001
0010
0100
0000
1000
0010
0100
,
0100
0001
0010
1000
0000
0010
0000
0000
,
0001
0001
0000
0001
0010
0000
0000
0100
,
0000
1000
0000
0001
0100
0000
0010
0000
,
1000
1000
0000
1000
0010
0000
0000
0100
,
0000
0001
0000
1000
1100
0000
0011
0000
,
0001
0100
0010
1000
,
0001
0100
0010
1000
,
1001
0000
0000
0010
0000
0000
1100
0000
,
0000
1000
0000
0000
1001
1001
0000
0000
,
1001
0000
0000
0000
,
0000
0000
0000
0000
0000
0000
0000
0100
,
0000
0000
0000
0000
,
0000
0000
0000
0000
0000
0000
0010
0100
,
1001
1000
0100
1000
,
0010
0100
0001
1000
,
1100
0001
0110
1000
,
1001
0110
1100
0011
,
1001
1000
0010
0100
,
1000
0100
0001
0010
,
0100
0010
0001
0100
,
1000
0100
0001
1000
,
0100
1000
0010
0100
,
0001
0010
1000
0010
,
0100
0010
0001
0010
,
1000
0010
0100
1000
,
0100
0001
0100
1000
,
0010
0001
0010
0100
,
1000
0100
0001
0100
,
1000
0010
1000
0100
,
0001
0010
1000
0100
,
1000
0010
0001
0100
,
1001
0110
1001
0110
,
1001
1000
0010
1000
0000
0100
0010
0001
,
0000
0100
1000
0100
0000
0001
0010
0100
,
1000
0000
1010
0000
0101
0000
0001
0010
,
0100
1000
0100
1000
,
0001
1000
0010
0100
0000
0100
0100
0010
,
0000
1000
0100
0001
0000
0100
1000
0010
,
0001
0000
0101
0000
1001
0000
1000
0100
,
0100
0010
0001
0010
,
1001
0001
1000
0100
0000
1000
0010
0001
,
0000
0010
0100
1000
0000
0100
0001
0010
,
1100
0000
1001
0000
0010
0000
0010
0100
,
1000
1001
0010
0001
,
1001
1000
0001
0100
0000
0010
0001
0100
,
0000
1000
0100
0001
0000
0010
1000
0100
,
0001
0100
0100
1000
0010
0001
0000
0100
,
1000
0010
0100
0100
,
1001
0000
0001
0000
0010
0100
0000
1000
,
0000
0100
0000
0010
0000
0001
0000
1000
,
0000
0100
0001
0000
0100
0000
1000
0000
,
0010
0000
0001
0010
1000
0100
0001
0000
,
0001
0000
1000
0000
0010
0100
0000
0001
,
0000
0100
0000
0010
0000
1000
0000
0100
,
0000
1000
0010
0000
0001
0000
0010
0000
,
1000
0000
0100
0000
0001
0100
1000
0010
,
0100
0001
0000
0010
0001
0000
0000
0001
,
0000
0010
0000
0001
0100
0000
0010
0000
,
1000
0100
0000
0010
0001
0000
0000
1000
,
0000
0010
0000
0100
0101
0000
1010
0000
,
1000
0100
0010
0001
,
1000
0100
0010
0001
,
1010
0000
0000
0100
0000
0000
0011
0000
,
0000
0010
0000
0000
1001
0000
0000
0000
,
1010
0000
0000
0100
0000
0000
1001
0000
,
0000
0010
0000
0000
1001
1001
0000
0000
,
1000
1000
1001
1000
1000
1000
1010
1000
,
0001
0001
1001
0001
0001
0001
0011
0001
,
1000
1000
1001
1000
1000
1000
1100
1000
,
0001
0001
1001
0001
0001
0001
0101
0001
,
2002
0000
0000
0000
0003
0000
3100
1000
,
0010
0100
0000
1000
0100
0100
0000
0100
,
0001
0010
0000
1000
0100
0001
1000
0000
,
0001
0000
1001
0000
0010
0100
1000
0000
,
0100
0000
0101
0000
1100
0000
0001
0010
,
0100
0001
0000
0001
0100
1000
0000
0010
,
0001
1000
0000
1000
0100
0001
0010
0100
,
1000
0010
0001
0100
0100
1000
0010
0000
,
0100
1001
0110
1001
;

//---------------dance-single - ONI----------------
#NOTES:
     dance-single:
     ONI:
     Challenge:
     10:
     0.835,1.000,0.494,0.000,0.464:
0000
0000
0000
0000
,
0000
0000
0000
0000
,
1000
0100
0001
0100
0010
0100
1000
0100
,
0010
0001
0100
1000
0010
0100
1000
0100
,
0001
0100
1000
0010
0100
0001
0010
0100
,
1000
0010
0100
1000
0100
0010
0001
0010
,
0100
1000
0001
0100
1000
0100
0010
0100
,
1000
0100
0001
0010
0100
0010
0001
0100
,
1000
0010
0001
0010
1000
0100
0001
0001
,
1000
0000
0000
0000
,
0001
0000
0100
0100
0010
1000
0000
0001
,
0000
0110
0000
1001
0000
1000
0001
0010
,
0010
0000
0001
0001
0010
1000
0000
0101
,
0000
0110
0000
1010
0000
0101
0000
1001
,
0000
0000
0101
0000
0100
0001
0000
1000
,
0000
0010
0000
0110
0000
1001
0000
0100
,
0000
0100
1000
0010
0000
0001
1000
0010
,
0010
0100
1000
0010
0000
0100
0000
0100
,
0001
0010
0100
0001
0010
0100
0001
0010
,
0100
0001
0010
0100
0001
0010
0100
0001
,
1000
0100
0010
1000
0100
0010
1000
0100
,
0010
1000
0100
0010
1000
0100
0010
1000
,
0001
0100
0010
0001
0100
0010
0001
0100
,
0010
0001
0100
0010
0001
0100
0010
0001
,
1000
0010
0100
1000
0010
0100
1000
0010
,
0100
1000
0010
0100
1000
0010
0100
1000
,
0001
0010
0000
0010
0100
0100
0000
0100
,
0000
1010
0000
0101
0001
0100
1000
0000
,
1000
0100
0000
0100
0001
0010
0000
1100
,
0000
0011
0000
0001
0100
0000
1001
0000
,
0001
0101
0010
1010
,
0001
0101
0010
1010
,
1001
0000
0010
0100
0010
0100
0010
0000
1000
0100
1000
0100
1000
0000
0001
0010
,
0001
0010
0001
0000
1000
0100
0010
0001
1001
0000
1001
0000
0000
0000
0000
0000
,
1001
1000
0010
0100
1000
0100
0001
0010
,
0100
0010
0001
0100
1000
0100
0001
0010
,
0100
1000
0100
0001
0100
1000
0010
0100
,
1000
0100
0010
1000
0100
0001
0010
0100
,
1001
1000
0100
0001
,
0110
0001
1000
0100
,
0110
0001
0110
1000
,
1001
0000
0000
0000
0110
0000
0000
0000
1100
0000
0000
0100
0000
0000
0010
0000
,
0001
0010
0001
0010
0100
0000
0100
1000
,
0100
1000
0100
0000
0010
0001
0010
0001
,
0010
0000
0010
0100
1000
0100
0010
0100
,
1000
0100
0010
0000
0001
0000
1001
0000
,
1000
0010
1000
0010
0100
0000
0100
0001
,
0100
0001
0100
0000
0001
0010
0001
0010
,
0001
0000
0010
0001
0010
0100
0010
0000
,
0010
0100
1000
0100
0010
0000
1001
0000
,
0001
0010
0001
1000
0100
0000
1000
0100
,
1000
0001
0010
0000
0010
0100
1000
0100
,
0010
0000
0100
1000
0001
1000
0100
1000
,
0001
1000
0100
0000
1000
0000
1001
0000
,
0001
0010
0100
0010
0001
0010
0100
0010
,
0001
0010
0100
1000
0001
0010
0100
1000
,
1001
0110
1001
0110
,
1001
1000
0010
1000
0100
0010
0100
1000
,
0010
0100
1000
0100
0001
0001
0010
0100
,
1000
0000
1010
0000
0101
0000
0001
0010
,
0100
1000
0100
1000
0100
0100
1000
1000
,
0001
1000
0010
0100
1000
0100
0001
0010
,
0001
0100
1000
0100
0001
0100
1000
0010
,
0010
0000
0101
0000
1001
0000
1000
0100
,
0100
0010
0100
1000
0100
0001
0100
1000
,
1001
0001
1000
0100
1000
0010
0100
0100
,
1000
0100
0001
0010
0100
1000
0010
0100
,
0110
0000
1001
0000
0001
0000
1010
0001
,
0100
0000
1001
0000
0001
0010
0100
1000
,
1001
1000
0001
0100
0100
0010
1000
0100
,
0001
0100
0100
1000
0100
0010
0001
0100
,
1000
0100
0100
1000
0010
0001
0010
0100
,
1000
0010
0100
0100
,
1001
0001
0010
0100
,
1000
0010
0100
0001
,
1000
0000
0100
0010
0100
0000
0001
1000
0001
0000
1000
0100
0010
0001
1000
0100
,
0010
0001
1000
0100
0010
0001
0010
0100
1000
0000
0100
0000
0000
0000
0010
0000
,
0001
0010
0100
1000
0001
0010
0100
1000
0001
0010
0100
1000
0001
0010
0100
1000
,
0001
0000
0010
0000
0010
0000
0100
0000
0000
0000
1000
0100
1000
0100
1000
0010
,
0000
0000
0010
0100
0010
0000
1000
0001
1000
0000
1000
0010
0100
0001
1000
0010
,
0100
0001
1000
0010
0100
0001
1000
0000
0001
0000
1100
0000
1001
0000
0110
0000
,
1001
0001
0000
0010
0100
0100
0000
0100
,
0000
0011
0000
1100
1000
0100
0001
0000
,
0001
0100
0000
0100
1000
0010
0000
0101
,
0000
1010
0000
1000
0100
0000
1001
0000
,
1000
1100
0010
0011
,
1000
1100
0010
0011
,
1001
0000
0001
0010
0001
0010
0001
0000
1000
0100
1000
0100
1000
0000
0010
0100
,
0010
0100
0010
0000
1000
0001
1000
0001
1000
0000
0001
0100
0010
0100
0001
0000
,
1001
0000
1000
0100
0010
0100
1000
0000
0001
0010
0100
0010
0001
0000
1000
0001
,
0010
0001
1000
0000
0001
0010
0100
1000
1001
0000
1001
0000
0000
0000
0000
0000
,
1000
0100
0010
0001
0000
0001
0100
1000
0000
0010
0100
1000
0000
1000
0100
0001
,
0010
0000
1001
0000
0110
0000
1000
0001
0000
0000
0010
0000
0100
0000
0010
0000
,
0001
1000
0010
0100
0000
1000
0100
0001
0000
0010
0100
1000
0000
0001
0001
0100
,
1000
0000
1010
0000
0101
0000
0010
0100
0010
0000
0110
0000
1001
0000
0110
0000
,
1000
0100
0010
0001
1000
0100
0010
0001
1000
0100
0010
0001
1000
0010
0100
0001
,
0100
0010
1000
0100
0010
0001
0010
0100
1000
0100
0010
0001
1000
0100
0010
0001
,
1000
0010
0100
0001
1000
0010
0100
0001
1000
0010
0100
0001
0010
0100
0010
0001
,
1000
0100
0010
0001
1000
0100
0010
0001
1000
0010
0100
0001
0010
0100
1000
0001
,
0010
0100
1000
0001
0010
0100
1000
0001
0010
0100
1000
0001
1000
0010
0100
0001
,
0100
0010
1000
0100
0010
0001
1000
0100
0010
0001
1000
0100
1000
0010
0100
0001
,
1000
0010
0100
0001
1000
0010
0100
0001
1000
0010
0100
0001
0100
0010
1000
0100
,
0010
0001
1000
0010
0100
0010
1000
0100
0010
0001
1000
0100
0010
0001
0010
0100
,
1000
0001
0010
0100
1000
0001
0010
0100
1000
0000
0110
0000
1001
0000
0000
0000
;
