#TITLE:orangegirl sentiment '07;
#SUBTITLE:(short ver.);
#ARTIST:recognize m. remixed by mikiya;
#TITLETRANSLIT:;
#SUBTITLETRANSLIT:;
#ARTISTTRANSLIT:;
#CREDIT:;
#BANNER:orangegirl sentiment '07 (short ver.).png;
#BACKGROUND:orangegirl sentiment '07 (short ver.)-bg.png;
#LYRICSPATH:;
#CDTITLE:cdtitle.png;
#MUSIC:orangegirl sentiment '07 (short ver.).mp3;
#OFFSET:-0.500;
#SAMPLESTART:83.560;
#SAMPLELENGTH:15.000;
#SELECTABLE:YES;
#BPMS:0.000=130.050;
#STOPS:;
#BGCHANGES:-4.017=orangegirl sentiment '07 (short ver.).avi=1.000=1=1=0,
276.000=orangegirl sentiment '07 (short ver.)-bg.png=1.000=0=0=1,
99999=-nosongbg-=1.000=0=0=0 // don't automatically add -songbackground-
;

//---------------dance-single - BASIC----------------
#NOTES:
     dance-single:
     BASIC:
     Easy:
     3:
     0.237,0.365,0.178,0.154,0.000:
0000
0000
0000
0000
,
0000
0000
0000
0000
,
0000
0000
0000
0000
,
0000
0000
0000
0000
,
1000
0000
0010
0000
,
1000
0000
0001
0000
,
0001
0000
0100
0000
,
0010
0000
1000
0000
,
0001
0000
0010
0000
,
0001
0000
1000
0000
,
1000
0000
0100
0000
,
0010
0000
0001
0000
,
2000
0000
3010
0000
,
0002
0000
0013
0000
,
2000
0000
3100
0000
,
0002
0000
0103
0000
,
2000
0000
3010
0000
,
0002
0000
0013
0000
,
2000
0000
3100
0000
,
0002
0000
2000
3003
,
0001
0100
1000
0000
,
0001
0100
1000
0000
,
1000
0010
0000
0100
,
0001
0010
0000
1000
,
1000
0100
0001
0000
,
1000
0100
0001
0000
,
0001
0010
0000
0100
,
1000
0010
0000
0001
,
2000
0000
3200
0320
,
0032
0000
0003
0000
,
0001
0000
0001
0000
,
1000
0010
0001
1000
,
0000
0100
0001
1001
,
1000
1000
0100
0000
,
0100
0000
0100
0000
,
0010
0001
1000
0000
,
0100
0100
0010
0000
,
0001
0001
0100
0000
,
0100
0000
0100
0000
,
0100
0100
1001
0000
,
0100
0100
0110
0000
,
1000
1000
0100
0000
,
0100
0000
0100
0000
,
0010
0001
0100
0000
,
0100
1000
0001
0000
,
0001
0001
0100
0000
,
0100
0000
0100
0000
,
0010
0000
0010
0000
,
0010
0010
0010
0010
,
1001
0010
1001
0010
,
1001
0010
1001
0010
,
1001
0100
1001
0100
,
1001
0100
1001
0100
,
1001
0010
1001
0100
,
1001
0010
1001
0010
,
1001
0100
1001
0010
,
1001
0110
2002
3003
,
2000
3000
1000
1000
,
0002
0003
0001
0001
,
2000
3000
1000
1000
,
0002
0003
0001
0001
,
1000
0000
0100
0000
,
0010
0000
0001
0000
,
0100
0000
0010
0000
,
1001
0000
1001
0000
;

//---------------dance-single - TRICK----------------
#NOTES:
     dance-single:
     TRICK:
     Medium:
     5:
     0.372,0.524,0.436,0.162,0.008:
0000
0000
0000
0000
,
0000
0000
0000
0000
,
0000
0000
0000
0000
,
0000
0000
0000
0000
,
1000
0000
0001
0010
0100
0000
0100
0000
,
1001
0100
1001
0000
,
0001
0010
0100
1000
,
0001
0010
0100
1000
,
0001
0000
1000
0010
0100
0000
0100
0000
,
1001
0100
1001
0000
,
1000
0100
0010
0001
,
1000
0100
0010
0001
,
1000
1000
0000
0100
0100
0000
0101
0000
,
0001
0001
0000
0010
0010
0000
1010
0000
,
1000
1000
0000
0100
0100
0000
0101
0000
,
0001
0001
0000
1000
1000
0000
1001
0000
,
0001
0001
0000
0010
0010
0000
1010
0000
,
1000
1000
0000
0100
0100
0000
0101
0000
,
0001
0001
0000
0010
0010
0000
1010
0000
,
1000
1000
0000
0001
0001
0000
1001
0000
,
0001
1000
0100
0000
1000
0000
1000
0000
,
0001
0010
0100
0000
1000
0000
1001
0000
,
1000
0000
0001
0000
,
0001
0000
1000
0000
,
1000
0001
0100
0000
0100
0000
0010
0000
,
0001
1000
0100
0000
0001
0000
1001
0000
,
1000
0000
0001
0000
,
0001
0000
1000
0000
,
0020
0000
2030
3200
,
0302
0000
0000
0013
1000
0000
0001
0000
,
1001
0000
1001
0000
,
0010
0010
0100
1001
,
0000
0100
0010
0000
0001
0000
0100
1000
,
0002
0013
1000
0200
,
0300
0200
0300
1001
,
0010
0000
0001
0100
2000
0000
3000
0000
,
0010
0000
0100
0000
1000
0100
0002
0000
,
2003
3010
0001
0200
,
0300
0200
0300
0010
,
0100
0010
0100
0000
1001
0000
0000
0000
,
0100
0010
0100
0000
1001
0000
0000
0000
,
0020
1030
0100
0002
,
0003
2000
3000
0010
,
0010
0001
0001
0000
0001
0000
0100
0000
,
0100
0100
1000
0000
1000
1000
0001
0000
,
0020
0031
0100
2000
,
3000
0002
0003
0000
,
0010
0000
0010
0000
,
0010
0010
0010
0010
,
1001
0110
1001
0110
,
1001
0000
0110
0000
1001
0000
1001
0110
,
1001
0110
1001
0110
,
1001
0000
0110
0000
1001
0000
1001
0110
,
1001
0110
1001
0110
,
1001
0000
0110
0000
1001
0000
0110
1001
,
0110
1001
0110
1001
,
0110
1001
2002
3003
,
1000
0010
0000
0010
1000
0000
1000
0000
,
0001
0010
0000
0010
0001
0000
0001
0000
,
1000
0010
0000
0010
1000
0000
1000
0000
,
0001
0010
0000
0010
0001
0000
0001
0000
,
1000
0100
0000
0010
0001
0000
0001
0000
,
0001
0100
0000
0010
1000
0000
1000
0000
,
1000
0100
0000
0001
0010
0000
0010
0000
,
0010
0000
0000
0000
0000
0010
0000
0000
0100
0000
0000
0000
0000
0100
0000
0000
;

//---------------dance-single - HEAVY----------------
#NOTES:
     dance-single:
     HEAVY:
     Hard:
     7:
     0.469,0.524,0.259,0.073,0.424:
0000
0000
0000
0000
,
0000
0000
0000
0000
,
0000
0000
0000
0000
,
0000
0000
0000
0000
,
0000
0000
0001
0000
0001
0000
0100
0000
0100
0000
0000
0000
0010
1000
0000
0001
,
0000
0000
0000
0000
0010
0001
0000
1000
0000
0000
0000
0000
0000
0000
0000
0000
,
0001
0000
0000
0001
0010
0000
0000
0000
0100
0000
0000
0100
1000
0000
0000
0000
,
1000
0000
0000
1000
0100
0000
0000
0000
0010
0000
0000
0010
0001
0000
0000
0000
,
0000
0000
1000
0000
1000
0000
0100
0000
0100
0000
0000
0000
0010
0001
0000
1000
,
0000
0000
0000
0000
0010
1000
0000
0001
0000
0000
0000
0000
0000
0000
0000
0000
,
1000
0000
0000
1000
0010
0000
0000
0000
0100
0000
0000
0100
0001
0000
0000
0000
,
0001
0000
0000
0001
0100
0000
0000
0000
0010
0000
0000
0010
1000
0000
0000
0000
,
1000
0000
0000
0100
0000
0000
0010
0000
0001
0000
0000
0100
0000
0000
1000
0000
,
0100
0000
0000
0001
0000
0000
0010
0000
0100
0000
0000
1000
0000
0000
0100
0000
,
0010
0000
0000
0001
0000
0000
0100
0000
0010
0000
0000
1000
0000
0000
0100
0000
,
0001
0000
0000
0100
0000
0000
1000
0000
0010
0000
0000
0000
1001
0000
0000
0000
,
0001
0000
0000
0100
0000
0000
0010
0000
1000
0000
0000
0100
0000
0000
0001
0000
,
0100
0000
0000
1000
0000
0000
0010
0000
0100
0000
0000
0001
0000
0000
0100
0000
,
0010
0000
0000
1000
0000
0000
0100
0000
0010
0000
0000
0001
0000
0000
0100
0000
,
1000
0000
0000
0100
0000
0000
0001
0000
0010
0000
0000
0000
1001
0000
0000
0000
,
0001
0000
0000
0010
0100
0000
0000
0000
1000
0000
1000
0000
1000
0000
0000
0000
,
1000
0000
0000
0010
0100
0000
0000
0000
0001
0000
0001
0000
0001
0000
0000
0000
,
1000
0000
0000
1000
0000
1000
0001
0000
0000
0000
0000
0000
1000
0000
0000
0000
,
0001
0000
0000
0001
0000
0001
1000
0000
0000
0000
0000
0000
0001
0000
0000
0000
,
1000
0000
0000
0010
0100
0000
0000
0100
0001
0000
0000
0000
0010
0000
0000
0000
,
0100
0000
0100
0000
1000
0000
0000
1000
0001
0000
0000
0000
1001
0000
0000
0000
,
0001
0000
0000
0001
0000
0001
1000
0000
0000
0000
0000
0000
1000
0000
0000
0000
,
1000
0000
0000
1000
0000
1000
0001
0000
0000
0000
1000
0000
0001
0000
0010
0000
,
0020
0000
0000
0000
0030
0000
0000
0000
1001
0000
0000
1000
0100
0000
0000
0001
,
0010
0000
0000
0000
0100
0000
0010
0000
1000
0000
0000
0001
0010
0000
0100
0000
,
1001
0100
0010
0010
1001
0100
0010
0010
,
1001
0000
0010
0000
0100
0000
0100
1000
,
0000
0000
0100
0000
0010
0001
0000
1000
0000
0010
0100
0000
0110
0000
1001
0000
,
0000
0000
0001
0000
0001
0000
1000
0000
1000
0000
0000
0000
0010
0001
0000
1000
,
0000
0000
0000
0000
0010
1000
0000
0001
0000
0000
0000
0000
1001
0000
0000
0000
,
0200
0000
0000
0000
0320
0000
0000
0000
0130
0000
0000
1001
0000
0000
0000
0000
,
0010
0001
1000
0000
0010
1000
0001
0000
,
0000
0000
1000
0000
1000
0000
0001
0000
0001
0000
0000
0000
0010
1000
0000
0001
,
0000
0000
0000
0000
0010
0001
0000
1000
0000
0000
0000
0000
1001
0000
0000
0000
,
1000
0100
0000
0000
0000
0000
0100
0000
2002
0000
0000
0000
3003
0000
0000
0000
,
0001
0100
0000
0000
0000
0000
0100
0000
2002
0000
0000
0000
3003
0000
0000
0000
,
0000
0000
0100
0000
0001
0000
0010
0000
1000
0000
0000
0000
0001
0010
0000
1000
,
0000
0000
0000
0000
0001
0010
0000
1000
0000
0000
0000
0000
0001
0000
0010
0000
,
0010
1000
1000
0100
0100
0001
0010
0010
,
1000
0100
0001
0001
0010
1000
0001
1000
,
0000
0000
0100
0000
1000
0000
0010
0000
0001
0000
0000
0000
1000
0010
0000
0001
,
0000
0000
0000
0000
1000
0010
0000
0001
0000
0000
0000
0000
0010
0000
0000
0000
,
0010
0000
0000
0010
0100
0000
0000
0000
0010
0000
0000
0010
0100
0000
0000
0010
,
1000
0000
0000
0010
0100
0000
0000
0010
0001
0000
0000
0100
0010
0000
0000
1000
,
0100
0000
0000
0000
0110
0000
0000
0001
0010
0000
0000
0000
0110
0000
0000
1000
,
0100
0000
0000
0000
0110
0000
0000
0001
0010
0000
0000
0000
1001
0000
0110
0000
,
1001
0000
0000
0010
1000
0000
0000
0000
1001
0000
0000
0100
0001
0000
0000
0000
,
1001
0000
0000
0010
1000
0000
0000
0000
1001
0000
0000
0000
1001
0000
0110
0000
,
1001
0000
0000
0010
1000
0000
0000
0100
0001
0000
0000
0010
1000
0000
0000
0100
,
0001
0000
0000
0010
1000
0000
0000
0100
0001
0000
0000
0000
1001
0000
0110
0000
,
1001
0000
0000
1000
0010
0000
0000
0001
0100
0000
0000
1000
0010
0000
0000
0001
,
0100
0000
0000
1000
0010
0000
0000
0000
2002
0000
0000
0000
3003
0000
0000
0000
,
1000
0000
0010
0000
0000
0001
0000
0000
0010
0000
1000
0000
0000
0100
0000
0000
,
0010
0000
0001
0000
0000
0100
0000
0000
1000
0000
0001
0000
0010
0000
1000
0000
,
0001
0000
0100
0000
0000
0001
0000
0000
0010
0000
1000
0000
0000
0100
0000
0000
,
0001
0000
0100
0000
0000
1000
0000
0000
0100
0000
0001
0000
0010
0000
0100
0000
,
1000
0000
0100
0000
0000
0010
0000
0000
0001
0000
0100
0000
0000
1000
0000
0000
,
0010
0000
0100
0000
0000
0001
0000
0000
0010
0000
0100
0000
1000
0000
0100
0000
,
0001
0000
0100
0000
0000
1000
0000
0000
0010
0000
0001
0000
0000
0100
0000
0000
,
1001
0000
0100
0000
0000
0010
0000
0000
1001
0000
0010
0000
0000
0100
0000
0000
;

//---------------dance-single - ONI----------------
#NOTES:
     dance-single:
     ONI:
     Challenge:
     9:
     0.691,0.733,0.622,0.113,0.788:
0000
0000
0000
0000
,
0000
0000
0000
0000
,
0000
0000
0000
0000
,
0000
0000
0000
0000
,
0000
0000
0001
0000
1001
0000
0100
0000
1100
0000
0000
0000
0010
1000
0000
0001
,
0000
0000
0000
0000
0010
0001
0000
1000
0000
0000
0000
0000
0100
0000
0100
0000
,
1000
0001
0000
0000
0110
0000
0100
0010
0100
1000
0000
0100
1000
0001
1000
0000
,
1000
0100
0000
0000
0100
0000
0100
0010
0100
0010
0000
0010
0001
1000
0001
0000
,
0000
0000
1000
0000
1001
0000
0100
0000
0101
0000
0000
0000
0010
0001
0000
1000
,
0000
0000
0000
0000
0010
1000
0000
0001
0000
0000
0000
0000
0100
0000
0100
0000
,
0001
1000
0000
0000
0110
0000
0100
0010
0100
0001
0000
0100
0001
1000
0001
0000
,
0001
0100
0000
0000
0100
0000
0100
0010
0100
0010
0000
0010
1000
0001
1000
0000
,
0001
0010
0000
0100
0000
0100
0010
0000
0001
1000
0000
0010
0000
0010
1000
0000
,
0100
0000
0100
0001
1000
0001
0100
0000
0100
1000
0100
0010
0001
0010
0100
1000
,
0100
1000
0000
0010
0000
0010
1000
0000
0100
0001
0000
0001
0000
0100
1000
0000
,
0010
0000
1000
0100
0010
0001
0010
0000
0010
0100
1000
0100
0010
0001
0010
0100
,
1000
0010
0000
0100
0000
0100
0010
0000
1000
0001
0000
0100
0000
0100
0001
0000
,
1000
0000
0100
0010
0001
0010
0100
0000
0100
0010
1000
0010
0100
0001
0100
0000
,
0010
0100
0000
1000
0000
1000
0100
0000
0010
0001
0000
0100
0000
0100
0001
0000
,
1000
0000
0001
0010
0100
0010
0001
0000
1000
0001
0100
0010
1001
0000
0000
0000
,
0001
0000
0100
0000
0010
0100
0000
0020
0000
0000
1030
0000
1000
0000
0100
0000
,
1001
0000
0000
0110
0000
0010
0200
0000
0000
0000
0301
0000
0100
0000
0010
0000
,
1001
0000
0000
1100
0000
1000
0100
0000
0000
0000
1000
0000
0100
0000
0010
0000
,
1001
0000
0000
0101
0000
0001
0100
0000
0000
0000
0001
0000
0100
0010
0000
0000
,
1000
0000
0100
0000
0010
0100
0000
0020
0000
0000
0031
0000
0001
0000
0001
0000
,
0100
0000
0000
1001
0000
0010
0200
0000
0000
0000
0310
0000
1001
0000
0100
0000
,
0001
0000
0000
0010
0000
0001
1000
0000
0000
0000
1000
0000
1000
0000
1000
0000
,
1000
0000
0000
0010
0000
1000
0001
0000
0000
0000
0100
0000
0100
0000
0010
0000
,
0020
0000
0100
0000
2030
0100
3020
0001
,
0230
1000
0302
0010
2003
0000
3010
0100
,
0001
1001
0010
0010
1001
1000
0100
0010
,
1001
0000
0000
0000
0010
0000
0000
0000
0100
0000
0000
0010
0100
0000
1000
0000
,
0000
0000
0100
0000
0010
0001
0000
1001
0000
0010
0100
0000
0110
0000
1001
0000
,
0000
0000
0001
0000
0011
0000
1000
0000
1001
0000
0000
0000
0010
0001
0000
1000
,
0000
0000
0000
0000
0010
1000
0000
0001
0000
0000
1000
0000
0100
0000
0010
0000
,
0001
0100
0000
0000
0001
0010
0000
0000
0010
0100
0000
1001
0000
0000
1000
0000
,
0010
0100
0000
0001
0000
0000
0001
0000
0010
0100
0000
1000
0000
0000
0000
0000
,
0000
0000
1000
0000
1010
0000
0001
0000
1001
0000
0000
0000
0010
1000
0000
0001
,
0000
0000
0000
0000
0010
0001
0000
1000
0000
0000
0010
0000
1001
0000
0100
0000
,
1000
0100
0000
0010
0000
0001
0000
0000
1001
0000
0010
0200
0000
0000
0300
0000
,
0001
0100
0000
0010
0000
1000
0000
0000
1001
0000
0010
0200
0000
0000
0300
0000
,
0000
0000
1000
0000
0101
0000
0010
0000
1001
0000
0000
0000
0001
0010
0000
1001
,
0000
0000
0000
0000
1000
0010
0000
1001
0000
0000
0100
0000
0001
0000
0010
0000
,
1001
0000
0100
0010
0000
0001
0100
0000
0100
1000
0000
0001
0000
0000
0010
0000
,
1000
0100
0000
0001
0000
0000
0100
0000
1000
0010
0000
1000
0000
0000
0001
1000
,
0000
0000
0001
0000
1100
0000
0010
0000
1001
0000
0000
0000
1000
0010
0000
1001
,
0000
0000
0000
0000
0001
0010
0000
1001
0000
0000
0010
0000
0100
0000
0010
0000
,
0010
1000
0000
1000
0000
0000
0100
0010
0100
1000
0000
1000
0000
0000
0001
1000
,
0100
0000
0010
0001
0000
0100
0000
0010
0000
0000
0010
0000
0010
0000
0010
0000
,
1001
0100
1001
0100
1001
0100
1001
0100
,
1001
0100
1001
0100
1001
1000
0001
0100
,
1001
0100
1001
0100
1001
0100
1001
0100
,
1001
0100
1001
0100
1001
0001
1000
0100
,
1001
0010
1001
0100
1001
0010
1001
0100
,
1001
0010
1001
0100
1001
0000
0100
0010
,
1001
0110
1001
0110
1001
0110
1001
0110
,
1001
0110
1001
0110
2002
0003
3001
1000
,
0100
0010
0000
0001
0000
0001
0000
1000
0010
0100
0000
0100
0000
0100
0001
0000
,
0010
0100
0000
1000
0000
0100
0000
0010
0001
1000
0000
0100
0000
0010
0100
0000
,
0001
0100
0000
0100
0000
1000
0000
0010
0100
1000
0000
0100
0000
0100
0001
0000
,
0001
0010
0000
0100
0000
1000
0000
1000
0001
0010
0000
1001
0000
1000
0010
0000
,
0100
0001
0000
0010
0000
0010
0000
0100
1000
0001
0000
0100
0000
0010
1000
0000
,
0010
0100
0000
0001
0000
0001
0000
0010
0100
0001
0000
0100
0000
1000
0010
0000
,
0100
0001
0000
0010
0000
1000
0000
0010
0001
0100
0000
0100
0000
0010
0100
0000
,
1001
0000
0110
0000
0000
0100
0000
0000
1001
0000
0110
0000
0000
0100
0000
0000
;

//---------------dance-double - ----------------
#NOTES:
     dance-double:
     :
     Hard:
     8:
     0.461,0.419,0.008,0.186,0.558: // measure 1
00000000
00000000
00000000
00000000
,  // measure 2
00000000
00000000
00000000
00000000
,  // measure 3
00000000
00000000
00000000
00000000
,  // measure 4
00000000
00000000
00000000
00000000
,  // measure 5
00000000
00000000
10000000
00000000
01000000
00000000
00010000
00000000
01000000
00000000
00000000
00000000
00010000
00001000
00000000
00000100
,  // measure 6
00000000
00000000
00000000
00000000
00000010
00001000
00000000
00000100
00000000
00000000
00000010
00000000
00000001
00000000
00000100
00000000
,  // measure 7
00000010
00010000
00000000
00000000
00001000
00000000
00000000
00001000
00000000
00100000
00000000
00000000
00010000
00000000
10000000
00000000
,  // measure 8
01000000
00100000
00000000
00000000
00100000
00000000
00000000
00100000
00000000
00001000
00000000
00000000
00010000
00000000
00000010
00000000
,  // measure 9
00000100
00000000
00000001
00000000
00000010
00000000
00000100
00000000
00001000
00000000
00000000
00000000
00000010
00010000
00000000
00001000
,  // measure 10
00000000
00000000
00000000
00000000
00100000
00010000
00000000
10000000
00000000
00000000
01000000
00000000
00100000
00000000
00001000
00000000
,  // measure 11
00010000
00000010
00000000
00000000
00000100
00000000
00000000
00000100
00000000
00000001
00000000
00000000
00000010
00000000
00000100
00000000
,  // measure 12
00001000
00000010
00000000
00000000
00010000
00000000
00000000
00001000
00000000
00100000
00000000
00000000
00100000
00000000
00010000
00000000
,  // measure 13
10000000
00000000
00000000
01000000
00000000
00010000
00000000
00000000
00001000
00000000
00000000
00000100
00000000
00000001
00000000
00000000
,  // measure 14
00000010
00000000
00000000
00000100
00000000
00010000
00000000
00000000
00000010
00000000
00000000
00010000
00000000
00001000
00000000
00000000
,  // measure 15
00100000
00000000
00000000
00010000
00000000
10000000
00000000
00000000
01000000
00000000
00000000
00100000
00000000
00001000
00000000
00000000
,  // measure 16
00100000
00000000
00000000
00001000
00000000
00010000
00000000
00000000
00000010
00000000
00000000
00000100
00000000
00000001
00000000
00000000
,  // measure 17
00000010
00000000
00000000
00000100
00000000
00010000
00000000
00000000
00000010
00000000
00000000
00000100
00000000
00000001
00000000
00000000
,  // measure 18
00000010
00000000
00000000
00001000
00000000
00010000
00000000
00000000
00001000
00000000
00000000
00100000
00000000
01000000
00000000
00000000
,  // measure 19
10000000
00000000
00000000
01000000
00000000
00100000
00000000
00000000
00001000
00000000
00000000
00010000
00000000
00000010
00000000
00000000
,  // measure 20
00000100
00000000
00000000
00000001
00000000
00000010
00000000
00000000
00000100
00000000
00000000
00000000
00010100
00000000
00000000
00000000
,  // measure 21
00000000
00000000
00010000
00000000
00100000
00000000
00000000
10000000
00000000
00000000
01000000
00000000
00100000
00000000
00000000
00000000
,  // measure 22
00001000
00000000
00000000
00010000
00000000
00000000
00000010
00000000
00000000
00000000
00000100
00000000
00000001
00000000
00000010
00000000
,  // measure 23
00010000
00000000
00000000
00001000
00000000
00000000
00000100
00000000
00000000
00000000
00000010
00000000
00000100
00000000
00001000
00000000
,  // measure 24
00010000
00000000
00000000
00100000
00000000
00000000
01000000
00000000
00000000
00000000
10000000
00000000
01000000
00100000
00000000
00000000
,  // measure 25
00000000
00000000
00001000
00000000
00010000
00000000
00000000
00000010
00000000
00000000
00000100
00000000
00000001
00000000
00000010
00000000
,  // measure 26
00000100
00000000
00000000
00010000
00000000
00000000
00000010
00000000
00000000
00000000
00010000
00000000
00001000
00000000
00100000
00000000
,  // measure 27
01000000
00000000
00000000
10000000
00000000
00000000
00100000
00000000
00000000
00000000
00010000
00000000
00100000
00000000
00001000
00000000
,  // measure 28
00010000
00000000
00000000
00000010
00000000
00000000
00000100
00000000
00000000
00000000
00000001
00000000
00000010
00000000
00000100
00000000
,  // measure 29
00020000
00001000
00030020
00000100
,  // measure 30
00002030
00000000
00000000
00000000
00003001
00000000
00000100
00000000
00002000
00000000
00000000
00000000
00010000
00000000
00000000
00003000
,  // measure 31
01000000
00100000
00010000
00010000
01000000
00100000
00010000
00010000
,  // measure 32
20000000
00000000
32000000
00000000
03020000
00000000
00031000
00000100
,  // measure 33
00000000
00000000
00000010
00000000
00000100
00000001
00000000
00000010
00000000
00000100
00001000
00000000
00000010
00000000
00000100
00000000
,  // measure 34
00000000
00000000
00010000
00000000
00001000
00000000
00010000
00000000
00001000
00000000
00000000
00000000
00100000
01000000
00000000
00100000
,  // measure 35
00000000
00000000
00000000
00000000
10000000
00010000
00000000
10000000
00000000
00000000
00000000
00000000
01000000
00000000
00000000
00000000
,  // measure 36
00100000
00000000
00000000
00000000
00001000
00000000
00000000
00000000
00010000
00000010
00000000
00000100
00000000
00000000
00000001
00000000
,  // measure 37
00001000
00000100
00000000
00000010
00000000
00000000
00000001
00000000
00000100
00000010
00000000
00010000
00000000
00000000
00001000
00000000
,  // measure 38
00000000
00000000
00100000
00000000
00010000
00000000
10000000
00000000
01000000
00000000
00000000
00000000
00100000
00001000
00000000
00010000
,  // measure 39
00000000
00000000
00000000
00000000
00000010
00001000
00000000
00000001
00000000
00000000
00000100
00000000
00000010
00000000
00001000
00000000
,  // measure 40
00000001
00000100
00000000
00000010
00000000
00010000
00000000
00000000
00001000
00000000
00100000
00010000
00000000
00000000
00000000
00000000
,  // measure 41
10000000
01000000
00000000
00010000
00000000
01000000
00000000
00000000
00100000
00000000
00001000
00010000
00000000
00000000
00000010
00000000
,  // measure 42
00000100
00000000
00000001
00000000
00000010
00000000
00000100
00000000
00010000
00000000
00000000
00000000
00000010
00000100
00000000
00001000
,  // measure 43
00000000
00000000
00000000
00000000
00010000
00001000
00000000
00100000
00000000
00000000
01000000
00000000
00100000
00000000
00001000
00000000
,  // measure 44
00010000
00000000
00000010
00001000
00000000
00000001
00000100
00000000
00000010
00001000
00000000
00000100
00000000
00000000
00000010
00000000
,  // measure 45
00000001
00000100
00000000
00000010
00000000
00000000
00010000
00000000
00001000
00100000
00000000
00010000
00000000
00000000
10000000
01000000
,  // measure 46
00000000
00000000
00100000
00000000
00001000
00000000
00010000
00000000
00000100
00000000
00000000
00000000
00000010
00000001
00000000
00000100
,  // measure 47
00000000
00000000
00000000
00000000
00000010
00010000
00000000
00000100
00000000
00000000
00010000
00000000
00001000
00000000
00100000
00000000
,  // measure 48
00001000
00010000
00000000
01000000
00000000
00000000
10000000
00000000
01000000
00100000
00000000
00001000
00000000
00000000
00010000
00000000
,  // measure 49
00000010
00000000
00000100
00000001
00000000
00000010
00000000
00000100
00000000
00000000
00010000
00000000
00001000
00000000
00100000
00000000
,  // measure 50
00020000
10030000
02000000
03010000
,  // measure 51
00000020
00000000
00000130
00000000
00000002
00000000
00000013
00000100
,  // measure 52
00020000
00031000
00200000
01300000
,  // measure 53
20000000
00000000
30100000
00000000
00002000
00000000
00013000
00000010
,  // measure 54
00000200
00000301
00000020
00000130
,  // measure 55
00020000
00000000
00031000
00000000
02000000
00000000
03100000
00001000
,  // measure 56
02000000
13000000
00200000
00310000
,  // measure 57
00002000
00003100
00000020
00000030
,  // measure 58
00001000
00000000
00000000
00100000
00000000
01000000
00000000
00000000
10000000
00000000
00000000
00100000
00000000
01000000
00000000
00000000
,  // measure 59
00001000
00000000
00000000
00010000
00000000
00000010
00000000
00000000
00000100
00000000
00000000
00000001
00000000
00000010
00000000
00000000
,  // measure 60
00000100
00000000
00000000
00010000
00000000
00000010
00000000
00000000
00000100
00000000
00000000
00001000
00000000
00010000
00000000
00000000
,  // measure 61
00100000
00000000
00000000
01000000
00000000
10000000
00000000
00000000
00100000
00000000
00000000
00001000
00000000
00010000
00000000
00000000
,  // measure 62
00000100
00000000
00000000
00000010
00000000
00000001
00000000
00000000
00000100
00000000
00000000
00000010
00000000
00010000
00000000
00000000
,  // measure 63
00001000
00000000
00000000
00100000
00000000
00010000
00000000
00000000
10000000
00000000
00000000
01000000
00000000
00100000
00000000
00000000
,  // measure 64
01000000
00000000
00000000
00100000
00000000
00001000
00000000
00000000
00010000
00000000
00000000
00001000
00000000
00000100
00000000
00000000
,  // measure 65
00000010
00000000
00000010
00000000
00000000
00000100
00000000
00000000
00000001
00000000
00000001
00000000
00000000
00001000
00000000
00000000
;

//---------------dance-double - ----------------
#NOTES:
     dance-double:
     :
     Challenge:
     10:
     0.666,0.602,0.162,0.234,0.978: // measure 1
00000000
00000000
00000000
00000000
,  // measure 2
00000000
00000000
00000000
00000000
,  // measure 3
00000000
00000000
00000000
00000000
,  // measure 4
00000000
00000000
00000000
00000000
,  // measure 5
00100000
01000000
10000000
00000000
01000000
00000000
00100000
00000000
00001000
00000000
00010000
00000000
00000010
00000100
00000000
00000001
,  // measure 6
00000000
00001000
00000100
00000000
00000010
00000001
00000000
00000100
00000000
00000010
00010000
00000000
00001000
00000000
00100000
00000000
,  // measure 7
00010000
10000000
00000000
00010000
10000000
00000000
01000000
00100000
00000000
00001000
00010000
00000000
00000010
00000000
00001000
00000100
,  // measure 8
00000010
00000001
00000000
00000100
00000010
00000000
00001000
00000100
00000000
00000010
00000001
00000000
00000100
00000000
00000010
00010000
,  // measure 9
00001000
00010000
01000000
00000000
00001000
00100000
01000000
00000000
00010000
01000000
00010000
00000000
10000000
01000000
00000000
00100000
,  // measure 10
00000000
00001000
00010000
00000000
00000010
00001000
00000000
00000001
00000000
00000010
00000100
00000000
00001000
00000000
00000001
00000000
,  // measure 11
00000100
00000010
00000000
00000100
00000010
00000000
00010000
00001000
00000000
00100000
00001000
00000000
00100000
00000000
00010000
00000000
,  // measure 12
10000000
01000000
00000000
00100000
00001000
00000000
00010000
00000010
00000000
00000100
00000001
00000000
00001000
00000100
00000010
00000000
,  // measure 13
00000001
00000100
00000000
00000010
00000000
00010000
00000000
00001000
00100000
00010000
00000000
10000000
00000000
01000000
00100000
00000000
,  // measure 14
00001000
00010000
00000000
00000010
00000000
00000100
00000000
00000001
00000010
00000100
00000000
00001000
00000000
00000010
00010000
00000000
,  // measure 15
00001000
00100000
00000000
00010000
00000000
10000000
00000000
01000000
00100000
00001000
00000000
00010000
00000000
00000010
00000000
00000100
,  // measure 16
00000001
00001000
00000000
00000100
00000000
00000010
00000000
00000001
00000100
00000010
00000000
00010000
00000000
00000100
00010000
00000000
,  // measure 17
00001000
00100000
00000000
00010000
00000000
10000000
00000000
01000000
00100000
00001000
00000000
00010000
00000000
00000010
00000000
00000100
,  // measure 18
00000001
00000010
00000000
00000100
00000000
00001000
00000000
00000010
00000100
00000001
00000000
00000100
00000000
00000001
00001000
00000000
,  // measure 19
00000010
00010000
00000000
00001000
00000000
00100000
00000000
00010000
10000000
01000000
00000000
00100000
00000000
00001000
00000000
00010000
,  // measure 20
00000010
00010000
00000000
00001000
00000000
00000100
00000000
00000010
00001000
00000100
00000000
00000010
00000110
00000000
00000000
00000000
,  // measure 21
00000001
00000100
00000001
00000000
00000100
00000010
00000000
00010000
00000000
00001000
00010000
00000000
00001000
01000000
00100000
00000000
,  // measure 22
00010000
00000000
10000000
01000000
00000000
00100000
01000000
00000000
00100000
00001000
00010000
00000000
00000010
00000000
00000001
00000000
,  // measure 23
00001000
00000000
00000010
00000100
00000000
00001000
00000010
00000000
00010000
00001000
00100000
00000000
00010000
00000000
10000000
00000000
,  // measure 24
01000000
00000000
00100000
00001000
00000000
00010000
00000010
00000000
00000100
00000001
00000010
00000000
00000100
00001000
00000000
00000000
,  // measure 25
00010000
00000000
01000000
10000000
00100000
01000000
00010000
00000000
00000000
00001000
00010000
00000000
00000010
00000000
00000100
00000000
,  // measure 26
00000001
00000000
00000010
00000100
00000000
00001000
00000010
00000000
00010000
00000000
00000100
00000010
00000001
00000000
00000100
00000000
,  // measure 27
00000010
00000000
00010000
00001000
00000000
00100000
00010000
00000000
10000000
00000000
01000000
00100000
00001000
00000000
00010000
00000000
,  // measure 28
00000010
00000000
00000100
00000001
00000000
00000010
00000100
00000000
00010000
00000000
00000010
00000100
00010000
00000000
00001000
00000000
,  // measure 29
00020000
00100000
20030000
01000000
,  // measure 30
30200000
00000000
00010000
00001000
00320000
00000000
00000100
00000000
,  // measure 31
00031000
00010000
00000010
00000100
00001000
00010000
00000010
00000100
,  // measure 32
00002000
00000000
00100000
00000000
00023000
00000000
01000000
10030000
,  // measure 33
00000000
00000000
00100000
00000000
00001000
00010000
00000000
00000010
00000000
00000100
00000001
00000000
00000010
00000000
00000100
00000000
,  // measure 34
00010000
00000000
00002000
00000000
00100000
00000000
02003000
00000000
10000000
00000000
03100000
00000000
00010000
01000000
00000000
00001000
,  // measure 35
00000000
00010000
00000100
00000000
00000010
00000001
00000000
00000100
00000000
00000010
00001000
00000000
00000001
00000000
00000100
00000000
,  // measure 36
00000020
00000000
00010000
00000000
00002030
00000000
00100000
00000000
00013000
10000000
00000000
01000000
00000000
00100000
00001000
00000000
,  // measure 37
00010000
00000010
00000000
00000100
00000000
00000000
00000001
00000000
00000010
00000100
00000000
00010000
00000000
00000010
00000100
00000000
,  // measure 38
00001000
00000000
00020000
00000000
01000000
00000000
00230000
00000000
00010000
00000000
10300000
00000000
01000000
00100000
00000000
00001000
,  // measure 39
00000000
00010000
00000010
00000000
00000100
00000001
00000000
00000010
00000000
00000100
00010000
00000000
00000010
00000000
00000100
00000000
,  // measure 40
00001000
00010000
00000000
01000000
00000000
00100000
00000000
00001000
00010000
00000000
01000000
10000000
00000000
00010000
00000000
00100000
,  // measure 41
01000000
00001000
00000000
00010000
00000000
00000010
00000000
00000000
00000100
00000000
00000001
00000010
00000000
00000100
00000000
00001000
,  // measure 42
00000010
00000000
00020000
00000000
00001000
00000000
00230000
00000000
00010000
00000000
10300000
00000000
01000000
00100000
00000000
00001000
,  // measure 43
00000000
00010000
00000010
00000000
00000100
00000001
00000000
00000010
00000000
00000100
00001000
00000000
00000010
00000000
00010000
00000000
,  // measure 44
00001000
00000000
00100000
00010000
00000000
10000000
01000000
00000000
00100000
00001000
00000000
00010000
00000000
00000010
00000100
00000000
,  // measure 45
00000001
00000010
00000000
00000100
00000000
00000000
00010000
00000000
00001000
00100000
00000000
00010000
00000000
00000000
10000000
01000000
,  // measure 46
00000000
00000000
00200000
00000000
00001000
00000000
00320000
00000000
00000100
00000000
00030010
00000000
00000001
00000100
00000000
00000010
,  // measure 47
00000000
00010000
00001000
00000000
00100000
00010000
00000000
10000000
00000000
01000000
00100000
00000000
00001000
00000000
00010000
00000000
,  // measure 48
00000010
00000100
00000000
00000001
00000000
00000010
00000100
00000000
00010000
00000010
00000000
00000100
00000000
00000000
00001000
00000100
,  // measure 49
00000010
00000000
00000001
00000100
00000000
00000010
00000000
00010000
00000000
00000000
00001000
00000000
00100000
00000000
00010000
00000000
,  // measure 50
10000000
01020000
00031000
00010020
,  // measure 51
00000130
00000000
00002001
00000000
00003010
00000000
00010100
00000010
,  // measure 52
00001000
00201000
00310000
12000000
,  // measure 53
03100000
00000000
00012000
00000000
00003010
00000000
00001100
00000001
,  // measure 54
00000010
00002100
00013000
01200000
,  // measure 55
10300000
00000000
02010000
00000000
03100000
00000000
00011000
00000010
,  // measure 56
00000100
00002100
00003001
00000120
,  // measure 57
00010030
00012000
02003000
03000000
,  // measure 58
00100000
10000000
00000000
00010000
00000000
01000000
00000000
00001000
00010000
00000010
00000000
00000100
00000000
00000001
00000000
00000010
,  // measure 59
00000100
00001000
00000000
00000010
00000000
00000100
00000000
00000001
00000010
00000100
00000000
00010000
00000000
00001000
00100000
00000000
,  // measure 60
00010000
10000000
00000000
01000000
00000000
00100000
00000000
00001000
00010000
00000010
00000000
00000100
00000000
00000001
00000000
00000010
,  // measure 61
00000100
00001000
00000000
00000010
00000000
00010000
00000000
00001000
00100000
00010000
00000000
10000000
00000000
01000000
00100000
00000000
,  // measure 62
00001000
00010000
00000000
00000010
00000000
00000100
00000000
00000001
00000010
00000100
00000000
00001000
00000000
00000010
00000000
00010000
,  // measure 63
00001000
00100000
00000000
00010000
00000000
10000000
00000000
01000000
00100000
00001000
00000000
00010000
00000000
00000010
00000100
00000000
,  // measure 64
00000001
00000010
00000000
00000100
00000000
00001000
00000000
00000010
00010000
00001000
00000000
00100000
00000000
00010000
00000000
10000000
,  // measure 65
01000000
00000000
01100000
00000000
00000000
00011000
00000000
00000000
00000010
00000000
00000110
00000000
00000000
00000011
00000000
00000000
;

//---------------dance-double - ----------------
#NOTES:
     dance-double:
     :
     Medium:
     6:
     0.388,0.419,0.024,0.283,0.416: // measure 1
00000000
00000000
00000000
00000000
,  // measure 2
00000000
00000000
00000000
00000000
,  // measure 3
00000000
00000000
00000000
00000000
,  // measure 4
00000000
00000000
00000000
00000000
,  // measure 5
00000000
00000000
10000000
00000000
10000000
00000000
01000000
00000000
01000000
00000000
00000000
00000000
00100000
00000000
00000000
00001000
,  // measure 6
00000000
00000000
00000000
00000000
00100000
00000000
00000000
00001000
00000000
00000000
00000000
00000000
00010000
00000000
00000000
00000000
,  // measure 7
00000000
00000010
00000000
00000000
00000010
00000000
00000000
00000100
00000000
00000100
00000000
00000000
00000001
00000000
00000001
00000000
,  // measure 8
00000000
00001000
00000000
00000000
00001000
00000000
00000000
00000100
00000000
00000100
00000000
00000000
00000010
00000000
00000010
00000000
,  // measure 9
00000000
00000000
00000001
00000000
00000001
00000000
00000100
00000000
00000100
00000000
00000000
00000000
00000010
00000000
00000000
00010000
,  // measure 10
00000000
00000000
00000000
00000000
00000010
00000000
00000000
00010000
00000000
00000000
00000000
00000000
00001000
00000000
00000000
00000000
,  // measure 11
00000000
00100000
00000000
00000000
00100000
00000000
00000000
01000000
00000000
01000000
00000000
00000000
10000000
00000000
10000000
00000000
,  // measure 12
00000000
00010000
00000000
00000000
00010000
00000000
00000000
00100000
00000000
00100000
00000000
00000000
00001000
00000000
00001000
00000000
,  // measure 13
00010000
00000000
00000000
00000010
00000000
00010000
00000000
00000000
00001000
00000000
00000000
00000100
00000000
00001000
00000000
00000000
,  // measure 14
00000010
00000000
00000000
00000100
00000000
00000010
00000000
00000000
00010000
00000000
00000000
00001000
00000000
00010000
00000000
00000000
,  // measure 15
00100000
00000000
00000000
00010000
00000000
00100000
00000000
00000000
00010000
00000000
00000000
10000000
00000000
00010000
00000000
00000000
,  // measure 16
10000000
00000000
00000000
01000000
00000000
10000000
00000000
00000000
01000000
00000000
00000000
00100000
00000000
01000000
00000000
00000000
,  // measure 17
00100000
00000000
00000000
00001000
00000000
00100000
00000000
00000000
00001000
00000000
00000000
00010000
00000000
00001000
00000000
00000000
,  // measure 18
00010000
00000000
00000000
00000010
00000000
00010000
00000000
00000000
00000010
00000000
00000000
00000100
00000000
00000010
00000000
00000000
,  // measure 19
00000100
00000000
00000000
00000001
00000000
00000100
00000000
00000000
00000001
00000000
00000000
00000100
00000000
00000010
00000000
00000000
,  // measure 20
00000100
00000000
00000000
00000010
00000000
00010000
00000000
00000000
00000010
00000000
00000000
00000000
00001010
00000000
00000000
00000000
,  // measure 21
00000000
00001000
00000000
00000100
00000000
00000000
00000000
00000100
00000000
00000000
00000010
00000000
00000001
00000000
00000000
00000000
,  // measure 22
00000100
00000000
00000000
00000100
00000000
00000000
00000010
00000000
00000000
00000000
00010000
00000000
00001000
00000000
00000000
00000000
,  // measure 23
00100000
00000000
00000000
00100000
00000000
00000000
01000000
00000000
00000000
00000000
00010000
00000000
01000000
00000000
00000000
00000000
,  // measure 24
10000000
00000000
00000000
10000000
00000000
00000000
00010000
00000000
00000000
00000000
01000000
00000000
00100000
00000000
00000000
00000000
,  // measure 25
00000000
00000000
00001000
00000000
00010000
00000000
00000000
00000010
00000000
00000000
00000100
00000000
00000001
00000000
00000010
00000000
,  // measure 26
00000100
00000000
00000000
00000100
00000000
00000000
00010000
00000000
00000000
00000000
00001000
00000000
00000010
00000000
00000000
00000000
,  // measure 27
00000100
00000000
00000000
00000100
00000000
00000000
00000001
00000000
00000000
00000000
00000010
00000000
00000100
00000000
00000000
00000000
,  // measure 28
00010000
00000000
00000000
00010000
00000000
00000000
00001000
00000000
00000000
00000000
00100000
00000000
00010000
00000000
00000000
00000000
,  // measure 29
20000000
01000000
30020000
00100000
,  // measure 30
00032000
00000000
00003200
00000000
,  // measure 31
00000310
00000101
00000010
00001100
,  // measure 32
00020000
00032000
00203000
01300000
,  // measure 33
00000000
10000000
10000000
10000000
,  // measure 34
00000000
00000000
01000000
00000000
00100000
00000000
00100000
00000000
01000000
00000000
00000000
00000000
00010000
00000000
00000000
00001000
,  // measure 35
00000000
00000000
00000000
00000000
00010000
00000000
00000000
00001000
00000000
00000000
00000000
00000000
00000100
00000000
00000000
00000000
,  // measure 36
00000010
00000000
00000000
00000000
00001000
00000000
00000000
00000000
00000001
00000000
00000000
00000100
00000000
00000000
00000000
00000000
,  // measure 37
00000010
00000000
00000000
00010000
00000000
00000000
00001000
00000000
00100000
00000000
00000000
00010000
00000000
00000000
00000000
00000000
,  // measure 38
00000000
00000000
00000100
00000000
00000010
00000000
00000010
00000000
00000100
00000000
00000000
00000000
00001000
00000000
00000000
00010000
,  // measure 39
00000000
00000000
00000000
00000000
00001000
00000000
00000000
00010000
00000000
00000000
00000000
00000000
00100000
00000000
00000000
00000000
,  // measure 40
01000000
10000000
00010000
00100000
,  // measure 41
01000000
00010000
00001000
00000010
,  // measure 42
00000000
00000000
00001000
00000000
00001000
00000000
00000001
00000000
00000001
00000000
00000000
00000000
00000100
00000000
00000000
00000010
,  // measure 43
00000000
00000000
00000000
00000000
00000100
00000000
00000000
00000010
00000000
00000000
00000000
00000000
00010000
00000000
00000000
00000000
,  // measure 44
00001000
00000000
00000000
00100000
00000000
00000000
00000000
00000000
00010000
00000000
00000000
10000000
00000000
00000000
00000000
00000000
,  // measure 45
01000000
00000000
00000000
00100000
00000000
00000000
00000000
00000000
00001000
00000000
00000000
00010000
00000000
00000000
00000010
00000000
,  // measure 46
00000000
00000000
00000100
00000000
00000100
00000000
00000001
00000000
00000001
00000000
00000000
00000000
00001000
00000000
00000000
00000100
,  // measure 47
00000000
00000000
00000000
00000000
00010000
00000000
00000000
00001000
00000000
00000000
00000000
00000000
00100000
00000000
00000000
00000000
,  // measure 48
00010000
00000000
00000000
00010000
00000000
00000000
00000000
00000000
10000000
00000000
00000000
10000000
00000000
00000000
01000000
00000000
,  // measure 49
00100000
00000000
00100000
00000000
00001000
00000000
00010000
00001000
,  // measure 50
00020000
00030020
00000230
00000302
,  // measure 51
00000023
00000230
00020300
00031000
,  // measure 52
00200000
00320000
20030000
32000000
,  // measure 53
03020000
00000000
00000000
00000000
00032000
00000000
00000000
00000000
00000200
00003000
00000000
00000000
00000310
00000000
00000000
00000000
,  // measure 54
00000002
00000023
00000230
00020300
,  // measure 55
00032000
00203000
02300000
13000000
,  // measure 56
00200000
00302000
00023000
00030200
,  // measure 57
00000320
00000230
00000302
00000003
,  // measure 58
00001000
00000000
00000000
00000100
00000000
00000100
00000000
00000000
00010000
00000000
00000000
00001000
00000000
00001000
00000000
00000000
,  // measure 59
00100000
00000000
00000000
00010000
00000000
00010000
00000000
00000000
10000000
00000000
00000000
01000000
00000000
01000000
00000000
00000000
,  // measure 60
00100000
00000000
00000000
00001000
00000000
00001000
00000000
00000000
00010000
00000000
00000000
00000100
00000000
00000100
00000000
00000000
,  // measure 61
00000010
00000000
00000000
00000001
00000000
00000001
00000000
00000000
00001000
00000000
00000000
00000100
00000000
00000100
00000000
00000000
,  // measure 62
00010000
00000000
00000000
00001000
00000000
00001000
00000000
00000000
00000010
00000000
00000000
00000100
00000000
00000100
00000000
00000000
,  // measure 63
00001000
00000000
00000000
00010000
00000000
00010000
00000000
00000000
00100000
00000000
00000000
01000000
00000000
01000000
00000000
00000000
,  // measure 64
00010000
00000000
00000000
10000000
00000000
10000000
00000000
00000000
01000000
00000000
00000000
00100000
00000000
00100000
00000000
00000000
,  // measure 65
00001000
00000000
00001000
00000000
00000000
00000010
00000000
00000000
00000100
00000000
00000100
00000000
00000000
00010000
00000000
00000000
;

//---------------dance-double - ----------------
#NOTES:
     dance-double:
     :
     Easy:
     3:
     0.220,0.236,0.000,0.170,0.000: // measure 1
00000000
00000000
00000000
00000000
,  // measure 2
00000000
00000000
00000000
00000000
,  // measure 3
00000000
00000000
00000000
00000000
,  // measure 4
00000000
00000000
00000000
00000000
,  // measure 5
00000000
00100000
01000000
00000000
,  // measure 6
00001000
00000000
00001000
00010000
,  // measure 7
00000100
00000100
00000010
00000010
,  // measure 8
00000001
00000001
00001000
00001000
,  // measure 9
00000000
00000100
00000100
00000000
,  // measure 10
00010000
00000000
00010000
00001000
,  // measure 11
00100000
00100000
00010000
00010000
,  // measure 12
10000000
10000000
01000000
01000000
,  // measure 13
00020000
00030000
00002000
00003000
,  // measure 14
00000200
00000300
00000020
00000030
,  // measure 15
00000002
00000003
00000020
00000030
,  // measure 16
00000200
00000300
00002000
00003000
,  // measure 17
00020000
00030000
02000000
03000000
,  // measure 18
00200000
00300000
20000000
30000000
,  // measure 19
02000000
03000000
00020000
00030000
,  // measure 20
00002000
00003000
00000020
00000030
,  // measure 21
00000000
00000001
00000100
00000000
,  // measure 22
00010000
00010000
00001000
00000000
,  // measure 23
01000000
01000000
00100000
00000000
,  // measure 24
10000000
10000000
00010000
00000000
,  // measure 25
00000000
00100000
01000000
00000000
,  // measure 26
00001000
00001000
00010000
00000000
,  // measure 27
00000100
00000100
00000010
00000000
,  // measure 28
00000001
00000001
00001000
00000000
,  // measure 29
00000200
00000300
00010000
00001000
,  // measure 30
00200000
00300000
02000000
03000000
,  // measure 31
10000000
01000000
00100000
00010000
,  // measure 32
00001000
00000100
00000010
00000001
,  // measure 33
00000000
00000001
00001000
00000100
,  // measure 34
00000000
00000010
00000010
00000000
,  // measure 35
00010000
00000000
00010000
00001000
,  // measure 36
00100000
00100000
01000000
00000000
,  // measure 37
10000000
10000000
00010000
00000000
,  // measure 38
00000000
01000000
00100000
00000000
,  // measure 39
00001000
00000000
00001000
00000000
,  // measure 40
00010000
00000100
00010000
00000000
,  // measure 41
00001000
00100000
00001000
00000000
,  // measure 42
00000000
00010000
00001000
00000000
,  // measure 43
00000100
00000000
00000010
00000000
,  // measure 44
00000001
00000001
00001000
00001000
,  // measure 45
00000100
00000100
00010000
00000000
,  // measure 46
00001000
00010000
00010000
00000000
,  // measure 47
00100000
00000000
01000000
00000000
,  // measure 48
00100000
00000000
10000000
00000000
,  // measure 49
00010000
01000000
00001000
00010000
,  // measure 50
00000010
00000010
00000100
00000100
,  // measure 51
00000001
00000001
00001000
00001000
,  // measure 52
00000100
00000100
00010000
00010000
,  // measure 53
00001000
00001000
00100000
00100000
,  // measure 54
10000000
10000000
00010000
00010000
,  // measure 55
00100000
00100000
01000000
01000000
,  // measure 56
00001000
00001000
00010000
00010000
,  // measure 57
00000100
00000100
00000010
00000000
,  // measure 58
00000001
00000000
00000100
00000000
,  // measure 59
00000010
00000000
00001000
00000000
,  // measure 60
00010000
00000000
01000000
00000000
,  // measure 61
00100000
00000000
10000000
00000000
,  // measure 62
01000000
00000000
00010000
00000000
,  // measure 63
00001000
00000000
00000010
00000000
,  // measure 64
00001000
00000000
00000001
00000000
,  // measure 65
00000020
00000000
00000000
00000000
00000000
00000030
00000000
00000000
00002000
00000000
00000000
00000000
00000000
00003000
00000000
00000000
;

//---------------dance-single - ----------------
#NOTES:
     dance-single:
     :
     Beginner:
     1:
     0.119,0.182,0.000,0.000,0.000:
0000
0000
0000
0000
,
0000
0000
0000
0000
,
0000
0000
0000
0000
,
0000
0000
0000
0000
,
0000
0100
0000
0010
,
0000
0010
0000
0000
,
1000
0000
0000
0000
,
0001
0000
0000
0000
,
0000
0100
0000
0010
,
0000
0010
0000
0000
,
0001
0000
0000
0000
,
1000
0000
0000
0000
,
0010
0000
0000
0000
,
0100
0000
0000
0000
,
0001
0000
0000
0000
,
1000
0000
0000
0000
,
0100
0000
0000
0000
,
0010
0000
0000
0000
,
0001
0000
0000
0000
,
1000
0000
0000
0000
,
1000
0000
0000
0000
,
0001
0000
0000
0000
,
0010
0000
0000
0000
,
0100
0000
0000
0000
,
0100
0000
0000
0000
,
0010
0000
0000
0000
,
0001
0000
0000
0000
,
1000
0000
0000
0000
,
0010
0000
0100
0100
,
0100
0000
0100
0000
,
0000
1000
1000
0000
,
0001
0000
0001
0000
,
0000
0010
0010
0000
,
0000
0100
0100
0000
,
1000
0000
1000
0000
,
0001
0001
0001
0000
,
0100
0000
0100
0000
,
0000
0010
0010
0000
,
0001
0000
0001
0000
,
1000
0000
0100
0000
,
0010
0000
0001
0000
,
0000
0100
0100
0000
,
1000
0000
1000
0000
,
0001
0000
0010
0000
,
0100
0000
1000
0000
,
0000
0001
0001
0000
,
0100
0000
0100
0000
,
0010
0000
1000
0000
,
0001
0000
0100
0000
,
0010
0010
0010
0000
,
0001
0001
0001
0000
,
1000
1000
1000
0000
,
0100
0100
0100
0000
,
0010
0010
0010
0000
,
1000
1000
1000
0000
,
0001
0001
0001
0000
,
0100
0100
0100
0000
,
0010
0000
0000
0000
,
0100
0000
0000
0000
,
0001
0000
0000
0000
,
0100
0000
0000
0000
,
0010
0000
0000
0000
,
0100
0000
0000
0000
,
1000
0000
0000
0000
,
0100
0000
0100
0000
;
