#TITLE:murmur twins;
#SUBTITLE:-4.6.0 beat mix-;
#ARTIST:simoraru;
#TITLETRANSLIT:;
#SUBTITLETRANSLIT:;
#ARTISTTRANSLIT:;
#CREDIT:;
#BANNER:murmur twins -4.6.0 beat mix-.png;
#BACKGROUND:murmur twins -4.6.0 beat mix--bg.png;
#LYRICSPATH:;
#CDTITLE:cdtitle.png;
#MUSIC:murmur twins -4.6.0 beat mix-.mp3;
#OFFSET:-1.350;
#SAMPLESTART:12.000;
#SAMPLELENGTH:12.000;
#SELECTABLE:YES;
#BPMS:0.000=180.000,128.000=90.000,160.000=180.000,208.000=90.000,240.000=180.000;
#STOPS:;
#BGCHANGES:-4.000=murmur twins -4.6.0 beat mix-.avi=1.000=1=1=0,
372.000=murmur twins -4.6.0 beat mix--bg.PNG=1.000=1=0=1,
99999=-nosongbg-=1.000=0=0=0 // don't automatically add -songbackground-
;

//---------------dance-single - BASIC----------------
#NOTES:
     dance-single:
     BASIC:
     Easy:
     4:
     0.257,0.334,0.196,0.033,0.000:
0000
0000
0000
0000
,
0000
0000
0000
0000
,
0000
0000
0000
0000
,
0000
0000
0000
0000
,
0000
1000
0000
1000
,
0000
0001
0000
0001
,
0000
0100
0000
1000
,
0000
0001
0000
1001
,
0000
0000
0000
0000
,
1001
0000
0000
0000
,
1001
0000
0110
0000
,
1001
1000
0100
0001
,
1000
0010
0000
0010
,
0010
0010
0000
0010
,
0010
0010
0010
0010
,
1001
0001
0100
1000
,
0001
0010
1000
0001
,
1000
0001
0100
0010
,
1000
0100
1000
0010
,
0001
0100
0010
1000
,
0100
0001
0100
1000
,
0010
0100
0001
0100
,
1000
0010
0001
0010
,
2000
0000
0000
0000
,
3001
0000
1001
0000
,
1000
0000
1001
0000
,
0001
0000
1001
0000
,
1000
0000
1001
0000
,
0010
0000
0110
0000
,
0010
0000
0110
0000
,
0100
0000
0110
0000
,
0100
0000
0110
0000
,
1000
0001
0000
1000
,
0001
1000
0000
0001
,
1000
0001
0000
1000
,
0001
1000
0000
0001
,
1000
1001
0000
1001
,
0001
1001
0000
1001
,
1000
1001
0000
1001
,
0001
0010
0100
1000
,
0001
0000
1000
0000
,
0001
0000
0001
1001
,
1000
0000
0001
0000
,
1000
0000
1000
1001
,
0001
0000
1000
0000
,
0010
0000
0100
0000
,
0001
0010
0100
0010
,
0001
1000
0100
0010
,
0100
1000
0010
0001
,
0010
1000
0001
1000
,
2002
0000
0000
0000
,
0000
0000
0000
0000
,
3003
1000
0000
1000
,
0000
0001
0000
0001
,
0000
1000
0000
1000
,
0000
0001
0000
0001
,
1001
1000
0000
0100
,
0000
0001
0000
0010
,
1000
1000
0001
0001
,
1000
0001
1000
0001
,
1001
1000
0000
0010
,
0000
0001
0010
0100
,
1000
0000
0001
0000
,
1000
0000
1001
0000
,
1001
0000
0001
0000
,
1000
0000
0001
0010
,
0100
0000
1000
0000
,
0010
0000
1000
0001
,
1000
0001
0000
0010
,
0000
1000
0010
0100
,
0001
0000
1000
0000
,
0001
0000
1001
0000
,
1001
0000
1000
0000
,
0001
0000
1000
0010
,
0100
0000
0001
0000
,
0010
0000
0001
1000
,
0001
1000
0000
0010
,
0000
1000
0000
0001
,
0000
0010
0000
0001
,
0000
0100
0000
0010
,
0000
1000
0000
0001
,
0000
1000
0000
0010
,
0000
0100
0000
0010
,
0000
1000
0000
0100
,
0010
0001
0100
0010
,
1000
0100
0001
0100
,
1000
0010
1000
0010
,
1000
0001
0100
0010
,
0100
0001
0010
1000
,
0010
0001
0100
0010
,
1000
0100
0001
0100
,
1000
0010
0001
1000
,
2002
0000
0000
0000
,
3003
0000
0000
0000
;

//---------------dance-single - TRICK----------------
#NOTES:
     dance-single:
     TRICK:
     Medium:
     7:
     0.485,0.637,0.522,0.131,0.000:
0000
0000
0000
0000
,
0000
0000
0000
0000
,
0000
0000
0000
0000
,
0000
0000
0000
0000
,
1000
0010
1000
0010
,
0001
0100
0001
0100
,
1000
0010
1000
0010
,
0001
0100
1000
1001
,
2002
0000
0000
3003
,
0220
0000
0000
0330
,
1010
0000
0011
0000
,
1001
1000
1010
0001
,
0011
2000
0000
3010
,
1001
0002
0000
0013
,
1001
0010
1001
0100
,
1001
0001
1000
1001
,
0001
0010
0100
0000
1000
0010
0100
0000
,
0001
0010
0100
1000
,
1001
0000
1000
0010
,
0001
0010
0100
0000
1000
0100
0010
0000
,
0100
0001
0100
1000
,
0010
0001
0100
1000
,
1001
0010
0001
0010
,
2002
0000
0000
3003
,
1000
1001
1000
1001
,
0001
1001
0001
1001
,
0001
0011
0001
0011
,
1000
1010
1000
1010
,
0001
0101
0001
0101
,
1000
1100
1000
1100
,
0010
1001
0100
1001
,
0010
0001
0100
1000
,
1001
0010
0001
0000
0000
0100
1000
0000
,
0001
0100
1000
0000
0000
0010
1000
0010
,
0001
0100
0010
0000
0000
0100
0001
0000
,
0010
1000
0100
0000
0000
0001
0010
0000
,
1000
0001
1001
0000
0000
0110
1001
0000
,
0001
0100
1001
0000
0000
0110
1001
0000
,
1000
0010
1001
0000
0000
0110
1001
0000
,
0001
0011
0100
1100
1000
1010
0001
1001
,
0001
0010
0100
0000
1000
0010
0001
0000
,
0101
1100
0001
1001
,
1000
0010
0001
0000
0010
0100
1000
0000
,
1010
0011
1000
1001
,
0001
1000
1010
0010
,
0110
0101
1010
1000
,
0001
0010
0100
1000
0100
0010
0100
0010
,
0100
1000
0100
1000
0100
0000
0010
0001
,
0100
0000
1000
0010
1000
0000
0010
1000
,
0100
0000
1000
0100
0001
0000
1000
0001
,
2002
0000
0000
0000
,
0000
0000
0000
0000
,
3003
0000
1000
0000
0100
0000
1000
1000
,
0100
0000
0001
0000
0100
0000
0001
0001
,
0100
0000
1000
0000
0010
0010
1000
0000
,
0100
0000
0001
0000
0010
0010
0001
0000
,
1001
0100
1000
0000
0000
1000
0100
0000
,
1001
0010
1000
0000
0000
0100
0001
0000
,
1001
0100
0001
0010
0001
0010
1000
0100
,
1000
0100
0001
0010
1000
0100
0001
1001
,
1000
0100
1000
0000
0100
0001
0010
0000
,
2000
3200
0320
0032
,
1003
0000
0100
0000
0001
0100
1000
0000
,
1000
0000
0001
1000
0100
0000
0010
0001
,
0100
0000
1000
0000
0001
0010
0100
1000
,
0100
0110
0011
1010
,
0101
1000
1000
0001
,
0110
0000
1001
0000
1000
0010
1000
0000
,
0001
0100
0001
0000
0010
1000
0100
0000
,
0002
0023
0230
2300
,
3001
0000
0100
0000
1000
0100
0001
0000
,
0001
0000
1000
0001
0100
0000
0010
1000
,
0100
0000
0001
0000
1000
0010
0100
0001
,
0100
0110
1010
0011
,
1100
0001
0001
1000
,
0110
0000
1001
0000
0001
1000
0001
0000
,
1000
0010
0100
0000
0010
0001
0100
0000
,
1000
0010
0001
0000
0010
0100
1000
0000
,
1000
0010
0001
0000
0001
0010
1000
0000
,
1000
0100
0010
0000
0100
0001
0010
0000
,
0001
0010
1000
0000
1000
0100
0001
0000
,
0010
1000
0100
0000
0001
0010
1000
0000
,
0010
1000
0100
0000
1000
0010
0001
0000
,
0010
0001
0100
0000
1000
0010
0100
0000
,
0001
0100
0001
0000
0101
0000
0011
0000
,
1000
0010
1000
0000
1100
0000
1010
0000
,
1000
0010
1000
0000
1010
0000
1100
0000
,
0001
0010
0001
0000
0011
0000
0101
0000
,
1000
0100
1000
0000
0010
0000
1000
0000
,
0010
0001
0010
0000
0100
0000
1000
0000
,
1000
0010
0001
0000
0100
1000
0001
0000
,
1000
0001
0010
0100
0001
0010
1000
0001
,
2002
0000
0000
0000
,
3003
0000
0000
0000
;

//---------------dance-single - HEAVY----------------
#NOTES:
     dance-single:
     HEAVY:
     Hard:
     9:
     0.611,0.880,0.529,0.163,0.114:
0000
0000
0000
0000
,
0000
0000
0000
0000
,
0000
0000
0000
0000
,
0000
0000
0000
0000
,
1000
0100
0010
0000
0010
0001
0100
0000
,
1000
0010
0001
0000
0001
0100
1000
0000
,
1000
0010
0001
0000
0100
1000
0010
0000
,
0001
0100
1000
0010
0001
1000
1001
0000
,
1001
0000
0000
0000
1000
0010
0100
0001
,
0120
2030
3200
0320
,
2030
0000
3000
0000
1001
0100
0010
0100
,
1001
0110
1100
0011
,
1001
0001
0200
0000
0010
0000
1300
0000
,
1001
1000
0200
0000
0010
0000
0301
0000
,
1001
1000
0010
0000
1001
0001
0100
0000
,
1000
0010
0100
0001
1000
0100
1000
0010
,
1000
0010
0100
0000
1000
0010
0100
0100
,
0001
0011
0110
1001
,
1001
0000
0001
0000
1000
0010
0010
0100
,
0001
0010
0000
0110
0000
1100
0000
0101
,
0000
0000
0001
0000
0100
1000
1000
0010
,
0001
0101
0100
1100
,
1001
0000
1000
0000
0001
0010
1000
0100
,
2002
0000
0000
3003
1000
0010
0100
0001
,
1000
0100
0001
0000
0010
1000
0100
0000
,
0100
0001
0010
1000
0100
0001
1000
0000
,
1000
0010
0001
0000
0100
1000
0010
0000
,
0010
0001
0100
1000
0010
0001
1000
0000
,
1000
0100
0001
0000
0010
1000
0100
0000
,
1000
0100
0001
0010
1000
0001
0010
0000
,
0010
0001
0100
0000
1000
0010
0001
0000
,
0010
0001
0100
1000
0100
0001
0010
0100
,
1001
0000
0010
0100
0001
0000
0001
0000
0001
0000
0100
0000
1000
0000
0000
0000
,
1000
0000
0010
0100
1000
0000
1000
0000
1000
0000
0010
0000
0001
0000
0110
0000
,
1001
0000
0100
0001
0010
0000
0010
0000
0010
0000
0100
0000
1000
0000
0000
0000
,
0001
0000
0010
0100
0001
0000
0001
0000
0001
0000
0010
0000
1000
0000
0110
0000
,
1001
0000
0010
0100
1000
0000
1000
0000
0100
0000
0110
0000
1001
0000
0100
0000
,
0001
0000
0100
1000
1001
0000
1000
0000
0010
0000
0110
0000
1001
0000
0011
0000
,
1001
0000
0010
0100
1000
0000
0001
0000
0100
0000
0110
0000
1001
0000
0100
0000
,
0011
0011
1010
1010
1100
0101
0011
1001
,
0001
0010
0000
0000
1001
0000
0000
0000
1000
0010
0000
0000
1001
0000
0000
0000
,
0001
0100
0000
0000
1000
0100
0000
0000
1000
0000
0100
0000
1001
0000
0000
0000
,
1000
0010
0000
0000
1001
0000
0000
0000
0001
0010
0000
0000
1001
0000
0000
0000
,
1000
0100
0000
0000
0001
0100
0000
0000
0001
0000
0100
0000
1001
0000
0000
0000
,
0001
0100
0000
0000
1000
0001
0000
0000
1000
0000
0010
0000
1000
0000
0000
0000
,
1000
0100
0000
0000
0001
1000
0000
0000
0001
0000
0010
0000
0001
0000
0000
0000
,
0001
0010
1000
0100
0000
0000
0010
0001
,
0100
1000
0000
0000
1000
0010
0001
0100
,
0000
1000
0010
0001
0000
0000
0010
1000
,
0100
0001
0000
0000
0001
0100
1000
0000
,
2002
0000
0000
0000
,
0000
0000
0000
3003
,
1001
0000
1000
0000
0000
0000
1000
0100
0000
0000
0001
0000
1000
0000
1000
0000
,
0100
0000
0001
0000
0001
0001
0100
1000
0000
0000
0000
0000
0000
0001
1000
0001
,
0000
0000
0000
0000
1000
0000
0010
0001
0000
0010
0000
0100
0000
1000
0000
0000
,
0100
0000
0100
0000
0001
0010
0001
0100
0000
0000
0000
0000
1001
0000
0110
0000
,
2002
0000
0000
0000
3003
0000
1000
0001
0000
0000
1000
0000
0100
0000
0001
0000
,
1001
0000
0000
0000
1000
0100
0001
0010
0000
0000
1000
0001
0000
0000
0000
0000
,
1001
0000
1000
0000
1100
0000
0100
0000
0001
0000
0000
0000
1000
0000
0100
0001
,
1001
0100
1001
0010
1000
0100
0001
1001
,
2000
0000
0000
0000
3100
0001
0010
0010
,
2000
3002
0203
2300
,
3100
0000
0100
0000
0001
0001
0100
1000
,
1000
0010
0000
1010
0000
0101
0000
0011
,
0000
0000
1001
0000
0001
0100
0010
1000
,
0100
1010
0011
0101
,
1100
0000
1000
0000
1000
1000
0001
0100
,
0000
0000
1001
0000
1000
0010
1000
0020
,
0000
0000
0000
0000
1030
1000
0100
0001
,
0020
2030
3200
0302
,
1003
0000
0100
0000
1000
0100
0010
0001
,
0001
0100
0000
1010
0000
0110
0000
0101
,
0000
0000
1001
0000
1000
0010
0100
0001
,
0100
1010
1100
0101
,
0011
0000
0001
0000
0001
1000
0100
0010
,
0000
0000
1001
0000
0001
1000
0001
1000
,
0001
0010
0100
0010
0001
0010
0100
0010
,
0001
0010
0100
0010
0001
1000
0100
1000
,
0010
0100
1000
0100
0010
0100
1000
0100
,
0010
0100
1000
0100
0010
0100
1000
0100
,
0001
0010
0100
0010
0001
0010
0100
0010
,
0001
0010
0100
0010
0001
1000
0100
1000
,
0010
0100
1000
0100
0010
0100
1000
0100
,
0010
0100
1000
0100
0010
1000
0100
0010
,
0001
0100
1000
0000
0010
0001
0100
0000
,
1000
0010
0001
0000
0100
1000
0010
0000
,
0001
0100
1000
0000
1000
0010
0100
0000
,
0001
0010
1000
0000
0001
0010
0100
0000
,
0010
1000
0100
0000
1000
0100
0001
0000
,
0010
1000
0100
0000
1000
0100
0001
0000
,
1000
0010
0100
0010
1000
0100
0010
0100
,
1000
0001
0010
1000
0001
0010
1000
0001
,
2002
0000
0000
0000
,
3003
0000
0000
0000
;

//---------------dance-single - ONI----------------
#NOTES:
     dance-single:
     ONI:
     Challenge:
     10:
     0.881,1.000,0.979,0.490,0.571: // measure 1
0000
0000
0000
0000
,  // measure 2
0000
0000
0000
0000
,  // measure 3
0000
0000
0000
0000
,  // measure 4
0000
0000
0000
0000
,  // measure 5
1000
0100
1100
0000
0001
0100
0101
0000
,  // measure 6
1000
0001
1001
0000
0001
1000
1001
0000
,  // measure 7
1000
0010
1001
0000
0001
0010
1001
0000
,  // measure 8
0001
0100
1000
0010
0001
1000
1001
0000
,  // measure 9
1002
0000
1000
0000
1003
0010
0100
0001
,  // measure 10
0120
0100
2030
0100
3200
0010
0320
1000
,  // measure 11
2030
0000
3001
0000
1001
0100
0010
0100
,  // measure 12
1001
0110
1100
0011
,  // measure 13
1001
0001
0100
0000
1001
1000
0100
0000
,  // measure 14
1001
1000
0100
0010
0010
0000
1001
0000
,  // measure 15
1001
1000
0010
0000
1001
0001
0100
0000
,  // measure 16
1000
0000
0010
0000
0100
0000
0001
0000
1000
0010
1000
0010
1000
0010
1000
0001
,  // measure 17
1000
0010
1010
0000
1000
0010
0110
0100
,  // measure 18
0001
0011
0110
1001
,  // measure 19
1001
0000
1010
0000
1000
0010
1010
1000
,  // measure 20
0001
0010
0100
0110
0000
1100
0000
0101
,  // measure 21
0100
0010
0101
0000
0100
1000
1100
1000
,  // measure 22
0001
0100
0101
0000
0110
0000
1100
0000
,  // measure 23
1001
0000
0101
0000
0001
0010
1000
0001
,  // measure 24
2002
0000
0000
3003
1000
0100
0001
0010
,  // measure 25
1000
0000
0100
0010
0000
0001
1000
0000
1000
0100
0000
0100
1000
0001
1000
0000
,  // measure 26
0000
0001
1000
0000
1000
0100
0000
0100
0010
0000
0010
0001
0000
0001
1000
0000
,  // measure 27
0000
0100
0000
0100
0010
0000
0010
1000
0000
1000
0001
0000
0001
0100
0001
0000
,  // measure 28
0000
0001
0100
0000
0100
0001
0000
0001
1000
0000
1000
0001
0000
0001
1000
0000
,  // measure 29
1000
0100
0000
0100
0010
0000
0010
0001
0000
0001
1000
0000
1000
0100
1000
0000
,  // measure 30
0000
0010
1000
0000
1000
0100
0000
0100
0010
0000
0010
1000
0000
1000
0001
0000
,  // measure 31
0001
0100
0000
0100
0010
0000
0010
0001
0000
0001
1000
0000
1000
0001
1000
0000
,  // measure 32
0000
0000
1010
0000
0000
0101
0000
0000
1010
0000
0000
1001
0000
0000
0110
0000
,  // measure 33
1001
1000
0001
0010
0100
0010
0001
1000
0000
0001
0000
0010
0100
1000
0001
0100
,  // measure 34
0010
0100
0001
1000
0000
0010
0100
1000
0000
1010
0000
0101
0001
0100
0010
0000
,  // measure 35
1000
0100
1000
0010
0000
0100
0001
0010
0000
1001
0000
1000
0100
1000
0010
0000
,  // measure 36
0100
0001
0010
0100
0000
1000
0001
0010
0000
0011
0000
0001
0100
1000
0010
0000
,  // measure 37
1010
1000
0100
0010
0000
0001
0100
1000
0000
1010
0000
0010
0001
0100
1000
0000
,  // measure 38
1000
0010
0100
0010
0000
1100
0000
0101
0000
0011
0000
0010
0100
1000
0100
0000
,  // measure 39
0001
0010
1000
0100
0000
0001
0010
1000
0000
1001
0000
1000
0100
0001
0010
0000
,  // measure 40
1010
0000
0001
1000
0001
0000
0001
0100
0001
0000
0110
0000
1010
0101
0000
1001
,  // measure 41
1000
0100
1001
0000
0001
0100
1001
0000
,  // measure 42
0001
0010
1000
0100
1000
0100
1001
0000
,  // measure 43
1000
0010
1001
0000
0001
0010
1001
0000
,  // measure 44
1000
0010
0001
0100
0001
0100
1001
1000
,  // measure 45
0001
0100
1000
0100
0001
1000
0001
1001
,  // measure 46
0000
1010
0000
1001
0000
0011
0000
0101
,  // measure 47
0001
0010
1000
0100
0010
0001
0010
0100
,  // measure 48
1000
0010
0001
0010
1000
0100
0001
0010
,  // measure 49
0100
1000
0010
0001
0010
1000
0100
1000
,  // measure 50
0100
0001
0100
0001
0010
0001
0010
1000
,  // measure 51
1001
1010
1001
0011
,  // measure 52
0110
1001
0110
1001
,  // measure 53
1001
0000
1001
0000
0000
0000
1000
0100
0000
0000
0011
0000
1010
0000
1100
0000
,  // measure 54
1100
0000
0101
0000
0001
0001
0100
1000
0000
0000
0000
0000
0000
0001
1000
0001
,  // measure 55
0000
0000
0000
0000
1010
0000
0010
0001
0000
0011
0000
0101
0000
1100
0000
0000
,  // measure 56
1010
0000
0011
0000
0001
0010
0001
0100
0000
0000
0000
0000
1001
0000
0110
0000
,  // measure 57
2002
0000
0000
0000
3003
0000
1000
0001
0000
0000
1010
0000
0101
0000
0101
0000
,  // measure 58
1001
0000
0000
0000
1000
0100
0001
0010
0000
0000
1000
0001
0000
0000
0000
0000
,  // measure 59
1001
0000
1000
0000
1100
0000
0101
0000
1100
0000
1001
0000
1001
0000
0100
0001
,  // measure 60
1001
0000
0000
0000
0110
0000
0000
0000
1001
0000
0000
0000
1010
0000
0000
0000
1100
0000
1000
0000
0010
0000
1000
0000
0001
1000
0001
1000
0001
1000
0001
1000
,  // measure 61
0001
0000
0101
0000
0100
0001
0010
0010
,  // measure 62
1010
0110
0101
1001
,  // measure 63
0101
0000
0110
0000
0101
0001
0100
1000
,  // measure 64
1000
0010
1000
1010
0000
0101
0000
0011
,  // measure 65
0001
1000
1001
0000
0001
0100
0010
1000
,  // measure 66
0100
1000
1010
0000
0011
0000
0101
0000
,  // measure 67
1100
1000
1001
0000
1001
0001
0101
0220
,  // measure 68
0000
0330
1001
0000
1000
0010
0001
0100
,  // measure 69
1000
0001
1001
0000
1000
1000
0100
0001
,  // measure 70
0011
1010
0110
1001
,  // measure 71
1001
0000
1100
0000
1100
0100
0010
0001
,  // measure 72
0001
0100
0010
1010
0000
0110
0000
0101
,  // measure 73
0001
1000
1001
0000
1000
0010
0100
0001
,  // measure 74
0100
0010
1010
0000
1100
0000
0101
0000
,  // measure 75
0011
0001
1000
0000
1001
1000
0100
0020
,  // measure 76
0000
0030
1001
0000
0001
1000
0001
1000
,  // measure 77
0002
0000
0003
0000
0000
0000
0000
0000
0000
0000
0000
0000
0000
0000
0000
0000
0000
0000
0000
0000
0000
0000
0000
0000
0020
0000
0030
0000
0000
0000
0000
0000
0000
0000
0000
0000
0000
0000
0000
0000
0000
0000
0000
0000
0000
0000
0000
0000
0200
0000
0300
0000
0000
0000
0000
0000
0000
0000
0000
0000
0000
0000
0000
0000
0000
0000
0000
0000
0000
0000
0000
0000
0020
0000
0030
0000
0000
0000
0000
0000
0000
0000
0000
0000
0000
0000
0000
0000
0000
0000
0000
0000
0000
0000
0000
0000
0000
0000
0000
0000
0000
0000
0000
0000
0000
0000
0000
0000
0000
0000
0000
0000
0000
0000
0000
0000
0000
0000
0000
0000
0020
0000
0030
0000
0000
0000
0000
0000
0000
0000
0000
0000
0000
0000
0000
0000
0000
0000
0000
0000
0000
0000
0000
0000
0200
0000
0300
0000
0000
0000
0000
0000
0000
0000
0000
0000
0000
0000
0000
0000
0000
0000
0000
0000
0000
0000
0000
0000
0020
0000
0030
0000
0000
0000
0000
0000
0000
0000
0000
0000
0000
0000
0000
0000
0000
0000
0000
0000
0000
0000
0000
0000
,  // measure 78
0002
0000
0003
0000
0000
0000
0000
0000
0000
0000
0000
0000
0000
0000
0000
0000
0000
0000
0000
0000
0000
0000
0000
0000
0020
0000
0030
0000
0000
0000
0000
0000
0000
0000
0000
0000
0000
0000
0000
0000
0000
0000
0000
0000
0000
0000
0000
0000
0200
0000
0300
0000
0000
0000
0000
0000
0000
0000
0000
0000
0000
0000
0000
0000
0000
0000
0000
0000
0000
0000
0000
0000
0020
0000
0030
0000
0000
0000
0000
0000
0000
0000
0000
0000
0000
0000
0000
0000
0000
0000
0000
0000
0000
0000
0000
0000
0002
0000
0003
0000
0000
0000
0000
0000
0000
0000
0000
0000
0000
0000
0000
0000
0000
0000
0000
0000
0000
0000
0000
0000
2000
0000
3000
0000
0000
0000
0000
0000
0000
0000
0000
0000
0000
0000
0000
0000
0000
0000
0000
0000
0000
0000
0000
0000
0200
0000
0300
0000
0000
0000
0000
0000
0000
0000
0000
0000
0000
0000
0000
0000
0000
0000
0000
0000
0000
0000
0000
0000
2000
0000
3000
0000
0000
0000
0000
0000
0000
0000
0000
0000
0000
0000
0000
0000
0000
0000
0000
0000
0000
0000
0000
0000
,  // measure 79
0020
0000
0030
0000
0000
0000
0000
0000
0000
0000
0000
0000
0000
0000
0000
0000
0000
0000
0000
0000
0000
0000
0000
0000
0200
0000
0300
0000
0000
0000
0000
0000
0000
0000
0000
0000
0000
0000
0000
0000
0000
0000
0000
0000
0000
0000
0000
0000
2000
0000
3000
0000
0000
0000
0000
0000
0000
0000
0000
0000
0000
0000
0000
0000
0000
0000
0000
0000
0000
0000
0000
0000
0200
0000
0300
0000
0000
0000
0000
0000
0000
0000
0000
0000
0000
0000
0000
0000
0000
0000
0000
0000
0000
0000
0000
0000
0000
0000
0000
0000
0000
0000
0000
0000
0000
0000
0000
0000
0000
0000
0000
0000
0000
0000
0000
0000
0000
0000
0000
0000
0200
0000
0300
0000
0000
0000
0000
0000
0000
0000
0000
0000
0000
0000
0000
0000
0000
0000
0000
0000
0000
0000
0000
0000
2000
0000
3000
0000
0000
0000
0000
0000
0000
0000
0000
0000
0000
0000
0000
0000
0000
0000
0000
0000
0000
0000
0000
0000
0200
0000
0300
0000
0000
0000
0000
0000
0000
0000
0000
0000
0000
0000
0000
0000
0000
0000
0000
0000
0000
0000
0000
0000
,  // measure 80
0020
0000
0030
0000
0000
0000
0000
0000
0000
0000
0000
0000
0000
0000
0000
0000
0000
0000
0000
0000
0000
0000
0000
0000
0200
0000
0300
0000
0000
0000
0000
0000
0000
0000
0000
0000
0000
0000
0000
0000
0000
0000
0000
0000
0000
0000
0000
0000
2000
0000
3000
0000
0000
0000
0000
0000
0000
0000
0000
0000
0000
0000
0000
0000
0000
0000
0000
0000
0000
0000
0000
0000
0200
0000
0300
0000
0000
0000
0000
0000
0000
0000
0000
0000
0000
0000
0000
0000
0000
0000
0000
0000
0000
0000
0000
0000
0020
0000
0030
0000
0000
0000
0000
0000
0000
0000
0000
0000
0000
0000
0000
0000
0000
0000
0000
0000
0000
0000
0000
0000
0200
0000
0300
0000
0000
0000
0000
0000
0000
0000
0000
0000
0000
0000
0000
0000
0000
0000
0000
0000
0000
0000
0000
0000
2000
0000
3000
0000
0000
0000
0000
0000
0000
0000
0000
0000
0000
0000
0000
0000
0000
0000
0000
0000
0000
0000
0000
0000
0200
0000
0300
0000
0000
0000
0000
0000
0000
0000
0000
0000
0000
0000
0000
0000
0000
0000
0000
0000
0000
0000
0000
0000
,  // measure 81
0002
0000
0003
0000
0000
0000
0000
0000
0000
0000
0000
0000
0000
0000
0000
0000
0000
0000
0000
0000
0000
0000
0000
0000
0020
0000
0030
0000
0000
0000
0000
0000
0000
0000
0000
0000
0000
0000
0000
0000
0000
0000
0000
0000
0000
0000
0000
0000
0200
0000
0300
0000
0000
0000
0000
0000
0000
0000
0000
0000
0000
0000
0000
0000
0000
0000
0000
0000
0000
0000
0000
0000
0020
0000
0030
0000
0000
0000
0000
0000
0000
0000
0000
0000
0000
0000
0000
0000
0000
0000
0000
0000
0000
0000
0000
0000
0000
0000
0000
0000
0000
0000
0000
0000
0000
0000
0000
0000
0000
0000
0000
0000
0000
0000
0000
0000
0000
0000
0000
0000
0020
0000
0030
0000
0000
0000
0000
0000
0000
0000
0000
0000
0000
0000
0000
0000
0000
0000
0000
0000
0000
0000
0000
0000
0200
0000
0300
0000
0000
0000
0000
0000
0000
0000
0000
0000
0000
0000
0000
0000
0000
0000
0000
0000
0000
0000
0000
0000
0020
0000
0030
0000
0000
0000
0000
0000
0000
0000
0000
0000
0000
0000
0000
0000
0000
0000
0000
0000
0000
0000
0000
0000
,  // measure 82
0002
0000
0003
0000
0000
0000
0000
0000
0000
0000
0000
0000
0000
0000
0000
0000
0000
0000
0000
0000
0000
0000
0000
0000
0020
0000
0030
0000
0000
0000
0000
0000
0000
0000
0000
0000
0000
0000
0000
0000
0000
0000
0000
0000
0000
0000
0000
0000
0200
0000
0300
0000
0000
0000
0000
0000
0000
0000
0000
0000
0000
0000
0000
0000
0000
0000
0000
0000
0000
0000
0000
0000
0020
0000
0030
0000
0000
0000
0000
0000
0000
0000
0000
0000
0000
0000
0000
0000
0000
0000
0000
0000
0000
0000
0000
0000
0002
0000
0003
0000
0000
0000
0000
0000
0000
0000
0000
0000
0000
0000
0000
0000
0000
0000
0000
0000
0000
0000
0000
0000
2000
0000
3000
0000
0000
0000
0000
0000
0000
0000
0000
0000
0000
0000
0000
0000
0000
0000
0000
0000
0000
0000
0000
0000
0200
0000
0300
0000
0000
0000
0000
0000
0000
0000
0000
0000
0000
0000
0000
0000
0000
0000
0000
0000
0000
0000
0000
0000
2000
0000
3000
0000
0000
0000
0000
0000
0000
0000
0000
0000
0000
0000
0000
0000
0000
0000
0000
0000
0000
0000
0000
0000
,  // measure 83
0020
0000
0030
0000
0000
0000
0000
0000
0000
0000
0000
0000
0000
0000
0000
0000
0000
0000
0000
0000
0000
0000
0000
0000
0200
0000
0300
0000
0000
0000
0000
0000
0000
0000
0000
0000
0000
0000
0000
0000
0000
0000
0000
0000
0000
0000
0000
0000
2000
0000
3000
0000
0000
0000
0000
0000
0000
0000
0000
0000
0000
0000
0000
0000
0000
0000
0000
0000
0000
0000
0000
0000
0200
0000
0300
0000
0000
0000
0000
0000
0000
0000
0000
0000
0000
0000
0000
0000
0000
0000
0000
0000
0000
0000
0000
0000
0020
0000
0030
0000
0000
0000
0000
0000
0000
0000
0000
0000
0000
0000
0000
0000
0000
0000
0000
0000
0000
0000
0000
0000
0200
0000
0300
0000
0000
0000
0000
0000
0000
0000
0000
0000
0000
0000
0000
0000
0000
0000
0000
0000
0000
0000
0000
0000
2000
0000
3000
0000
0000
0000
0000
0000
0000
0000
0000
0000
0000
0000
0000
0000
0000
0000
0000
0000
0000
0000
0000
0000
0000
0000
0000
0000
0000
0000
0000
0000
0000
0000
0000
0000
0000
0000
0000
0000
0000
0000
0000
0000
0000
0000
0000
0000
,  // measure 84
0020
0000
0030
0000
0000
0000
0000
0000
0000
0000
0000
0000
0000
0000
0000
0000
0000
0000
0000
0000
0000
0000
0000
0000
0200
0000
0300
0000
0000
0000
0000
0000
0000
0000
0000
0000
0000
0000
0000
0000
0000
0000
0000
0000
0000
0000
0000
0000
2000
0000
3000
0000
0000
0000
0000
0000
0000
0000
0000
0000
0000
0000
0000
0000
0000
0000
0000
0000
0000
0000
0000
0000
0200
0000
0300
0000
0000
0000
0000
0000
0000
0000
0000
0000
0000
0000
0000
0000
0000
0000
0000
0000
0000
0000
0000
0000
0020
0000
0030
0000
0000
0000
0000
0000
0000
0000
0000
0000
0000
0000
0000
0000
0000
0000
0000
0000
0000
0000
0000
0000
2000
0000
3000
0000
0000
0000
0000
0000
0000
0000
0000
0000
0000
0000
0000
0000
0000
0000
0000
0000
0000
0000
0000
0000
0200
0000
0300
0000
0000
0000
0000
0000
0000
0000
0000
0000
0000
0000
0000
0000
0000
0000
0000
0000
0000
0000
0000
0000
0020
0000
0030
0000
0000
0000
0000
0000
0000
0000
0000
0000
0000
0000
0000
0000
0000
0000
0000
0000
0000
0000
0000
0000
,  // measure 85
0001
0100
0001
0100
0001
0100
0001
0100
0001
0100
0001
0100
0001
0100
0001
0000
,  // measure 86
1000
0100
1000
0100
1000
0100
1000
0100
1000
0100
1000
0100
1000
0100
1000
0000
,  // measure 87
0001
0100
0001
0100
0001
0100
0001
0100
0001
0100
0001
0100
0001
0100
0001
0000
,  // measure 88
1000
0100
1000
0100
1000
0100
1000
0100
1000
0100
1000
0100
1000
0100
1000
0000
,  // measure 89
0001
0100
0001
0100
0001
0100
0001
0100
0001
0100
0001
0100
0001
0100
0001
0000
,  // measure 90
1000
0100
1000
0100
1000
0100
1000
0100
1000
0100
1000
0100
1000
0100
1000
0000
,  // measure 91
0001
0100
0001
0100
0001
0100
0001
0100
0001
0100
0001
0100
0001
0100
0001
0000
,  // measure 92
0100
0010
0100
0010
0100
0010
0100
0010
0100
0010
0100
0010
0100
0010
0100
0000
,  // measure 93
2002
0000
0000
0000
,  // measure 94
3003
0000
0000
0000
;
