#TITLE:道しるべ;
#SUBTITLE:(Long version);
#ARTIST:pastel white;
#TITLETRANSLIT:MICHISHIRUBE;
#SUBTITLETRANSLIT:;
#ARTISTTRANSLIT:;
#CREDIT:;
#BANNER:mitisirube.png;
#BACKGROUND:mitisirube-bg.png;
#LYRICSPATH:;
#CDTITLE:cdtitle.png;
#MUSIC:mitisirube.mp3;
#OFFSET:-4.600;
#SAMPLESTART:46.748;
#SAMPLELENGTH:12.000;
#SELECTABLE:YES;
#BPMS:0.000=114.000,24.000=116.000,24.500=120.000,25.000=124.000,25.500=128.000,26.000=132.000,26.500=135.580,27.000=138.140,27.500=142.620,28.000=148.050,556.000=144.000,558.000=140.000,560.000=136.000,561.000=132.000,562.000=128.000,563.000=124.000,564.000=120.000,565.000=118.000,566.000=114.000,568.000=110.000,572.000=26.500,574.000=26.250,576.000=26.000,577.000=25.750,577.500=25.500,578.000=25.250,579.000=25.000,580.000=24.750,581.000=24.500,582.000=24.250,583.000=24.000,583.500=23.770,584.000=23.540,585.000=23.310,586.000=23.170,587.000=23.050,588.000=22.500;
#STOPS:;
#BGCHANGES:;

//---------------dance-single - BASIC----------------
#NOTES:
     dance-single:
     BASIC:
     Easy:
     3:
     0.140,0.269,0.053,0.070,0.000:
0000
0000
0000
0000
,
0000
0000
0000
0000
,
0000
0000
0000
0000
,
0000
0000
0000
0000
,
0000
0000
0000
0000
,
0000
0000
0000
0000
,
0000
0000
0000
0000
,
0000
0000
0000
0000
,
1000
0000
0100
0000
,
0001
0000
0100
0000
,
1000
0000
0010
0000
,
0001
0000
0010
0000
,
1000
0000
1000
0000
,
1000
0000
0000
0000
,
0001
0000
0000
0000
,
0100
0000
0000
0000
,
2000
0000
0000
0000
,
3200
0000
0000
0000
,
0320
0000
0000
0000
,
0032
0000
0000
0000
,
1003
0000
0010
0000
,
0100
0000
1001
0000
,
0100
0000
0000
0000
,
0010
0000
0000
0000
,
0001
0000
0001
0000
,
0100
0000
0100
0000
,
0010
0000
0100
0000
,
1000
0000
0001
0000
,
1000
0000
1000
0000
,
0100
0000
0001
0000
,
0002
0000
0000
0000
0000
0000
0000
0003
,
0000
0000
0000
0000
,
1000
0000
1000
0000
,
0100
0000
0100
0000
,
0010
0000
0100
0000
,
0001
0000
1000
0000
,
0001
0000
0001
0000
,
0100
0000
1000
0000
,
2000
0000
0000
0000
0000
0000
0000
3000
,
0000
0000
0000
0000
,
0001
0000
0010
0000
,
0001
0000
0010
0000
,
0100
0000
1000
0000
,
0100
0000
1000
0000
,
0001
0000
1000
0000
,
0001
0000
1000
0000
,
0010
0000
0100
0000
,
0010
0000
0100
0000
,
1001
0000
0000
0000
,
0010
0000
0100
0000
,
0001
0000
0001
0000
,
1000
0000
0010
0000
,
0100
0000
0100
0000
,
0001
0000
0000
0000
,
1000
0000
0000
0000
,
1000
0000
0000
0000
,
0100
0000
0001
0000
,
1000
0000
1000
0000
,
0010
0000
1000
0000
,
0001
0000
0100
0000
,
0010
0000
0010
0000
,
1000
0000
0000
0000
,
0001
0000
0000
0000
,
1001
0000
0000
0000
,
0002
0000
0000
0000
,
0203
0000
0000
0000
,
0320
0000
0000
0000
,
2030
0000
0000
0000
,
3001
0000
0010
0000
,
0100
0000
1001
0000
,
0100
0000
0000
0000
,
0010
0000
0000
0000
,
0001
0001
1000
0001
,
0100
0100
0010
0100
,
1000
0001
0100
0010
,
0001
0000
1000
0000
,
0100
0100
0001
1000
,
0010
0000
0100
0000
,
0002
0000
0000
0000
0000
0000
0000
0003
,
0000
0000
0000
0000
,
1000
1000
0001
1000
,
0100
0100
0010
0100
,
0001
1000
0100
0010
,
1000
0000
0001
0000
,
0100
0100
1000
0001
,
0010
0000
0100
0000
,
2000
0000
0000
0000
0000
0000
0000
3000
,
0000
0000
0000
0000
,
1000
0000
1000
0000
,
0001
0000
0001
0000
,
1000
0000
1000
0000
,
0001
0000
0001
0000
,
1000
0000
0100
0000
,
0001
0000
0100
0000
,
0200
0000
0000
0000
,
0000
0000
0310
0000
,
1001
0000
0010
0000
,
1000
0000
0001
0000
,
0100
0000
0100
0000
,
0010
0000
1001
0000
,
1000
0000
0001
0000
,
0020
0000
0000
0000
,
0230
0000
0000
0000
0000
0000
0000
0300
,
0000
0000
0000
0000
,
1000
0000
0000
0000
,
0001
0000
0000
0000
,
1000
0000
0000
0000
,
0001
0000
0000
0000
,
0100
0000
1000
0000
,
0001
0000
1001
0000
,
0010
0000
0000
0000
,
0100
0000
0000
0000
,
1000
0000
1000
0000
,
0001
0000
0100
0000
,
0001
0000
0001
0000
,
1000
0000
1001
0000
,
0001
0000
0100
0000
,
0100
0000
0010
0010
,
0200
0000
0000
0000
0000
0000
0000
0300
,
0000
0000
0000
0000
,
1001
0000
0000
0000
,
0001
0001
0100
1000
,
0010
0010
0100
1000
,
0010
1001
0010
1001
,
0010
0000
0100
0000
,
1000
1000
0010
0100
,
1000
0000
1001
0000
,
0200
0000
0000
0000
0000
0000
0000
0300
,
0000
0000
0000
0000
,
0001
0100
0100
0010
,
1000
0001
0100
1000
,
0010
1001
0010
1001
,
0100
0000
0100
0000
,
0001
0100
0010
0100
,
1000
0000
0001
0100
,
0020
0000
0000
0000
,
0000
0000
0000
0130
,
1001
0000
0000
0000
,
0010
0000
0010
0000
,
0020
0000
0000
0000
,
0000
0000
0000
0000
,
0000
0000
0000
0000
,
0030
0000
0000
0000
,
0001
1000
0100
0100
,
0010
1000
0002
0003
,
1000
0001
0100
0100
,
0010
0001
2000
3000
,
1001
0000
0000
0000
;

//---------------dance-single - TRICK----------------
#NOTES:
     dance-single:
     TRICK:
     Medium:
     5:
     0.248,0.367,0.113,0.083,0.000:
0000
0000
0000
0000
,
0000
0000
0000
0000
,
0000
0000
0000
0000
,
0000
0000
0000
0000
,
0000
0000
0000
0000
,
0000
0000
0000
0000
,
0000
0000
0000
0000
,
0000
0000
0000
0000
0000
0000
0000
0100
,
1000
0000
0000
0100
0100
0000
0000
0010
,
0001
0000
0000
0000
0002
0000
0000
1000
,
1003
0000
0000
0100
0010
0000
0000
0000
,
0001
0000
0000
0010
0010
0000
0000
0000
,
1000
1000
1000
0100
,
1001
0000
0000
0010
0000
0000
0000
0000
,
0001
0001
0001
0100
,
1000
0001
1010
0000
,
2000
0000
3010
0000
,
0002
0000
0013
0000
,
2000
0000
3100
0000
,
0002
0000
0103
0000
,
1000
0100
0010
0001
,
1001
1001
1001
0000
,
0100
0000
0010
0000
,
0010
0010
0020
0030
,
0001
0001
0100
0100
,
0010
1000
0001
0100
,
0010
1000
0100
0010
,
0001
0000
0000
0001
1000
0000
0000
0000
,
1000
0100
0010
0001
,
1000
0000
0000
1000
0001
0000
0000
0000
,
0010
0000
0010
1000
0000
0100
0000
0002
,
0000
0000
0003
0000
,
1000
1000
0100
0100
,
0010
0001
0010
0100
,
1000
1010
0001
0011
,
0001
0000
0000
0001
1000
0000
0000
0000
,
1000
0100
0010
0001
,
1000
0000
0000
1000
0001
0000
0000
0000
,
1000
0000
0100
0010
0000
1000
0100
0002
,
0000
0000
0000
0003
0000
0000
0000
0000
,
0001
0100
0100
0010
,
0001
1000
1000
0010
,
0100
1000
1000
0010
,
0001
0100
0100
0010
,
0100
0001
0001
0100
,
0001
0010
0010
1000
,
0010
0100
0100
0010
,
1000
0100
0001
0010
,
1001
1001
0000
0000
0000
0000
0000
0100
,
0010
0000
0000
1000
0001
0000
0000
0001
,
0001
0000
0000
0010
0100
0000
0000
1000
,
1000
0000
0000
1000
0001
0000
0000
0100
,
0020
1000
1000
1030
,
0101
0000
0000
0010
0000
0000
0000
0000
,
0020
0000
0001
0000
0001
0000
0031
0100
,
1000
0000
0100
0000
0001
0000
0010
0100
,
1000
0000
0000
0100
0001
0000
0000
1000
,
1000
0000
0000
0000
0020
0000
0000
0100
,
0130
0000
0000
0100
1000
0000
0000
1000
,
0001
0000
0000
1000
1000
0000
0000
0000
,
0010
0000
0010
0000
0010
0100
1000
0000
,
0011
0000
0000
0100
0000
0000
0100
0000
,
0001
0001
0100
1000
,
2000
0000
3001
0000
,
0002
0000
0103
0000
,
2000
0000
3100
0000
,
2000
0000
3010
0000
,
0002
0000
0013
0000
,
0001
0010
0100
1000
,
1001
0110
1001
0000
,
0100
0000
0010
0000
,
0010
0000
0000
0000
0010
0000
0000
0000
0020
0000
0000
0030
0000
0000
0000
0000
,
1000
1000
0100
0100
,
0001
0100
1000
0100
,
1000
1010
0001
0011
,
0001
0000
0000
0001
1000
0000
0000
0000
,
1000
0100
0001
0010
,
1000
0000
0000
1000
0100
0000
0000
0000
,
0001
0000
0010
1000
0000
0000
0100
0002
,
0000
0000
0003
0000
,
0010
0010
1000
0100
,
0001
0001
0010
1000
,
1010
0100
0011
0100
,
1000
0000
0000
1000
0001
0000
0000
0000
,
0001
0100
1000
0010
,
0001
0000
0000
0001
0100
0000
0100
0000
,
1000
0000
0010
0100
0000
1000
0010
0002
,
0000
0000
0000
0003
0000
0000
0000
0000
,
1000
1000
0100
0100
,
0010
0001
0010
0100
,
1000
0000
0010
0100
,
0001
0000
0001
0000
,
0010
0010
0100
0100
,
1001
0000
0100
0000
,
0001
0000
0000
0010
0000
0000
0100
1000
,
0000
0000
0010
0000
,
0001
0001
0010
0010
,
0100
0100
1000
1000
,
0100
1001
0100
1001
,
0010
0000
1001
1000
,
0010
0000
0001
0100
,
0010
0000
0010
0000
,
0100
0000
0100
0010
0000
0001
0100
2000
,
0000
0000
0000
3001
0000
0000
0000
0000
,
1000
0000
0100
0000
,
0001
0000
0010
0000
,
1000
0000
0010
0000
,
0001
0000
0100
0000
,
1000
1000
0001
0100
,
0010
0010
1001
0000
,
0010
0000
0100
0000
,
0010
0010
0110
1001
,
1000
1000
0001
0001
,
0100
0100
0010
0010
,
1000
0100
1000
0100
,
0011
0000
1001
0000
,
0001
0001
0100
0100
,
0010
0000
0000
0000
0100
0000
0100
0010
,
0100
0000
1000
0100
0000
0001
0000
0020
,
0000
0000
0000
0030
,
1001
0000
0000
0000
,
0001
0100
0010
0100
,
1000
0010
0100
0010
,
0001
0011
1000
1100
,
0001
0000
0000
0001
0100
0000
0000
0000
,
1000
0001
0010
0100
,
0001
0000
0000
1000
0001
0000
0100
0100
,
0100
0000
0001
0010
0000
0000
1000
0002
,
0000
0000
1003
0000
,
0001
0010
0100
1000
,
1000
0100
0010
0001
,
0001
1001
1000
1001
,
0100
0000
0000
0010
0100
0000
0000
0000
,
0100
0001
0010
1000
,
0100
0000
0000
0010
0100
0000
0100
0100
,
0010
0000
0010
0000
,
0010
0000
0010
0100
,
1001
0000
0010
0000
,
0010
0000
0010
0000
,
0010
0000
0000
0000
,
0010
0000
0000
0000
,
0020
0000
0000
0000
,
0030
0000
0000
0000
,
0001
0010
1000
0010
0001
0100
0100
0010
,
1000
1000
0100
0010
0002
0000
0003
0000
,
1000
1000
0100
0100
0010
0001
0010
0100
,
0100
0010
0001
0100
2000
0000
3000
0000
,
1001
0000
0000
0000
;

//---------------dance-single - HEAVY----------------
#NOTES:
     dance-single:
     HEAVY:
     Hard:
     7:
     0.432,0.784,0.337,0.333,0.090:
0000
0000
0000
0000
,
0000
0000
0000
0000
,
0000
0000
0000
0000
,
0000
0000
0000
0000
,
0000
0000
0000
0000
,
0000
0000
0000
0000
,
2000
0000
3002
0000
,
0203
0000
0000
0000
0310
0000
0000
0100
,
1001
0000
1000
0100
0100
0000
0001
0100
,
1000
0000
0010
0100
0001
0000
0100
0100
,
1000
0000
0010
0100
0010
0000
0100
1000
,
0001
0000
0100
0010
0010
0000
0001
0100
,
1020
0000
1000
0000
1030
0000
0100
0010
,
1001
0000
0100
0010
0000
0100
0100
1000
,
0010
0000
0001
0100
0000
0010
0010
0100
,
0001
0010
0100
1000
1001
0000
1000
1000
,
0100
0000
0000
0000
0000
0000
0001
0000
0001
0000
0000
0010
0000
0000
0100
0000
,
1000
0000
0000
0000
0000
0000
0000
0000
1000
0000
0000
0001
0000
0000
0010
0000
,
1000
0000
1000
0100
0000
0100
0000
0001
,
0000
0001
0001
0000
1000
0000
0100
0100
,
0001
0000
0000
0000
0000
0000
0010
0000
0100
0000
0000
1000
0000
0000
0001
0000
,
1001
0000
0110
0000
1001
0000
0010
0010
,
0010
0000
1000
1000
0000
0100
0000
0010
,
0011
0110
1100
1000
,
2000
3020
0230
2300
,
3002
0203
2300
3020
,
0031
1100
0010
0101
,
0001
0000
0000
0001
0000
0000
0001
0010
0001
0000
0000
0000
0000
0000
0000
0000
,
0021
1000
0130
0001
,
1100
0000
0000
0100
0000
0000
0010
1000
0001
0000
0000
0000
0010
0000
0010
0000
,
0010
0000
1000
0100
0000
0010
0000
0002
,
0000
0000
1003
0000
,
2000
3020
0230
2300
,
3002
0203
2300
3020
,
0031
1100
0010
0101
,
0001
0000
0000
0001
0000
0000
0001
0010
0001
0000
0000
0000
0000
0000
0000
0000
,
0021
1000
0130
0001
,
1100
0000
0000
0100
0000
0000
0010
1000
0001
0000
0000
0000
0010
0000
0010
0000
,
0010
0000
1000
0100
0000
0010
0010
0002
,
0000
0000
0000
1003
0000
0000
0100
0000
,
1000
1000
0100
0010
0000
0001
0000
0010
,
1000
0100
0001
0001
0000
0010
0100
1000
,
1000
0000
1000
0001
0000
1000
0001
0100
,
0100
0100
0100
0010
,
0001
0001
0100
0010
0000
0001
0000
1000
,
0100
0001
1000
0100
0000
0010
0010
0001
,
0100
0000
1000
0100
0000
0001
0010
1000
,
1100
0101
0011
0110
,
1001
1001
0000
0000
0000
0000
0000
0100
,
0010
0000
0010
1000
0001
0000
0001
0100
,
1000
0000
0010
0100
0001
0000
0001
0001
,
0010
0000
0100
1000
0001
0000
0010
0100
,
0021
0001
0001
0031
,
1100
0000
1000
0010
0000
0010
0100
0100
,
0020
0001
0100
1000
,
0100
0031
0011
1100
,
1001
0000
1000
0100
0001
0000
0001
0010
,
0100
0000
1000
0100
0010
0000
0001
0100
,
1000
0000
1000
0010
0001
0000
0001
0010
,
0010
0000
1000
0100
0001
0000
0010
0001
,
1100
0000
1000
0000
0010
0100
1000
0010
,
1001
0000
0010
0100
0000
1000
0100
0001
,
0001
0000
0001
0010
0000
1000
1000
1000
,
0001
0010
0100
1000
1001
0000
0001
0001
,
0100
0000
0000
0000
0000
0000
1000
0000
1000
0000
0000
0010
0000
0000
0100
0000
,
0001
0000
0000
0000
0000
0000
0000
0000
0001
0000
0000
1000
0000
0000
0010
0000
,
0001
0000
0001
0100
0000
0100
0000
1000
,
0000
1000
1000
0000
0001
0000
0100
0100
,
1000
0000
0000
0000
0000
0000
0010
0000
0100
0000
0000
0001
0000
0000
1000
0000
,
1001
0000
0110
0000
1001
0000
0010
0010
,
0010
0000
0001
0001
0000
0100
0000
0010
,
1100
0000
0000
0000
0110
0000
0000
0000
0011
0000
0001
1000
0001
0000
0000
0000
,
0002
0023
0230
0302
,
2003
3200
0302
0023
,
1030
0101
0010
1100
,
1000
0000
0000
1000
0000
0000
1000
0010
1000
0000
0000
0000
0000
0000
0000
0000
,
1020
0001
0130
1000
,
0011
0000
0000
0100
0000
0000
0010
0001
1000
0000
0000
0000
0010
0000
0010
0000
,
0010
0000
0001
0100
0000
0000
0010
2000
,
0000
0000
0000
0000
3001
0010
0100
1000
,
0002
0023
0230
0302
,
2003
3200
0302
0023
,
1030
0101
0010
1100
,
1000
0000
0000
1000
0000
0000
1000
0010
1000
0000
0000
0000
0000
0000
0000
0000
,
1020
0001
0130
1000
,
0011
0000
0000
0100
0000
0000
0010
0001
1000
0000
0000
0000
0010
0000
0010
0000
,
0010
0000
0001
0100
0000
0010
0010
2000
,
0000
0000
0000
3001
0000
0000
0000
0000
,
2000
3200
2300
3200
,
0320
0032
0203
2300
,
3020
0001
2030
3200
,
0302
0000
0103
1000
,
0020
2030
3200
0302
,
2003
0000
3100
0000
,
0002
0000
0000
0203
0000
2300
0010
3002
,
0000
0103
2002
3003
,
0011
0011
1010
1010
,
0101
0101
1100
1100
,
0110
1001
0110
1001
,
1010
0000
0000
0000
0100
0000
0000
0000
1001
0000
0000
0000
1000
0100
0000
0000
,
0011
0100
1001
0110
,
1010
0100
1010
0001
,
2000
0000
3100
0020
0000
0031
0100
1000
,
0010
0100
0110
1001
0000
0000
0010
0100
,
0100
0000
0000
0000
0000
0000
1000
0000
1000
0000
0000
0100
0000
0000
0010
0000
,
0001
0000
0000
0000
0000
0000
0000
0000
0010
0000
0000
0010
0000
0000
0010
0000
,
0100
0000
1000
0010
0000
0001
0000
0100
,
0000
0010
0010
0000
0000
0000
0010
0100
,
1001
0000
0000
0000
1000
0000
0100
0000
0001
0000
0000
0010
0000
0000
0100
0000
,
1001
0000
0110
0000
1001
0000
0010
0010
,
0010
0000
0001
0010
0000
1000
0000
0100
,
0010
0010
0110
1001
,
1000
1000
0100
0100
,
0010
0010
0001
0001
,
1000
1100
1000
1100
,
0011
0000
0000
0100
1001
0000
0000
0000
,
0001
0001
1000
1000
,
0020
0000
0000
0000
0130
0000
0010
0010
,
0010
0000
1000
0100
0000
0001
0000
0020
,
0000
0000
0000
0030
,
1001
0000
0000
0000
1000
0100
0010
0001
,
1001
0000
1200
0000
0310
1000
0001
0000
,
1010
0000
0012
0000
0103
1000
0001
0000
,
0011
1010
0011
1010
,
0001
0000
0000
0010
0000
0000
0001
0000
0100
0000
1000
0000
0010
0000
0100
0000
,
1001
0000
0200
0000
0310
1000
0100
0000
,
0101
0000
0000
0010
0000
0000
1000
0000
0001
0000
0010
0000
0100
0000
0100
0000
,
0100
0000
1001
0010
0000
0100
1000
0020
,
0000
0100
0000
0100
0130
0000
1001
0000
,
2000
3200
0302
0023
,
2030
3200
0302
0023
,
0130
1001
0100
1001
,
0100
0000
0000
0010
0000
0000
1000
0000
0100
0000
0001
0000
0001
0000
1000
0000
,
1001
0002
0023
2030
,
3200
0000
0310
0010
0100
0000
0100
0100
,
0010
0020
0000
0030
0010
0020
0000
0030
,
0010
0020
0000
0030
0010
0010
0100
0100
,
0010
0020
0000
0030
0010
0020
0000
0030
,
0010
0020
0000
0030
0010
0020
0000
0030
,
0010
0020
0000
0030
0010
0020
0000
0030
,
0010
0020
0000
0030
0010
0000
0010
0000
,
0010
0100
1000
0010
0001
0100
1000
0010
,
0002
0000
0000
0003
,
0001
0010
0010
0100
1000
0100
0010
0001
0010
0100
0010
0100
1000
0000
0110
0000
,
0001
0010
1000
0100
0001
0000
0110
0000
1001
1000
1000
1000
0100
0100
0010
0001
,
1000
0100
0100
0010
0001
0100
0010
1000
0100
0010
0100
0010
0001
0000
0110
0000
,
1000
0010
0001
0100
1000
0000
0110
0000
1001
0001
0001
0001
0010
0010
0100
1000
,
1001
0000
0000
0000
;

//---------------dance-single - ONI----------------
#NOTES:
     dance-single:
     ONI:
     Challenge:
     11:
     0.787,1.000,0.853,0.410,0.582: // measure 1
0000
0000
0000
0000
,  // measure 2
0000
0000
0000
0000
,  // measure 3
0000
0000
0000
0000
,  // measure 4
0000
0000
0000
0000
,  // measure 5
0000
0000
0000
0000
,  // measure 6
0000
0000
0000
0000
,  // measure 7
2000
0000
3002
0000
,  // measure 8
0203
0000
0000
0000
0310
0000
0000
0100
,  // measure 9
1001
0000
0001
0000
1000
0000
0001
0000
0100
0010
0100
0000
0001
0000
0100
0000
,  // measure 10
1010
0000
1000
0000
0010
0000
0100
0010
0001
0010
0100
0000
0100
0000
0100
0000
,  // measure 11
1001
0000
1000
0000
0010
0000
0100
0000
0010
1000
0001
0000
0100
0000
0010
0000
,  // measure 12
1001
0000
1000
0000
0100
0000
0010
0100
1000
0100
0010
0001
0001
0010
0100
1000
,  // measure 13
1010
0110
0100
0000
0100
1010
0101
0010
,  // measure 14
1001
0000
1001
0000
0100
0000
0110
0000
0010
0100
0010
0000
0100
0000
1000
0001
,  // measure 15
1000
1001
0001
0200
0000
0010
0010
0310
,  // measure 16
0001
0000
0010
0000
1000
0100
0010
0001
1001
0000
0000
0000
1000
0010
1000
0000
,  // measure 17
0100
0000
0000
0000
0010
0000
0001
0000
0001
0010
0000
0010
0100
0000
0100
0000
,  // measure 18
1000
0000
0000
0000
0010
0000
0100
0000
1000
0000
1000
0001
0000
0001
0010
0000
,  // measure 19
2000
0000
3020
0100
0000
0032
0000
1003
,  // measure 20
0100
0000
0110
0000
1001
0000
0000
0000
1000
0000
0010
0000
0100
0010
0100
0000
,  // measure 21
0001
0000
0000
0000
0100
0000
0010
0000
0100
0000
0100
1000
0000
1000
0001
0000
,  // measure 22
1001
0000
0000
0000
0010
0100
0010
0000
1001
0000
0000
0000
0010
0100
0010
0000
,  // measure 23
1010
0000
1000
1000
0000
1100
0000
0110
,  // measure 24
0010
0000
0000
0000
0010
0100
0010
0000
1000
0100
1000
0010
0100
0001
0010
0100
,  // measure 25
2001
0000
0001
0000
3020
0000
0000
0000
0230
1000
0000
0000
0320
0000
0000
0000
,  // measure 26
0032
0000
0100
0000
0203
0000
0000
0000
2300
0010
0000
0000
3020
0000
0000
0000
,  // measure 27
0031
0100
1100
0000
0010
0100
1001
0000
,  // measure 28
0011
0000
0000
1100
0000
0000
0001
0010
0001
0100
0010
1000
0100
1000
0010
0100
,  // measure 29
1002
0010
2003
0000
3200
0010
0302
0000
,  // measure 30
1003
0000
0000
0110
0000
0000
0010
1000
1001
0000
1001
0000
0010
0000
0010
0000
,  // measure 31
1010
0000
1001
0000
0100
0000
0110
0000
0010
0000
1010
0000
1000
0100
0002
0000
,  // measure 32
0000
0000
0100
0000
0100
0000
0100
0000
1003
0010
0100
0001
0010
0100
1000
0010
,  // measure 33
1002
0000
1000
0000
0203
0000
0000
0000
0320
0001
0000
0000
0230
0000
0000
0000
,  // measure 34
2300
0000
0010
0000
3020
0000
0000
0000
0032
0100
0000
0000
0203
0000
0000
0000
,  // measure 35
1300
0010
0011
0000
0100
0010
1001
0000
,  // measure 36
1100
0000
0000
0011
0000
0000
1000
0100
1000
0010
0100
0001
0010
0001
0100
0010
,  // measure 37
2001
0100
3002
0000
0023
0100
2030
0000
,  // measure 38
3001
0000
0000
0110
0000
0000
0010
1000
1001
0000
1001
0000
0010
0000
0010
0000
,  // measure 39
0011
1000
1100
0110
0010
0011
1001
1010
,  // measure 40
1000
0000
0001
0100
1000
0000
0011
0000
0000
0000
0000
0000
0010
0000
0000
0000
,  // measure 41
1010
1010
0100
1010
0000
0001
0000
0010
,  // measure 42
0010
0100
0001
0101
0000
0010
0100
1000
,  // measure 43
1001
0000
0010
1001
0000
1000
0001
0110
,  // measure 44
1000
0000
0000
0000
1100
0000
0000
0000
0100
0000
0000
0100
0010
0000
0000
0000
,  // measure 45
0101
0101
0010
0101
0000
0100
0000
0100
,  // measure 46
1010
0001
1000
0100
0000
0010
0010
0001
,  // measure 47
0101
0000
0100
1010
0000
1000
0010
0100
,  // measure 48
1000
0100
1000
0100
0001
0100
0001
0010
0001
0010
0100
1000
0100
1000
0001
1000
,  // measure 49
1001
1001
0000
0010
0010
0000
0000
0100
,  // measure 50
1001
0000
1000
0000
0010
0000
1000
0100
1001
0000
0100
0000
1000
0000
1100
0000
,  // measure 51
1010
0000
1000
0000
0010
0000
0100
0010
0001
0000
0010
0000
1000
0000
0011
0000
,  // measure 52
1100
0000
1000
0000
0100
0000
1000
0010
1001
0000
1000
0000
0100
0000
0010
0000
,  // measure 53
0011
0110
0001
0010
0001
0100
0001
1000
,  // measure 54
1100
0000
1001
0000
1000
0000
0110
0000
0010
0100
0010
0000
0100
0000
0100
0000
,  // measure 55
0001
0000
0010
0000
0001
0000
0010
0000
0100
0100
1000
0000
1000
0000
0100
0000
,  // measure 56
0110
0000
1001
0000
1001
0000
0001
0000
0011
0001
0010
0100
1100
0000
1000
0000
,  // measure 57
1001
0000
1000
0000
0001
0000
1000
0000
0010
0100
0010
0000
1000
0000
0010
0000
,  // measure 58
0101
0000
0001
0000
0100
0000
0010
0100
1000
0100
0010
0000
0010
0000
0010
0000
,  // measure 59
1001
0000
0001
0000
0100
0000
0010
0000
0100
0001
1000
0000
0010
0000
0100
0000
,  // measure 60
1001
0000
0001
0000
0010
0000
0100
0010
0001
0010
0100
1000
1000
0100
0010
0001
,  // measure 61
0011
0110
0010
0000
0010
1100
0011
0100
,  // measure 62
1001
0000
1001
0000
0010
0000
0110
0000
0100
0010
0100
0000
0010
0000
0001
1000
,  // measure 63
0001
1001
1000
0020
0000
0100
0100
0130
,  // measure 64
1000
0000
0100
0000
0001
0010
0100
1000
1001
0000
0000
0000
0001
0100
0001
0000
,  // measure 65
0010
0000
0000
0000
0100
0000
1000
0000
1000
0100
0000
0100
0010
0000
0010
0000
,  // measure 66
0001
0000
0000
0000
0100
0000
0010
0000
0001
0000
0001
1000
0000
1000
0100
0000
,  // measure 67
0002
0000
0203
0010
0000
2300
0000
3001
,  // measure 68
0010
0000
0110
0000
1001
0000
0000
0000
0001
0000
0100
0000
0010
0100
0010
0000
,  // measure 69
1000
0000
0000
0000
0010
0000
0100
0000
0010
0000
0010
0001
0000
0001
1000
0000
,  // measure 70
1001
0000
0000
0000
0100
0010
0100
0000
1001
0000
0000
0000
0100
0010
0100
0000
,  // measure 71
0101
0000
0001
0001
0000
0011
0000
0110
,  // measure 72
1000
0100
1000
0100
0010
0001
0010
0001
1000
0000
0001
0010
1000
0000
0000
0000
,  // measure 73
0002
0000
0010
0000
0013
0100
0010
0000
1100
0000
1100
0000
1002
0000
1000
0000
,  // measure 74
2003
0000
0010
0000
3100
0010
0100
0000
0101
0000
0101
0000
2001
0000
0001
0000
,  // measure 75
3001
0010
0101
0000
1000
0010
1001
0000
,  // measure 76
1010
0000
0000
0101
0000
0000
1000
0010
1000
0001
0100
0010
1000
0001
0100
0010
,  // measure 77
2001
0100
3020
0000
0230
0001
2300
0000
,  // measure 78
3001
0000
0000
0110
0000
0000
0010
0001
1000
0000
1001
0000
0010
0000
0010
0000
,  // measure 79
0110
0100
0001
1100
0010
0001
0010
1010
,  // measure 80
1000
0000
2000
0000
0000
0000
3001
0000
0001
0010
0100
1000
0001
0010
0100
1000
,  // measure 81
2001
0000
0010
0000
3100
0010
0001
0000
0101
0000
0101
0000
2001
0000
0001
0000
,  // measure 82
3002
0000
0010
0000
0103
0010
1000
0000
1100
0000
1100
0000
1002
0000
1000
0000
,  // measure 83
1003
0010
0101
0000
0001
0010
1001
0000
,  // measure 84
0011
0000
0000
1100
0000
0000
0001
0010
0001
0100
0010
1000
0001
0010
0100
1000
,  // measure 85
1002
0100
0023
0000
0032
0100
2003
0000
,  // measure 86
3001
0000
0000
0110
0000
0000
0010
0001
1000
0000
1001
0000
0010
0000
0010
0000
,  // measure 87
0110
0000
0100
0000
1001
0000
1100
0010
0001
0000
1010
0000
0010
0000
1100
0000
,  // measure 88
0001
0000
1000
0100
0001
0000
1010
0000
0000
0000
0000
0000
0000
0000
0000
0000
,  // measure 89
0020
0000
0000
0000
0000
0000
0000
0000
0000
0000
0000
0000
0000
0000
0000
0000
0000
0000
0000
0000
0000
0000
0000
0000
1000
0000
0000
0000
0000
0000
0000
0000
0000
0000
0000
0000
0000
0000
0000
0000
0000
0000
0000
0000
0000
0000
0000
0030
0020
0000
0000
0000
0000
0000
0000
0000
0000
0000
0000
0000
0000
0000
0000
0000
0000
0000
0000
0000
0000
0000
0000
0000
0000
0000
0000
0000
0000
0000
0000
0000
0000
0000
0000
0000
0000
0000
0000
0000
0000
0000
0000
0000
0000
0000
0000
0000
2030
0000
0000
0000
0000
0000
0000
0000
0000
0000
0000
0000
0100
0000
0000
0000
0000
0000
0000
0000
0000
0000
0000
3000
2000
0000
0000
0000
0000
0000
0000
0000
0000
0000
0000
0000
0000
0000
0000
0000
0000
0000
0000
0000
0000
0000
0000
0000
3200
0000
0000
0000
0000
0000
0000
0000
0000
0000
0000
0000
0000
0000
0000
0000
0000
0000
0000
0000
0000
0000
0000
0000
0000
0000
0000
0000
0000
0000
0000
0000
0000
0000
0000
0000
0000
0000
0000
0000
0000
0000
0000
0000
0000
0000
0000
0000
,  // measure 90
0320
0100
0032
0000
0203
1000
2300
0100
,  // measure 91
3020
0001
0001
0000
2030
0100
3200
0000
,  // measure 92
0302
0000
0000
1000
0000
0000
0100
0000
1003
0010
0100
0001
1000
0010
0100
0001
,  // measure 93
0020
0100
2030
0000
3200
0010
0302
0000
,  // measure 94
2003
0000
0000
0000
0000
0000
0000
0000
0000
0000
0000
0000
0000
0000
0000
0000
0000
0000
0000
0000
0000
0000
0000
0000
0000
0000
0000
0000
0000
0000
0000
0000
0000
0000
0000
0000
0010
0000
0000
0000
0000
0000
0000
0000
0000
0000
0000
0000
0000
0000
0000
0000
0000
0000
0000
0000
0000
0000
0000
0000
0000
0000
0000
0000
0000
0000
0000
0000
0000
0000
0000
0000
0100
0000
0000
0000
0000
0000
0000
0000
0000
0000
0000
0000
0000
0000
0000
0000
0000
0000
0000
0000
0000
0000
0000
3000
1001
0000
0000
0000
0000
0000
0000
0000
0000
0000
0000
0000
0000
0000
0000
0000
0000
0000
0000
0000
0000
0000
0000
0000
1001
0000
0000
0000
0000
0000
0000
0000
0000
0000
0000
0000
0000
0000
0000
0000
0000
0000
0000
0000
0000
0000
0000
0000
0001
0000
0000
0000
0000
0000
0000
0000
0000
0000
0000
0000
0000
0000
0000
0000
0000
0000
0000
0000
0000
0000
0000
0000
0100
0000
0000
0000
0000
0000
0000
0000
0000
0000
0000
0000
0000
0000
0000
0000
0000
0000
0000
0000
0000
0000
0000
0000
,  // measure 95
0002
0100
0000
0203
0000
2300
0010
3002
,  // measure 96
0000
0000
0100
0000
0103
0010
0100
0000
0001
0010
0100
1000
0010
0100
0001
1000
,  // measure 97
2001
0000
0000
0000
0000
0000
0000
0000
0000
0000
0000
0000
0000
0000
0000
0000
0000
0000
0000
0000
0000
0000
0000
0000
0000
0000
0000
0000
0000
0000
0000
0000
0000
0000
0000
0000
0000
0000
0000
0000
0000
0000
0000
0000
0000
0000
0000
3000
2010
0000
0000
0000
0000
0000
0000
0000
0000
0000
0000
0000
0000
0000
0000
0000
0000
0000
0000
0000
0000
0000
0000
0000
0000
0000
0000
0000
0000
0000
0000
0000
0000
0000
0000
0000
0000
0000
0000
0000
0000
0000
0000
0000
0000
0000
0000
3000
1002
0000
0000
0000
0000
0000
0000
0000
0000
0000
0000
0000
0000
0000
0000
0000
0000
0000
0000
0000
0000
0000
0000
0000
0000
0000
0000
0000
0000
0000
0000
0000
0000
0000
0000
0000
0000
0000
0000
0000
0000
0000
0000
0000
0000
0000
0000
0003
0102
0000
0000
0000
0000
0000
0000
0000
0000
0000
0000
0000
0000
0000
0000
0000
0000
0000
0000
0000
0000
0000
0000
0000
0000
0000
0000
0000
0000
0000
0000
0000
0000
0000
0000
0000
0000
0000
0000
0000
0000
0000
0000
0000
0000
0000
0000
0003
,  // measure 98
2001
0000
0000
0000
0000
0000
0000
0000
0000
0000
0000
0000
0000
0000
0000
0000
0000
0000
0000
0000
0000
0000
0000
0000
0000
0000
0000
0000
0000
0000
0000
0000
0000
0000
0000
0000
0000
0000
0000
0000
0000
0000
0000
0000
0000
0000
0000
3000
2001
0000
0000
0000
0000
0000
0000
0000
0000
0000
0000
0000
0000
0000
0000
0000
0000
0000
0000
0000
0000
0000
0000
0000
0000
0000
0000
0000
0000
0000
0000
0000
0000
0000
0000
0000
0000
0000
0000
0000
0000
0000
0000
0000
0000
0000
0000
3000
1020
0000
0000
0000
0000
0000
0000
0000
0000
0000
0000
0000
0000
0000
0000
0000
0000
0000
0000
0000
0000
0000
0000
0000
0000
0000
0000
0000
0000
0000
0000
0000
0000
0000
0000
0000
0000
0000
0000
0000
0000
0000
0000
0000
0000
0000
0000
0030
0120
0000
0000
0000
0000
0000
0000
0000
0000
0000
0000
0000
0000
0000
0000
0000
0000
0000
0000
0000
0000
0000
0000
0000
0000
0000
0000
0000
0000
0000
0000
0000
0000
0000
0000
0000
0000
0000
0000
0000
0000
0000
0000
0000
0000
0000
0000
0030
,  // measure 99
2010
0000
0000
0000
0000
0000
0000
0000
0000
0000
0000
0000
0000
0000
0000
0000
0000
0000
0000
0000
0000
0000
0000
0000
0000
0000
0000
0000
0000
0000
0000
0000
0000
0000
0000
0000
0000
0000
0000
0000
0000
0000
0000
0000
0000
0000
0000
3000
2100
0000
0000
0000
0000
0000
0000
0000
0000
0000
0000
0000
0000
0000
0000
0000
0000
0000
0000
0000
0000
0000
0000
0000
0000
0000
0000
0000
0000
0000
0000
0000
0000
0000
0000
0000
0000
0000
0000
0000
0000
0000
0000
0000
0000
0000
0000
3000
1002
0000
0000
0000
0000
0000
0000
0000
0000
0000
0000
0000
0000
0000
0000
0000
0000
0000
0000
0000
0000
0000
0000
0000
0000
0000
0000
0000
0000
0000
0000
0000
0000
0000
0000
0000
0000
0000
0000
0000
0000
0000
0000
0000
0000
0000
0000
0003
0102
0000
0000
0000
0000
0000
0000
0000
0000
0000
0000
0000
0000
0000
0000
0000
0000
0000
0000
0000
0000
0000
0000
0000
0000
0000
0000
0000
0000
0000
0000
0000
0000
0000
0000
0000
0000
0000
0000
0000
0000
0000
0000
0000
0000
0000
0000
0003
,  // measure 100
2001
0000
0000
0000
0000
0000
0000
0000
0000
0000
0000
0000
0000
0000
0000
0000
0000
0000
0000
0000
0000
0000
0000
0000
0000
0000
0000
0000
0000
0000
0000
0000
0000
0000
0000
0000
0001
0000
0000
0000
0000
0000
0000
0000
0000
0000
0000
3000
2000
0000
0000
0000
0000
0000
0000
0000
0000
0000
0000
0000
0000
0000
0000
0000
0000
0000
0000
0000
0000
0000
0000
0000
0010
0000
0000
0000
0000
0000
0000
0000
0000
0000
0000
0000
0100
0000
0000
0000
0000
0000
0000
0000
0000
0000
0000
3000
1002
0000
0000
0000
0000
0000
0000
0000
0000
0000
0000
0000
0000
0000
0000
0000
0000
0000
0000
0000
0000
0000
0000
0000
0000
0000
0000
0000
0000
0000
0000
0000
0000
0000
0000
0000
0000
0000
0000
0000
0000
0000
0000
0000
0000
0000
0000
0003
0002
0000
0000
0000
0000
0000
0000
0000
0000
0000
0000
0000
0010
0000
0000
0000
0000
0000
0000
0000
0000
0000
0000
0000
0000
0000
0000
0000
0000
0000
0000
0000
0000
0000
0000
0000
0000
0000
0000
0000
0000
0000
0000
0000
0000
0000
0000
0003
,  // measure 101
2001
0000
0000
0000
0000
0000
0000
0000
0000
0000
0000
0000
0000
0000
0000
0000
0000
0000
0000
0000
0000
0000
0000
0000
0000
0000
0000
0000
0000
0000
0000
0000
0000
0000
0000
0000
0000
0000
0000
0000
0000
0000
0000
0000
0000
0000
0000
0000
0100
0000
0000
0000
0000
0000
0000
0000
0000
0000
0000
0000
0000
0000
0000
0000
0000
0000
0000
0000
0000
0000
0000
0000
0000
0000
0000
0000
0000
0000
0000
0000
0000
0000
0000
0000
0000
0000
0000
0000
0000
0000
0000
0000
0000
0000
0000
3000
1020
0000
0000
0000
0000
0000
0000
0000
0000
0000
0000
0000
0000
0000
0000
0000
0000
0000
0000
0000
0000
0000
0000
0000
0000
0000
0000
0000
0000
0000
0000
0000
0000
0000
0000
0000
0000
0000
0000
0000
0000
0000
0000
0000
0000
0000
0000
0030
0210
0000
0000
0000
0000
0000
0000
0000
0000
0000
0000
0000
0000
0000
0000
0000
0000
0000
0000
0000
0000
0000
0000
0000
0000
0000
0000
0000
0000
0000
0000
0000
0000
0000
0000
0000
0000
0000
0000
0000
0000
0000
0000
0000
0000
0000
0000
0300
,  // measure 102
0102
0000
0000
0000
0000
0000
0000
0000
0000
0000
0000
0000
0000
0000
0000
0000
0000
0000
0000
0000
0000
0000
0000
0000
0000
0000
0000
0000
0000
0000
0000
0000
0000
0000
0000
0000
0010
0000
0000
0000
0000
0000
0000
0000
0000
0000
0000
0003
0200
0000
0000
0000
0000
0000
0000
0000
0000
0000
0000
0000
0000
0000
0000
0000
0000
0000
0000
0000
0000
0000
0000
0000
0010
0000
0000
0000
0000
0000
0000
0000
0000
0000
0000
0000
0000
0000
0000
0000
0000
0000
0000
0000
0000
0000
0000
0300
2100
0000
0000
0000
0000
0000
0000
0000
0000
0000
0000
0000
0000
0000
0000
0000
0000
0000
0000
0000
0000
0000
0000
3000
2100
0000
0000
0000
0000
0000
0000
0000
0000
0000
0000
0000
0000
0000
0000
0000
0000
0000
0000
0000
0000
0000
0000
3000
1002
0000
0000
0000
0000
0000
0000
0000
0000
0000
0000
0000
1000
0000
0000
0000
0000
0000
0000
0000
0000
0000
0000
0003
0002
0000
0000
0000
0000
0000
0000
0000
0000
0000
0000
0000
0000
0000
0000
0000
0000
0000
0000
0000
0000
0000
0000
0003
,  // measure 103
2001
0000
0000
0000
0000
0000
0000
0000
0000
0000
0000
0000
0000
0000
0000
0000
0000
0000
0000
0000
0000
0000
0000
0000
0000
0000
0000
0000
0000
0000
0000
0000
0000
0000
0000
0000
0000
0000
0000
0000
0000
0000
0000
0000
0000
0000
0000
3000
1020
0000
0000
0000
0000
0000
0000
0000
0000
0000
0000
0000
0000
0000
0000
0000
0000
0000
0000
0000
0000
0000
0000
0030
0210
0000
0000
0000
0000
0000
0000
0000
0000
0000
0000
0000
0000
0000
0000
0000
0000
0000
0000
0000
0000
0000
0000
0000
1000
0000
0000
0000
0000
0000
0000
0000
0000
0000
0000
0000
0000
0000
0000
0000
0000
0000
0000
0000
0000
0000
0000
0300
0102
0000
0000
0000
0000
0000
0000
0000
0000
0000
0000
0000
0000
0000
0000
0000
0000
0000
0000
0000
0000
0000
0000
0003
0021
0000
0000
0000
0000
0000
0000
0000
0000
0000
0000
0000
0000
0000
0000
0000
0000
0000
0000
0000
0000
0000
0000
0030
0012
0000
0000
0000
0000
0000
0000
0000
0000
0000
0000
0000
0000
0000
0000
0000
0000
0000
0000
0000
0000
0000
0000
0003
,  // measure 104
2001
0000
0000
0000
0000
0000
0000
0000
0000
0000
0000
0000
0010
0000
0000
0000
0000
0000
0000
0000
0000
0000
0000
3000
2000
0000
0000
0000
0000
0000
0000
0000
0000
0000
0000
0000
0000
0000
0000
0000
0000
0000
0000
0000
0000
0000
0000
3000
1010
0000
0000
0000
0000
0000
0000
0000
0000
0000
0000
0000
0000
0000
0000
0000
0000
0000
0000
0000
0000
0000
0000
0000
1001
0000
0000
0000
0000
0000
0000
0000
0000
0000
0000
0000
0000
0000
0000
0000
0000
0000
0000
0000
0000
0000
0000
0000
0000
0000
0000
0000
0000
0000
0000
0000
0000
0000
0000
0000
0000
0000
0000
0000
0000
0000
0000
0000
0000
0000
0000
0000
0000
0000
0000
0000
0000
0000
0000
0000
0000
0000
0000
0000
0000
0000
0000
0000
0000
0000
0000
0000
0000
0000
0000
0000
0010
0000
0000
0000
0000
0000
0000
0000
0000
0000
0000
0000
0000
0000
0000
0000
0000
0000
0000
0000
0000
0000
0000
0000
0010
0000
0000
0000
0000
0000
0000
0000
0000
0000
0000
0000
0000
0000
0000
0000
0000
0000
0000
0000
0000
0000
0000
0000
,  // measure 105
1000
0010
0100
0001
1000
0100
0010
0100
1000
0010
0100
0001
0010
0100
0010
0001
,  // measure 106
1000
0010
0100
0010
1000
0100
0010
0001
0010
0100
0010
0001
1000
0010
0100
0001
,  // measure 107
1000
0100
0010
0001
0100
0010
0100
0001
0010
0100
1000
0100
0010
0001
0010
0100
,  // measure 108
0010
0001
0100
0010
1000
0100
0010
0100
1000
0010
0100
0001
1000
0010
0100
0001
,  // measure 109
1000
0100
1000
0010
0100
0001
0010
0001
1000
0100
1000
0010
0100
0001
1000
0100
,  // measure 110
1000
0010
0100
0001
0010
0001
1000
0010
0100
0001
0010
0001
0010
0100
1000
0010
,  // measure 111
0100
0010
1000
0001
0100
0010
1000
0100
1000
0001
0010
0100
0010
0001
1000
0010
,  // measure 112
0100
0001
1000
0100
1000
0010
0100
0001
0010
0100
1000
0010
0100
0001
0010
0100
,  // measure 113
1001
0000
1000
0000
0000
0000
0000
1000
0100
0000
0100
0000
0000
0000
0000
0000
,  // measure 114
0010
0000
0010
0000
0000
0000
0000
0010
0001
0000
0001
0000
0000
0000
0000
0000
,  // measure 115
0001
0000
1001
0000
0000
0000
0000
0001
1000
0000
1001
0000
0000
0000
0000
0000
,  // measure 116
0011
0000
0000
0110
0000
0000
1100
0000
1000
0010
0100
0001
0100
0010
1000
0100
,  // measure 117
1001
0000
0001
0000
0000
0000
0000
0001
1000
0000
0100
0000
0000
0000
0000
0000
,  // measure 118
1010
0000
0000
0101
0000
0000
1010
0000
0100
0000
0100
0000
0010
0000
0010
0000
,  // measure 119
0012
0000
2003
3200
0000
0302
0000
0023
,  // measure 120
0000
0000
0000
0030
,  // measure 121
1001
0100
0010
1000
0001
0100
0010
1000
0001
1000
0100
0010
0001
1000
0100
0010
,  // measure 122
1001
0000
1000
0000
1010
0000
1000
0100
0011
0000
0011
0000
0101
0000
0001
0000
,  // measure 123
1010
0000
1000
0000
0011
0000
0001
0100
1010
0000
1010
0000
1001
0000
0001
0000
,  // measure 124
0011
0110
1010
1000
1010
0110
0011
0001
,  // measure 125
1001
0000
0000
0110
0000
0000
1001
0000
1000
0010
0100
0001
0010
0100
1000
0010
,  // measure 126
2001
0001
3200
0010
2300
0100
3020
0100
,  // measure 127
0130
0000
0000
0110
0000
0000
1001
0000
0001
1000
0010
0000
0100
0000
0100
0000
,  // measure 128
0110
0100
1001
1010
0100
0110
1100
0011
,  // measure 129
0001
0000
0001
0000
1000
0100
1000
0000
0001
0010
0100
1000
0010
0100
0001
1000
,  // measure 130
1001
0000
0001
0000
0101
0000
0001
0010
1100
0000
1100
0000
1010
0000
1000
0000
,  // measure 131
0101
0000
0001
0000
1100
0000
1000
0010
0101
0000
0101
0000
1001
0000
1000
0000
,  // measure 132
1100
0110
0101
0001
0101
0110
1100
1000
,  // measure 133
1001
0000
0000
0110
0000
0000
1001
0000
0001
0100
0010
1000
0100
0010
0001
0100
,  // measure 134
1002
0010
0203
1000
0320
0100
2030
0001
,  // measure 135
3200
0000
0000
0010
0300
0000
0010
0100
1001
0000
1001
0000
0100
0000
0100
0000
,  // measure 136
0010
0000
0110
0000
0010
0000
0010
0100
0010
0000
0110
0000
1001
0000
0010
0100
,  // measure 137
0010
0000
0110
0000
1001
0000
0010
0100
0010
0000
0110
0000
0100
0000
0100
0010
,  // measure 138
0100
0000
0110
0000
1001
0000
0100
0010
0100
0000
0110
0000
1001
0000
0010
0100
,  // measure 139
0010
0000
0110
0000
1001
0000
0010
0100
0010
0000
0110
0000
0010
0000
0100
0010
,  // measure 140
0100
0000
0001
0000
0010
0000
1000
0001
1000
0000
0010
0000
0100
0000
1000
0100
,  // measure 141
0010
0000
0001
0000
0001
0000
0010
0000
0100
0000
0000
0000
0010
0100
0010
0100
,  // measure 142
0010
0100
1000
0010
0001
0100
1000
0010
0001
0100
1000
0100
0001
0010
1000
0100
,  // measure 143
0002
0000
0000
1003
,  // measure 144
0001
0000
0000
0100
0010
0000
0000
0001
0010
0000
0000
1000
0100
0000
0000
0010
1000
0000
0000
0001
0100
0000
0000
1000
0010
0000
0000
0100
0001
0000
0000
0100
0010
0000
0000
1000
0100
0000
0000
0001
0010
0000
0000
0010
0100
0000
0000
0100
1001
0000
0000
0000
0000
0000
0100
0010
1001
0000
0000
0000
0000
0000
0000
0000
,  // measure 145
0001
0000
0000
0000
0000
0000
0000
0000
0100
0000
0000
0000
0010
0000
0000
0000
0000
0000
0000
0000
0010
0000
0000
0000
1000
0000
0000
0000
0000
0000
0000
0000
0010
0000
0000
0000
0100
0000
0000
0000
0000
0000
0000
0000
0100
0000
0000
0000
1001
0000
0000
0000
0000
0000
0000
0000
0000
0000
0000
0000
0000
0000
0000
0000
0000
0000
1000
0000
0000
0001
0000
0000
0110
0000
0000
0000
0000
0000
0000
0000
0000
0000
0000
0000
1000
0000
0000
0000
0000
0000
1000
0000
0000
0000
0000
0000
1001
0000
0000
0000
0000
0000
0000
0000
0000
0000
0000
0000
1000
0000
0000
0000
0000
0000
0010
0000
0000
0000
0000
0000
0000
0000
0000
0000
0000
0000
0010
0000
0000
0000
0000
0000
1000
0000
0000
0000
0000
0000
0100
0000
0000
0000
0000
0000
0100
0000
0000
0000
0000
0000
0000
0000
1000
0000
0000
0000
0100
0000
0000
0000
0000
0000
0000
0000
0001
0000
0000
0000
0010
0000
0000
0000
0000
0000
0000
0000
0010
0000
0000
0000
0001
0000
0000
0000
0000
0000
0000
0000
0100
0000
0000
0000
,  // measure 146
1000
0000
0000
0000
0000
0000
0000
0000
0010
0000
0000
0000
0100
0000
0000
0000
0000
0000
0000
0000
0001
0000
0000
0000
0100
0000
0000
0000
0000
0000
0000
0000
0100
0000
0000
0000
0010
0000
0000
0000
0000
0000
0000
0000
1000
0000
0000
0000
0001
0000
0000
0000
0000
0000
0000
0000
0010
0000
0000
0000
0100
0000
0000
0000
0000
0000
0000
0000
0001
0000
0000
0000
0010
0000
0000
0000
0000
0000
0000
0000
0100
0000
0000
0000
1000
0000
0000
0000
0000
0000
0000
0000
0010
0000
0000
0000
0100
0000
0000
0000
0000
0000
0000
0000
0001
0000
0000
0000
0010
0000
0000
0000
0000
0000
0000
0000
1000
0000
0000
0000
0100
0000
0000
0000
0000
0000
0000
0000
0100
0000
0000
0000
0010
0000
0000
0000
0000
0000
0000
0000
0100
0000
0000
0000
1001
0000
0000
0000
0000
0000
0000
0000
0000
0000
0000
0000
0000
0000
0000
0000
0000
0000
0001
0000
0000
1000
0000
0000
0110
0000
0000
0000
0000
0000
0000
0000
0000
0000
0000
0000
0000
0000
0000
0000
0000
0000
0000
0000
0000
0000
0000
0000
,  // measure 147
1000
0000
0001
0000
0010
0000
1000
0000
0001
0000
0010
0000
0100
0000
0100
0000
1001
0000
0000
0000
0000
0000
0001
1000
0110
0000
0000
0000
0001
0000
0001
0000
1001
0000
0000
0000
0001
0000
0010
0000
0000
0000
0010
0000
0001
0000
0100
0000
0010
0000
0100
0000
0010
0000
0010
0000
0100
0000
0100
0000
1000
0000
1000
0000
,  // measure 148
1001
0000
0000
0000
;
