#TITLE:幻月夜;
#SUBTITLE:;
#ARTIST:AKITO;
#TITLETRANSLIT:maboroshi;
#SUBTITLETRANSLIT:;
#ARTISTTRANSLIT:;
#CREDIT:;
#BANNER:maboroshi.png;
#BACKGROUND:maboroshi-bg.png;
#LYRICSPATH:;
#CDTITLE:cdtitle.png;
#MUSIC:maboroshi.mp3;
#OFFSET:-3.680;
#SAMPLESTART:9.480;
#SAMPLELENGTH:10.980;
#SELECTABLE:YES;
#BPMS:0.000=130.000;
#STOPS:;
#BGCHANGES:;

//---------------dance-single - BASIC----------------
#NOTES:
     dance-single:
     BASIC:
     Easy:
     4:
     0.269,0.351,0.645,0.425,0.000:
0000
0000
0000
0000
0000
2002
0000
0000
,
3003
0000
0000
0000
0000
0000
0000
2200
,
0000
0000
3300
0000
0000
0000
0000
0022
,
0000
0000
0033
0000
0000
0000
0000
2002
,
0000
0000
3003
1000
,
0002
0000
0003
0001
,
2000
0000
3000
0000
,
0000
0000
0001
1000
0000
0000
0000
0000
,
2002
0000
0000
3003
,
1001
0000
0000
0000
0000
0000
0000
2200
,
0000
0000
3300
0000
0000
0000
0000
0022
,
0000
0000
0033
0000
0000
0000
0000
2002
,
0000
0000
0000
3003
0000
0000
0000
0000
,
0010
0000
0000
0000
,
0100
0000
0000
0000
,
0001
0000
1000
0000
,
2002
0000
3003
1001
,
1001
0000
0000
0110
0000
0000
0000
0000
,
0110
0000
0000
1001
0000
0000
0000
0000
,
1001
0000
0000
0110
0000
0000
0000
0000
,
0110
0000
0000
1001
0000
0000
0000
0000
,
0110
0000
0000
1001
0000
0000
0000
0000
,
1001
0000
0000
0110
0000
0000
0000
0000
,
1001
0000
0000
0110
0000
0000
0000
0000
,
0110
0000
0000
1001
0000
0000
0000
0000
,
2000
0000
0000
0000
,
0000
3000
0000
0000
0000
0000
0000
0000
,
0002
0000
0000
0000
,
0000
0003
0000
0000
,
2000
0000
0000
0000
,
0000
3000
0000
0000
0000
0000
0000
0000
,
0002
0000
0000
0000
,
0003
0000
0000
0000
,
0110
0000
0000
2002
0000
0000
3003
0000
,
1001
0000
0000
0220
0000
0000
0330
0000
,
1001
0000
0000
0220
0000
0000
0330
0000
,
1001
0000
0000
0220
0000
0000
0330
0000
,
0110
0000
0000
2002
0000
0000
3003
0000
,
1001
0000
0000
0220
0000
0000
0330
0000
,
1001
0000
0000
0220
0000
0000
0330
0000
,
1001
0000
0000
0220
0000
0000
0330
0000
,
1001
0000
0000
0110
0000
0000
1001
0000
,
1001
0000
0000
0110
0000
0000
0110
0000
,
1001
0000
0000
0110
0000
0000
1001
0000
,
0011
0000
0000
1100
0000
0000
0110
0000
,
0101
0000
0000
0011
0000
0000
1100
0000
,
0110
0000
0000
0110
0000
0000
0011
0000
,
1100
0000
0000
1001
0000
0000
0011
0000
,
1100
0000
0000
1010
0000
0000
0101
0000
,
1001
0000
0000
0110
0000
0000
0110
0000
,
1001
0000
0000
1000
,
0001
0000
0000
0100
,
0010
0000
0000
1000
0000
0000
0000
0000
,
0001
0000
0000
0000
,
2020
0000
3030
0000
,
2200
0000
3300
0000
,
0202
0000
0303
0000
,
0022
0000
0033
0000
,
2002
0000
0000
0000
,
3003
0000
0000
0000
,;

//---------------dance-single - ----------------
#NOTES:
     dance-single:
     :
     Medium:
     7:
     0.361,0.376,0.195,0.450,0.000:
0000
0000
0000
0000
0000
1000
0100
0010
,
0002
0000
0000
0000
0000
0003
0010
0200
,
0000
0000
0000
0000
0300
0000
1000
0002
,
0000
0000
0000
0000
0003
0000
0000
1000
,
0100
0001
0010
1000
0000
1000
0010
0100
,
0000
0001
0001
0000
0000
0001
0010
0100
,
0000
1000
1000
0000
0000
1000
0010
0100
,
0001
0000
1000
1000
0000
0000
0000
0000
,
2002
0000
0000
3003
,
2002
0000
0000
3003
0000
0000
1000
0002
,
0000
0000
0000
0000
0003
0000
0010
0200
,
0000
0000
0000
0000
0300
0000
0000
1000
,
0010
0001
0100
1000
0000
0000
1000
0001
,
2000
0000
0000
0000
0000
3000
0010
0001
,
0200
0000
0000
0000
0000
0300
1000
0000
,
0020
0000
0000
0030
0002
0000
0000
0003
,
0200
0000
0000
0000
0300
1000
0001
1000
,
1001
0000
0000
0110
1001
0000
0000
1001
,
0110
0000
0000
1000
0010
0001
0100
1000
,
0002
0000
0003
1000
0100
0010
1000
0100
,
0002
0000
0000
0000
0003
1000
0001
1000
,
1001
0000
0000
1010
0101
0000
0000
0011
,
1100
0000
0000
1000
0100
0001
0010
1000
,
0002
0000
0003
1000
0010
0001
0100
1000
,
0002
0000
0000
0000
0003
1000
0100
0001
,
2002
0000
0000
0000
0000
0000
0003
3000
,
0001
1000
0100
0001
0100
1000
0010
0001
,
2002
0000
0000
0000
0000
0000
3000
0003
,
1000
0001
1000
0100
0100
0010
0100
0001
,
2002
0000
0000
0000
0000
0000
0003
3000
,
0001
1000
0100
0010
0001
0100
1000
0001
,
2002
0000
0000
0000
,
3003
0000
0000
0000
0000
1000
0010
0001
,
1001
0000
0000
1000
0010
0000
0001
0100
,
1000
0010
0002
0000
0000
0003
0100
1000
,
0020
0000
0000
0000
0030
0100
1000
0010
,
0001
1000
0200
0000
0000
0300
0001
0010
,
2000
0000
3000
0100
0001
0000
0010
0000
,
1000
0100
0002
0000
0000
0003
1000
0100
,
0001
0010
2000
0000
3000
0000
0010
0001
,
0000
0200
0000
0000
0000
0000
0300
0000
,
2000
0000
3000
0100
0001
0000
0010
1000
,
0100
0001
0020
0000
0000
0030
1000
0100
,
0002
0000
0000
0000
0003
0010
1000
0100
,
0001
0010
0200
0000
0000
0300
0001
0010
,
2000
0000
3000
0100
0001
0000
0010
0000
,
1000
0100
0002
0000
0000
0003
0010
1000
,
0100
0001
0020
0000
0000
0030
1000
0100
,
0000
0002
0000
0003
0010
1000
0100
0001
,
0000
2002
0000
0000
0000
0000
3003
0000
,
1001
0000
0000
0000
0000
0000
1000
0001
,
0100
0000
0000
0010
,
0100
0000
0000
1000
0100
0001
0010
1000
,
2002
0000
0000
3003
,
2002
0000
0000
3003
0000
0000
1000
0001
,
0020
0000
0000
0030
0000
0000
0010
0000
,
0200
0000
0000
0301
0010
1000
0100
0001
,
2002
0000
0000
3003
0000
0000
0000
0000
,
2002
0000
0000
0000
,
3003
0000
0000
0000
,;

//---------------dance-single - ----------------
#NOTES:
     dance-single:
     :
     Hard:
     9:
     0.489,0.476,0.620,0.637,0.000:
0000
0000
0000
0000
0000
1000
0100
0001
,
2002
0000
0000
0000
0000
3003
0001
0202
,
0000
0000
0000
0000
0303
0000
1000
2200
,
0000
0000
0000
0000
3300
0000
0000
1000
,
0100
0001
0010
2002
3003
1000
0010
0100
,
0000
0011
1001
0000
0000
0001
0010
0100
,
0000
1100
1001
0000
0000
1000
0100
0001
,
1000
0000
0110
1001
0000
0000
0110
0000
,
2002
0000
0000
0000
3003
0001
1000
0100
,
2002
0000
0000
3003
0000
0000
1000
2002
,
0000
0000
0000
0000
3003
0000
0010
0220
,
0000
0000
0000
0000
0330
0000
0000
1000
,
0010
0001
0100
1000
0000
0000
1000
0001
,
2000
0010
0010
0000
0000
3000
0010
0001
,
0200
1000
1000
0000
0000
1300
0010
0001
,
0020
0000
0000
0030
0002
0000
0000
0003
,
0200
0000
0000
0000
0300
1000
0001
1000
,
1001
0000
0000
0110
1001
0000
0000
1001
,
0110
0000
0000
1001
0010
0001
0100
1000
,
2002
0000
3003
1000
0100
0010
1000
0100
,
2002
0000
3003
0110
0000
1000
0001
1000
,
1001
0000
0000
1010
0101
0000
0000
0011
,
1100
0000
0000
1001
0100
0001
0010
1000
,
2002
0000
3003
1000
0010
0001
0100
1000
,
2002
0000
3003
0110
0000
1000
0100
0001
,
2002
0000
0000
0003
0010
0001
0100
3010
,
0001
1000
0100
0001
0100
1000
0010
0001
,
2002
0000
3000
0100
1000
0000
0010
0103
,
1000
0001
1000
0100
0100
0010
0100
0001
,
2002
0000
0000
0003
0010
0100
0001
3100
,
0001
1000
0100
0010
0001
0100
1000
0001
,
2002
0000
3003
1000
0001
0000
1000
0010
,
0200
0000
0000
0300
0000
1000
0010
0001
,
1001
0000
0000
1010
0101
0000
0001
0100
,
1000
0010
0002
0000
0000
0003
0110
1001
,
0220
0000
0000
0000
0330
0100
1000
0010
,
0001
1000
0220
0000
0000
0330
0001
0010
,
2000
0000
3000
0100
0001
0000
0010
0000
,
1000
0100
2002
0000
0000
3003
1000
0100
,
0001
0010
2000
0000
3000
0000
0010
0001
,
0000
0200
0000
0000
0000
0000
0300
0000
,
2002
0000
3003
0101
1010
0000
0010
1000
,
0100
0001
0020
0000
0000
0030
1010
0101
,
2002
0000
0000
0000
3003
0010
1000
0100
,
0001
0010
0220
0000
0000
0330
0001
0010
,
2000
0000
3000
0100
0001
0000
0010
0000
,
1000
0100
2002
0000
0000
3003
0010
1000
,
0100
0001
0220
0000
0000
0330
1000
0100
,
0000
2002
0000
3003
0010
1000
0100
0001
,
0000
2002
0000
0000
0000
0000
3003
0000
,
1001
0000
0000
0000
0000
0000
1010
1001
,
0201
0000
0300
0010
,
0100
0000
0000
1000
0100
0001
0010
1000
,
0000
1100
0000
0101
0000
0011
0010
1010
,
2002
0000
0000
3003
0000
0000
1100
0101
,
0220
0000
0000
0330
0000
0000
1001
0000
,
0220
0000
0330
1001
0010
1000
0100
0001
,
2002
0000
0000
3003
0000
0000
0000
0000
,
2002
0000
0000
0000
,
3003
0000
0000
0000
;

//---------------dance-single - ----------------
#NOTES:
     dance-single:
     :
     Challenge:
     10:
     0.814,0.777,1.000,0.917,0.208: // measure 1
0000
0000
0000
0000
0000
1010
0011
0101
,  // measure 2
1010
0100
0010
0001
0100
1000
0011
1100
,  // measure 3
0010
0100
0001
0010
0100
1000
1010
0101
,  // measure 4
0100
0010
1000
0100
0001
0010
1000
1001
,  // measure 5
0020
0100
1030
0001
0100
1100
1001
1100
,  // measure 6
0100
0020
2030
0100
3100
0001
1001
0010
,  // measure 7
1000
0200
0302
0010
0013
1100
0100
0001
,  // measure 8
2000
0000
0001
3010
0000
0000
0100
0000
,  // measure 9
2001
0100
0001
0020
3030
1100
0101
0011
,  // measure 10
1010
0100
0010
0002
0000
0013
0011
1100
,  // measure 11
0010
0100
0001
0020
0000
1030
1100
0011
,  // measure 12
1000
0100
0010
0200
0000
1300
0001
1001
,  // measure 13
1000
0100
0001
0020
0000
1030
0100
0001
,  // measure 14
0010
1000
0100
0002
0000
0103
1000
0100
,  // measure 15
0001
1000
0010
0002
0000
0103
0020
0000
,  // measure 16
0230
0010
1000
0301
1002
2003
3001
0000
,  // measure 17
0120
0100
0230
0310
0000
0110
0110
0110
,  // measure 18
1001
0000
0010
0100
0010
0000
2002
0000
3000
0000
2003
0000
0001
0000
3000
0000
,  // measure 19
1001
0000
0100
0010
0100
0000
2002
0000
0003
0000
3002
0000
1000
0000
0003
0000
,  // measure 20
1001
0000
0010
0100
0010
0000
2002
0000
3000
0000
2003
0000
3001
0000
0000
0000
,  // measure 21
1001
0000
0100
0010
0100
0000
2002
0000
0003
0000
3002
0000
1003
0000
0000
0000
,  // measure 22
1001
0000
1000
0001
1000
0000
0220
0000
0030
0000
0320
0000
0130
0000
0000
0000
,  // measure 23
1001
0000
0001
1000
0001
0000
0220
0000
0300
0000
0230
0000
0310
0000
0000
0000
,  // measure 24
1001
0000
1000
0001
1000
0000
0220
0000
0300
0000
0230
0000
0310
0000
0000
0000
,  // measure 25
1001
0000
0001
1000
0001
0000
0220
0000
0030
0000
0310
0000
0100
0000
0010
0000
,  // measure 26
2002
0000
0000
0000
0000
0000
0000
0000
0000
0000
0000
0000
3003
0000
0000
0000
1000
0000
0000
0000
0010
0100
0010
0000
0100
0000
0000
0000
0100
0000
0000
0000
,  // measure 27
0002
0103
0101
1010
1001
1100
0011
1001
,  // measure 28
2002
0000
0000
0000
0000
0000
0000
0000
3003
0000
0000
0000
1000
0000
0000
0000
0100
0000
0000
0000
0100
0010
0100
0000
0010
0000
0000
0000
0002
0000
0000
0000
,  // measure 29
0000
0103
2000
0001
3010
0000
0011
1001
,  // measure 30
2002
0000
0000
0000
0000
0000
0000
0000
0000
0000
0000
0000
3003
0000
0000
0000
0001
0000
0000
0000
0100
0010
0100
0000
0010
0000
0000
0000
0010
0000
0000
0000
,  // measure 31
2000
3010
1010
0101
1001
0011
1100
1001
,  // measure 32
2002
0000
0000
0000
0000
0000
0000
0000
3003
0000
0000
0000
1000
0000
0000
0000
0010
0100
0010
0000
0100
0000
0000
0000
0010
0000
0000
0000
0001
0000
0000
0000
,  // measure 33
0200
0000
0000
0000
0300
0110
0110
0110
,  // measure 34
1001
0000
0100
0010
0100
0000
0110
0000
0010
0100
0010
0000
2002
0000
3003
0000
,  // measure 35
1001
0000
1000
0001
1000
0000
0110
0000
0001
1000
0001
0000
0220
0000
0330
0000
,  // measure 36
1001
0000
1000
0010
1000
0000
0101
0000
0001
0100
0001
0000
2020
0000
3030
0000
,  // measure 37
1001
0000
0001
0010
0001
0000
1100
0000
1000
0100
1000
0000
0022
0000
0033
0000
,  // measure 38
1001
0000
1000
0100
1000
0000
1001
0000
0001
0010
0001
0000
2002
0000
3003
0000
,  // measure 39
0110
0000
0010
1000
0001
0000
1100
0000
0001
1000
0010
0000
0202
0000
0303
0000
,  // measure 40
1001
0000
1000
0010
0100
0000
1100
0000
0001
0010
0100
0000
0202
0000
0303
0000
,  // measure 41
1001
0000
0010
0100
0010
0000
2002
0000
3003
0000
0110
0000
0110
0000
0110
0000
,  // measure 42
1001
0000
1000
0100
0001
0000
1001
0000
0001
0010
1000
0000
2002
0000
3003
0000
,  // measure 43
1001
0000
0001
0010
1000
0000
1001
0000
1000
0100
0001
0000
2002
0000
3003
0000
,  // measure 44
1001
0000
1000
0010
0100
0000
1001
0000
0100
0010
1000
0000
2002
0000
3003
0000
,  // measure 45
0101
0000
0010
0100
1000
0000
1010
0000
1000
0100
0010
0000
0202
0000
0303
0000
,  // measure 46
1010
0000
0100
0010
0001
0000
0101
0000
0001
0010
0100
0000
2020
0000
3030
0000
,  // measure 47
0110
0000
0010
1000
0001
0000
1001
0000
0001
1000
0010
0000
0220
0000
0330
0000
,  // measure 48
1001
0000
0010
0100
0001
0000
1010
0000
0001
0100
0010
0000
2002
0000
3003
0000
,  // measure 49
1001
0000
0001
0010
1000
0000
0101
0000
0001
0010
1000
0000
0202
0000
0303
0000
,  // measure 50
1001
0000
0001
0010
1000
0000
1010
0000
0001
0010
1000
0000
2010
0000
3010
0000
,  // measure 51
2002
0000
0000
0000
3003
0000
1010
1001
,  // measure 52
2200
0000
0000
0000
3300
0000
0022
0033
,  // measure 53
2002
3003
0000
1000
1010
0010
0110
0100
,  // measure 54
0010
0101
0000
0011
0000
0110
1001
0110
,  // measure 55
2020
0000
3030
1010
0000
0000
0011
1001
,  // measure 56
2200
0000
3300
1100
0000
0000
1010
0000
,  // measure 57
0202
0000
0303
0101
0100
1100
1000
0010
,  // measure 58
0022
0000
0033
0201
0000
0000
0301
1000
,  // measure 59
2002
0000
0000
0000
,  // measure 60
3003
0000
0000
0000
;
