#TITLE:lumica siera curette';
#SUBTITLE:;
#ARTIST:L-Mys;
#TITLETRANSLIT:;
#SUBTITLETRANSLIT:;
#ARTISTTRANSLIT:;
#CREDIT:;
#BANNER:lumica siera curette'.png;
#BACKGROUND:lumica siera curette'-bg.png;
#LYRICSPATH:;
#CDTITLE:cdtitle.png;
#MUSIC:lumica siera curette'.mp3;
#OFFSET:0.000;
#SAMPLESTART:40.200;
#SAMPLELENGTH:12.000;
#SELECTABLE:YES;
#BPMS:0.000=151.000,8.000=75.500,24.000=151.000,248.000=102.000,251.000=87.000,255.000=49.000,258.000=151.000;
#STOPS:;
#BGCHANGES:;

//---------------dance-single - BASIC----------------
#NOTES:
     dance-single:
     BASIC:
     Easy:
     3:
     0.228,0.283,0.044,0.061,0.000:
0000
0000
0000
0000
,
0000
0000
0000
0000
,
0000
0000
0000
0000
,
0000
0000
0000
0000
,
0000
0000
0000
0000
,
0000
0000
0000
0000
,
2000
0000
0000
0000
,
0000
0000
0000
0000
,
3002
0000
0000
0000
,
0000
0000
0000
0000
,
2003
0000
0000
0000
,
0000
0000
0000
0000
,
3002
0000
0000
0000
,
2003
0000
0000
0000
,
3001
0000
1000
0000
,
0001
0000
0100
0000
,
0010
0000
1000
0000
,
0100
0000
0010
0000
,
0001
0000
0100
0000
,
0010
0000
1000
0000
,
0001
0100
0010
0001
,
1000
0000
0000
0000
,
1000
0010
0010
1000
,
0010
0001
0010
1000
,
0001
0010
0010
0001
,
0010
1000
0010
0001
,
1000
0010
0010
1000
,
0010
0001
0010
1000
,
0001
0010
0010
0001
,
0010
1000
0010
0001
,
1001
0000
0000
0000
,
1001
0000
0000
0000
,
1001
0000
0000
0000
,
1001
0000
0000
0000
,
1000
0010
0100
0010
,
1000
0100
0001
0100
,
1000
0001
0100
0001
,
0100
1000
0100
0001
,
1000
0010
0100
0001
,
0100
1000
0001
1000
,
0001
0010
0100
0001
,
1000
0100
0001
0010
,
1000
0010
0010
0100
,
0100
0010
1000
0100
,
0001
0010
0010
0100
,
0100
0010
0001
0100
,
1000
0010
0010
0100
,
0100
0010
1000
0100
,
0001
0010
0010
0100
,
0100
0010
0001
0100
,
1000
0010
1000
0001
,
0100
1000
0010
0100
,
1000
0001
0100
1000
,
0001
0100
1000
1000
,
0001
0010
0001
1000
,
0100
0001
0010
0100
,
0001
1000
0100
0001
,
1000
0100
0001
1000
,
1001
1000
0000
1000
,
0000
0001
0000
0001
,
1000
0010
0100
0001
,
0010
1000
0100
0001
,
1000
0000
0000
0020
,
0000
0000
0030
0200
,
0000
0000
0300
0000
;

//---------------dance-single - TRICK----------------
#NOTES:
     dance-single:
     TRICK:
     Medium:
     7:
     0.411,0.509,0.316,0.482,0.000:
0000
0000
0000
0000
,
0000
0000
0000
0000
,
0000
0000
0000
0000
,
0000
0000
0000
0000
,
0000
0000
0000
0000
,
0000
0000
0000
0000
,
2000
0000
0000
0000
,
0010
0000
0000
0000
,
3002
0000
0000
0000
,
0100
0000
0000
0000
,
2003
0000
0000
0000
,
0001
0000
0000
0000
,
3002
0000
0000
0000
,
2003
0000
0000
0000
,
3001
0100
1000
0100
,
0001
0010
0010
0100
,
1000
0100
0001
0010
,
0100
0100
0010
0100
,
1000
0001
0100
1000
,
0010
0100
1000
0010
,
0001
0100
0010
0001
,
2002
0000
0000
3003
,
2000
3020
0230
2300
,
3002
0203
0320
0032
,
2003
3020
0230
0302
,
0023
2030
3002
0023
,
2030
3200
0302
2003
,
3200
0302
0023
2030
,
3002
0023
2030
3002
,
2003
0000
3002
0000
0203
0000
0302
0003
,
2002
0000
0000
3003
,
2020
0000
0000
3030
,
0022
0000
0000
0033
,
2002
0000
0000
3003
,
0001
0000
0110
0000
0100
0010
0010
0100
,
1000
0001
0100
0000
0001
0010
0100
0000
,
1000
0010
0001
0000
0100
0100
0001
0010
,
0100
1000
1000
0000
0100
0010
0001
0000
,
1000
0010
1000
0000
0001
0100
1000
0000
,
0100
0001
1000
0000
0001
0010
0100
0000
,
1000
0010
0010
0100
0001
1000
0001
1000
,
0100
1000
0010
0001
0100
1000
0010
0001
,
1000
0000
0100
0010
1000
0000
1000
0010
,
1000
0000
0010
0001
1000
0100
0010
0001
,
1000
0000
0100
0010
0001
0000
0001
0010
,
0001
0000
0010
1000
0001
0100
0010
1000
,
1000
0000
0100
0010
1000
0000
1000
0010
,
1000
0000
0010
0001
1000
0100
0010
0001
,
1000
0000
0100
0010
0001
0000
0001
0010
,
0001
0000
0010
1000
0001
0100
0010
1000
,
1001
0110
1010
0101
,
0101
1100
0110
0101
,
1010
1100
0101
0110
,
1001
0101
1100
1100
,
0011
0101
1001
1010
,
0110
0101
0101
0110
,
1001
1010
0101
0101
,
1000
0010
0100
0001
0100
0010
1000
0001
,
2001
3000
0002
0003
,
2000
3000
0002
0003
,
1000
0010
0100
1000
0010
0001
0100
1000
,
0010
1000
0100
0001
0010
0100
1000
0001
,
2002
0000
0003
3020
,
0000
0000
0000
0230
,
0000
0000
0300
0000
;

//---------------dance-single - HEAVY----------------
#NOTES:
     dance-single:
     HEAVY:
     Hard:
     8:
     0.515,0.679,0.175,0.272,0.031:
0000
0000
0000
0000
,
0000
0000
0000
0000
,
2001
0000
3002
0000
,
0203
0000
0000
0000
0000
0020
0000
0000
0300
0000
0000
0000
0000
0000
0000
0000
,
2030
0000
3002
0000
,
0203
0000
0000
0020
0300
0000
0000
0000
,
1030
0001
0100
0010
,
0100
0001
0010
0100
,
0001
0010
0100
0001
,
0100
0010
1000
0100
,
1000
0001
0100
0010
,
0001
0100
1000
0010
,
0001
0100
0010
1000
,
0100
0001
0010
1000
,
1001
0100
0001
0010
,
0001
0010
0100
0010
,
1000
0100
0001
0010
,
0100
1000
0010
0100
,
0001
0101
0100
1010
,
0001
0110
1000
1010
,
0001
1010
0001
0110
,
2002
0000
0000
3003
,
0010
0100
0010
0100
0010
1000
0010
1000
,
0010
0100
0010
0100
0010
0001
0010
0001
,
0010
0100
0010
0100
0010
1000
0010
1000
,
0010
0100
0010
0100
0010
0001
0010
0001
,
0010
0100
0010
1000
0010
0100
0010
0001
,
0010
0100
0010
1000
0010
0001
0010
0100
,
0010
1000
0010
0001
0010
1000
0010
0001
,
0010
0100
0010
1000
0010
0001
0010
0010
,
2002
0000
0000
3003
,
0022
0000
0000
0033
,
2200
0000
0000
3300
,
2002
0000
0000
3003
,
1000
0001
0100
0010
0010
0100
0001
0100
,
0010
1000
0100
0010
0001
0010
0100
0001
,
0100
1000
0010
0100
0001
0010
0001
0100
,
0010
1000
0100
0010
0100
1000
0010
0100
,
1000
0100
0010
0100
1000
0100
0010
0001
,
0010
0100
0010
0001
0100
0010
0001
0010
,
0100
0010
0001
1000
0001
0100
0010
0001
,
0100
0010
1000
0001
0100
0010
1000
0001
,
0010
0100
0001
0100
0010
1000
0010
0100
,
0010
0100
1000
0100
1000
0001
1000
0010
,
1000
0100
0010
0100
0010
0100
0010
0001
,
0010
0001
0010
0100
0001
1000
0001
0010
,
0001
0100
0001
0010
0001
0100
0010
0100
,
0010
1000
0010
0100
0010
0100
0010
0100
,
0010
1000
0010
0001
1000
0100
1000
0001
,
0010
0100
0010
0100
0010
0001
0010
1000
,
1010
1000
0010
0100
0001
0010
0001
0100
,
0010
0100
0001
0010
0100
1000
0010
0001
,
0100
1000
0100
0010
0001
0100
0010
0100
,
0001
0010
0100
1000
0010
0100
0001
0100
,
0010
0001
0100
1000
0100
0001
0010
0100
,
1000
0010
0001
0100
1000
0010
0100
0001
,
1000
0100
0010
0001
0100
1000
0100
0001
,
1000
0010
1000
0000
0001
0010
0001
0000
0100
0010
0100
0010
1000
0001
1000
0001
,
1001
2000
3020
0230
,
2300
3200
0320
2030
,
3001
0010
0100
1000
0010
0001
0100
1000
,
0100
0001
0010
0100
0110
0000
1001
0000
,
2002
0000
3003
0220
,
0000
0000
0000
0000
0000
0330
2002
0000
,
0000
0000
3003
0000
;

//---------------dance-single - ONI----------------
#NOTES:
     dance-single:
     ONI:
     Challenge:
     10:
     0.822,0.962,0.535,0.158,0.697: // measure 1
0000
0000
0000
0000
,  // measure 2
0000
0000
0000
0000
,  // measure 3
2002
0000
0000
0000
,  // measure 4
0000
0000
0000
0000
,  // measure 5
0000
0000
0000
0000
,  // measure 6
0000
0000
0000
0000
0000
0000
0000
0000
0000
0000
0000
0000
0000
0000
0000
0000
0000
0000
0000
0000
3003
0000
0000
0000
1000
0001
1000
0001
0000
0001
1000
0000
,  // measure 7
0001
0100
0001
0010
0100
0010
0001
0100
,  // measure 8
0010
0100
0001
0010
0100
1000
0100
0010
,  // measure 9
0001
0010
1000
0010
0001
0100
0001
0010
,  // measure 10
0100
1000
0100
0001
0100
1000
0010
0100
,  // measure 11
0010
0100
0001
0010
0100
1000
0001
1000
,  // measure 12
0001
0010
0100
1000
0010
0100
0010
0100
,  // measure 13
0001
0010
0001
0010
0001
0010
0001
0010
0001
1000
0100
1000
0100
1000
0100
1000
,  // measure 14
0100
1000
0100
1000
0001
0100
0001
1000
0010
0100
0001
0100
0010
1000
0001
1000
,  // measure 15
1001
1000
0010
0100
0001
0010
0001
0100
,  // measure 16
0010
1000
0010
0100
0001
0100
0010
1000
,  // measure 17
0100
1000
0001
0010
0001
0100
0010
1000
,  // measure 18
0100
1000
0010
0100
0010
1000
0100
0001
,  // measure 19
0100
1000
1100
1000
0010
1000
1010
1000
,  // measure 20
0001
0100
0110
0010
1000
0100
1100
1000
,  // measure 21
0001
0010
0011
0001
1000
0100
0110
0000
,  // measure 22
2002
0000
0000
0000
3003
0000
1000
0001
1000
0001
0100
0010
0100
0010
0100
0000
,  // measure 23
0101
0001
0101
0100
0110
0010
1010
1000
,  // measure 24
1100
0100
0101
0001
0101
0100
1100
1000
,  // measure 25
1010
0010
0110
0100
0101
0001
0011
0010
,  // measure 26
1010
1000
1010
0010
0011
0001
1001
1000
,  // measure 27
1100
0100
0110
0010
1010
1000
1100
0100
,  // measure 28
0101
0001
0101
0100
1100
1000
1010
0010
,  // measure 29
0110
0100
0101
0001
0011
0010
1010
1000
,  // measure 30
1010
0010
0011
0001
1001
1000
1001
0000
,  // measure 31
2002
0000
3003
1001
,  // measure 32
0022
0000
0033
0011
,  // measure 33
2200
0000
3300
1100
,  // measure 34
2002
0000
0000
0000
0000
0000
3003
0001
1000
0001
1000
0001
1000
0001
1000
0001
,  // measure 35
1000
0001
0100
0010
0010
0100
0001
0100
,  // measure 36
0010
1000
0100
0010
0001
0010
0100
0001
,  // measure 37
0100
1000
0010
0100
0001
0010
0001
0100
,  // measure 38
0010
1000
0100
0010
0100
1000
0010
0100
,  // measure 39
1000
0100
0010
0100
1000
0100
0010
0001
,  // measure 40
0010
0100
0010
0001
0100
0010
0001
0010
,  // measure 41
0100
0010
0001
1000
0001
0100
0010
0001
,  // measure 42
0100
0010
1000
0001
0100
0010
1000
0001
,  // measure 43
1000
0010
0100
0001
0100
0010
1000
0100
1000
0100
1000
0010
0100
0001
0010
0001
,  // measure 44
0100
0010
1000
0100
1000
0100
1000
0001
1000
0001
1000
0001
0100
0010
0100
0010
,  // measure 45
0100
0001
0010
0100
1000
0100
0010
0001
0010
0100
0010
0001
0010
0100
1000
0100
,  // measure 46
0010
0100
1000
0010
0100
0010
1000
0001
0100
0010
0100
0001
0010
0100
1000
0010
,  // measure 47
0100
0001
0010
0001
0100
0010
0100
0010
1000
0001
1000
0001
0100
0010
1000
0100
,  // measure 48
0010
0001
0010
0001
0100
0010
0100
0010
1000
0100
1000
0100
1000
0001
0100
0010
,  // measure 49
1000
0100
1000
0010
0100
0001
0010
0001
0100
0010
1000
0001
1000
0010
0100
0010
,  // measure 50
1000
0100
1000
0001
0100
0001
0100
0010
0100
0001
0100
0001
0010
0001
0100
0010
,  // measure 51
1000
0100
1000
0010
0100
0001
1000
0100
0010
0001
0010
0100
0010
0001
0010
0100
,  // measure 52
1000
0010
0100
0010
1000
0100
0010
0001
0010
0100
1000
0010
0100
0010
1000
0010
,  // measure 53
1000
0010
0100
1000
0100
0010
0001
0010
0001
0010
0100
0010
0100
0010
1000
0100
,  // measure 54
0010
0001
0010
0001
0100
0010
1000
0100
0010
0001
0010
0001
0010
0100
0010
0100
,  // measure 55
0010
0001
1000
0001
0100
0010
0100
0010
1000
0100
0010
0001
0100
0010
1000
0001
,  // measure 56
0010
0100
1000
0010
0100
0001
0010
0001
0100
0010
1000
0100
1000
0100
1000
0010
,  // measure 57
0100
0001
0010
0100
0010
0001
0100
0010
0100
0010
1000
0100
0010
0001
1000
0000
,  // measure 58
0001
0010
0001
0000
1000
0010
1000
0000
0010
0100
0010
0100
0001
1000
0001
1000
,  // measure 59
1001
1010
0110
0101
,  // measure 60
0110
1100
1010
1001
,  // measure 61
0001
0010
0100
1000
0010
0001
0100
1000
,  // measure 62
0001
0010
0001
0010
0100
0010
0100
0010
0110
0000
0000
0000
1001
0000
0000
0000
,  // measure 63
2002
0000
3003
0220
,  // measure 64
0000
0000
0000
0000
0000
0330
2002
0000
,  // measure 65
0000
0000
3003
0000
;
