#TITLE:lataia;
#SUBTITLE:;
#ARTIST:ONOKEN;
#TITLETRANSLIT:;
#SUBTITLETRANSLIT:;
#ARTISTTRANSLIT:;
#CREDIT:;
#BANNER:lataia.png;
#BACKGROUND:lataia-bg.png;
#LYRICSPATH:;
#CDTITLE:cdtitle.png;
#MUSIC:lataia.mp3;
#OFFSET:0.000;
#SAMPLESTART:65.760;
#SAMPLELENGTH:12.000;
#SELECTABLE:YES;
#BPMS:0.000=120.000,256.000=115.000,256.125=110.000,256.250=105.000,256.375=100.000,256.500=95.000,256.625=90.000,256.750=85.000,256.875=80.000,257.000=75.000,257.125=70.000,257.250=65.000,257.375=60.000,257.500=55.000,257.625=50.000,257.750=45.000,257.875=40.000,258.000=35.000,258.125=30.000,258.250=29.000,258.375=28.000,258.500=27.000,258.625=26.000,258.750=25.000,258.875=24.000,259.000=23.000,259.125=22.000,259.250=21.000,259.375=20.800,259.500=20.600,259.625=20.400,259.750=20.200,259.875=20.000,260.000=120.000;
#STOPS:64.000=1.500
,113.000=0.160
,113.750=0.160
,114.500=0.160
;
#BGCHANGES:0.000=lataia.avi=1.000=1=1=0,
260.000=lataia-bg.png=1.000=1=0=1,
99999=-nosongbg-=1.000=0=0=0 // don't automatically add -songbackground-
;

//---------------dance-single - BASIC----------------
#NOTES:
     dance-single:
     BASIC:
     Easy:
     2:
     0.158,0.236,0.051,0.044,0.000:
0000
0000
0000
0000
,
0000
0000
0000
0000
,
0000
0000
0000
0000
,
0000
0000
0000
0000
,
1000
0000
0000
0000
,
0001
0000
0000
0000
,
1000
0000
0000
0000
,
0001
0000
0000
0000
,
1001
0000
0000
0000
,
1000
0000
0000
0000
,
0001
0000
0000
0000
,
1000
0000
0001
0000
,
0100
0000
0010
0000
,
1000
0010
0100
0001
,
1000
0100
0010
0001
,
1000
0100
0001
0010
,
2002
3003
0000
0000
0000
0000
0000
0000
0000
0000
0000
0000
0000
0000
0000
0000
0000
0000
0000
0000
0000
0000
0000
0000
1000
0000
0000
0000
0000
0000
0000
0000
0000
0000
0000
0000
0000
0000
0000
0000
0000
0000
0000
0000
0000
0000
0000
0000
,
0001
0000
0100
0000
,
0010
0000
1000
0000
,
0001
0000
0100
0000
,
0010
0000
1000
0000
,
0001
0000
0100
0000
,
0010
0000
1000
0000
,
0001
0000
0100
0000
,
0010
0000
1000
0000
,
0010
0000
0100
0000
,
0001
0000
0100
0000
,
0010
0000
1000
0000
,
0001
0000
0000
0000
0000
0000
0000
0000
0000
0000
0000
0000
2002
0000
0000
0000
0000
0000
0000
0000
0000
0000
0000
0000
0000
0000
0000
0000
0000
0000
0000
3003
0000
0000
0000
0000
0000
0000
0000
0000
0000
0000
0000
0000
0000
0000
0000
0000
,
0001
1000
0000
0001
,
0000
0100
0000
0010
,
1000
0100
0001
0010
,
1001
0000
1000
0001
,
1000
0100
0010
0000
,
0001
0000
1000
0000
,
0001
0100
1000
0010
,
0001
0000
1000
0000
,
0001
0010
1000
0100
,
0001
0000
1000
0000
,
0001
0100
1000
0010
,
0001
0000
1000
0000
,
0001
1000
0001
0000
,
1000
0000
0001
0000
,
1000
0100
0001
0010
,
1000
0000
0001
0000
,
1000
0010
0001
0100
,
1000
0000
0001
0000
,
1000
0100
0001
0010
,
1000
0001
0000
1000
,
0000
0010
0000
0100
,
0000
0001
0000
1000
,
0000
0010
0000
0100
,
0000
0001
0000
1000
,
0000
0100
0000
0010
,
0000
0001
0000
1000
,
0000
0010
0000
0100
,
1001
0000
1000
0000
,
0100
0000
0010
0000
,
0001
0000
0100
0000
,
0010
0000
1000
0000
,
1001
0000
1000
0000
,
0001
0000
1000
0000
,
0100
0000
0001
0000
,
0010
0000
1000
0000
,
2002
0000
0000
0000
,
3003
0000
0000
0000
;

//---------------dance-single - TRICK----------------
#NOTES:
     dance-single:
     TRICK:
     Medium:
     5:
     0.356,0.425,0.160,0.109,0.058:
0000
0000
0000
0000
,
0000
0000
0000
0000
,
0000
0000
0000
0000
,
0000
0000
0000
0000
,
1000
0001
0000
0000
0000
0000
1001
0000
,
0001
1000
0000
0000
0000
0000
0000
0000
,
1000
0001
0100
0010
0100
0001
1000
0000
,
0001
0100
1000
0010
0001
1000
1001
0000
,
2002
0000
3003
1001
,
1000
0001
0000
0100
0010
0000
1000
0000
,
0001
0100
0010
0000
1000
0010
0001
0000
,
1000
0010
0100
0000
0001
0010
0100
0000
,
1000
0001
0000
0000
0000
0000
0010
0000
,
1000
0001
0000
0010
0100
0000
0001
0000
,
1000
0001
0100
0000
0110
0000
1001
0000
,
1000
0001
0200
0000
0000
0000
0300
0000
,
2002
3003
0000
0000
0000
0000
0000
0000
0000
0000
0000
0000
1001
0000
0000
0000
0000
0000
0000
0000
0000
0000
0000
0000
1000
0000
0000
0000
0000
0000
0100
0000
0000
0000
0000
0000
0010
0000
0000
0000
0000
0000
0000
0000
0000
0000
0000
0000
,
0001
0010
0100
0000
1000
0100
1000
0000
,
0001
0010
0001
0000
1000
0001
1000
0000
,
0001
0010
1001
0000
1000
0100
1000
0000
,
0001
1000
1001
0000
1000
0100
1000
0000
,
0001
0010
0001
0000
1000
0001
1000
0000
,
0001
1000
0001
0000
1000
0001
1000
0000
,
0001
1000
1001
0000
0010
0100
0010
0000
,
1000
0001
1000
0000
0000
0001
0000
1000
,
0000
0010
0000
0000
0100
0000
0000
0000
0000
0100
0000
0000
0000
0000
0001
0000
,
0000
1000
0000
0000
0100
0000
0000
0000
0000
0000
0010
0000
0000
0000
1000
0000
,
0000
0001
0000
0000
1000
0000
0000
0010
0000
0000
0001
0000
0000
0000
1000
0000
,
0000
0000
0000
0001
0000
0000
0000
0000
0000
0000
0000
0000
2002
3003
0000
0000
0000
0000
0000
0000
0000
2002
3003
0000
0000
0000
0000
0000
0000
0000
2002
3003
0000
0000
0000
0000
0000
0000
0000
0000
0000
0000
0000
0000
0000
0000
0000
0000
,
1000
0000
0000
0000
0000
0000
0001
0000
0000
0000
1000
0000
0000
0010
0000
0000
,
0100
0000
0000
0000
0000
0100
0000
0000
0000
0000
0001
0000
0000
1000
0000
0000
,
0100
0001
0010
1000
0100
0001
0010
1000
,
1001
0000
0000
0001
1000
0010
0100
0001
,
1000
0001
0100
0010
1000
0000
0000
1000
,
0001
0000
0000
0000
0000
0000
0001
0000
1000
0000
0000
0100
0000
0000
0010
0000
,
0001
0100
1000
0010
0001
0100
1000
0010
,
0001
0000
0000
0001
1000
0100
0010
0100
,
0001
1000
0010
1000
0100
0001
0010
1000
,
0001
0000
0000
0000
0000
0000
0100
0000
0010
0000
0000
1000
0000
0000
0001
0000
,
1000
0100
0001
0010
1000
0100
0001
0010
,
1000
0000
0000
0001
1000
0100
0010
1000
,
0010
0100
1000
0001
1001
0000
0000
0001
,
1000
0000
0000
0000
0000
0000
1000
0000
0001
0000
0000
0100
0000
0000
0010
0000
,
1000
0100
0001
0010
1000
0100
0001
0010
,
1000
0000
0000
1000
0001
0100
0010
1000
,
0001
0100
0010
0001
0100
1000
0010
0001
,
1000
0000
0000
0000
0000
0000
0010
0000
0100
0000
0000
0001
0000
0000
1000
0000
,
0001
0100
1000
0010
0001
0100
1000
0010
,
1001
0001
0100
1000
,
0000
0100
0010
1001
0000
0010
0100
0000
,
1000
0001
0100
0010
,
0000
1000
0010
0001
0000
0100
1000
0000
,
1000
0010
0100
0001
,
0000
0010
0100
1001
0000
0100
0010
0000
,
1000
0010
0100
0001
,
0000
0001
0100
1000
0000
0010
0001
0000
,
2002
0000
3003
0000
1000
0000
0000
1000
,
0001
0000
0000
0100
0000
0000
0010
0000
1000
0000
0000
0000
0000
0000
0000
0000
,
0001
0000
0100
0000
,
0010
0000
0000
0001
1000
0000
0100
0000
,
1001
0000
0000
0000
1000
0000
0000
1000
,
0001
0000
0000
0010
0000
0000
0100
0000
1000
0000
0000
0000
0000
0000
0000
0000
,
0100
0000
0001
0000
,
0010
0000
0000
0001
1000
0000
0100
0000
,
2002
0000
0000
0000
,
3003
0000
0000
0000
;

//---------------dance-single - HEAVY----------------
#NOTES:
     dance-single:
     HEAVY:
     Hard:
     9:
     0.496,0.567,0.109,0.109,0.473:
0000
0000
0000
0000
,
0000
0000
0000
0000
,
0000
0000
0000
0000
,
0000
0000
0000
0000
,
1000
0000
0001
0000
0000
0000
0000
0000
0000
0000
0000
0000
1000
0010
0100
0001
,
1000
1000
0000
0000
0000
0000
0000
0000
,
1000
0000
0001
0000
0100
0000
0010
1000
0100
0010
0001
0100
0010
0000
0000
0000
,
0001
0000
0100
0000
1000
0000
0010
0100
0001
1000
0100
0010
0001
0000
0000
0000
,
2002
0000
0000
0000
0000
0000
0000
0000
3003
0000
0000
0000
1000
0010
0100
0001
,
1000
0000
0001
0000
0000
0000
0100
0000
0010
0100
0001
1000
0100
0000
0000
0000
,
0001
0000
0100
0000
0010
0000
0000
0000
1000
0100
0010
0100
0001
0000
0000
0000
,
1000
0000
0010
0000
0100
0000
0000
0000
1000
0001
0100
0010
1000
0000
0000
0000
,
1000
0000
0001
0000
0000
0000
0000
0000
0000
0000
0000
0000
0010
0100
1000
0010
,
1000
0000
0001
0000
0000
0000
0010
0000
0100
1000
0010
0100
0001
0000
0000
0000
,
1000
0000
0001
0000
0100
0000
0000
0000
0100
0010
0100
0001
1000
0000
0000
0000
,
1000
0001
0200
0000
0000
0000
0300
0000
,
2002
3003
0000
0000
0000
0000
0000
0000
0000
0000
0000
0000
1000
0000
0000
0100
0000
0000
0010
0000
0000
0001
0000
0000
0000
0000
0000
0000
0000
0000
1000
0000
0000
0000
0000
0000
0000
0000
0000
0001
0000
0000
0010
0000
0000
0000
0000
0000
,
0100
1000
0001
0000
0010
0100
1000
0001
1000
0001
0000
0000
0000
0001
1000
0000
,
1001
0000
0000
1000
0001
1000
0100
0010
0000
0000
0001
0000
0000
1000
0100
0000
,
0001
0010
0100
0000
0001
0000
0000
0100
0010
0000
0100
0000
1000
0100
0010
0001
,
1000
0010
0100
0001
1000
0100
0010
0001
0000
0000
1000
0000
0000
0001
0010
0000
,
0100
1000
0001
0000
0010
0100
1000
0001
1000
0001
0000
0000
0000
0001
1000
0000
,
1001
0000
0000
1000
0001
1000
0100
0010
0000
0000
0001
0000
0000
1000
0100
0000
,
0001
0010
0100
0000
0001
0000
0000
0100
0010
0000
0100
0000
1000
0100
0010
0001
,
1000
0010
0100
0001
1000
0000
0000
0000
0000
0000
0001
0000
0000
0000
1000
0000
,
0000
0010
0000
0000
0100
0000
0000
0000
0000
0000
0100
0000
0000
0000
0001
0000
,
0000
1000
0100
0000
0000
0010
0000
1000
,
0000
0001
0000
0000
1000
0000
0000
0010
0000
0000
0001
0000
0000
0000
1000
0000
,
0000
0000
0000
0001
0000
0000
0000
0000
0000
0000
0000
0000
2002
3003
0000
0000
0000
0000
0000
0000
0000
0220
0330
0000
0000
0000
0000
0000
0000
0000
2002
3003
0000
0000
0000
0000
0000
0000
0000
0000
0000
0000
1000
0000
0000
0001
0000
0000
,
1000
0000
0000
0001
0000
1000
0000
0010
,
0100
0000
0000
0100
0000
0001
0000
1000
,
0100
0010
0001
1000
0010
0100
0001
0010
0100
1000
0010
0100
0001
1000
0100
0010
,
1001
0000
0000
0001
1000
0100
0001
0010
,
1000
0000
0100
0000
0001
0000
0010
0000
1000
0000
0000
0000
0000
0000
1000
0100
,
0001
0000
0000
0000
0000
0000
0001
0000
1000
0000
0000
0100
0000
0000
0010
0000
,
0001
0010
0100
1000
0010
0100
0001
0010
0100
1000
0010
0100
0001
0010
0100
1000
,
0001
0000
0000
0000
0100
0010
0001
0000
1000
0000
0010
0000
0100
0000
0010
0000
,
1000
0000
0001
0000
0010
0100
1000
0100
0010
0001
0010
0100
1000
0010
0100
0001
,
1000
0000
0000
0000
0000
0000
0100
0000
0010
0000
0000
1000
0000
0000
0001
0000
,
1000
0010
0100
0001
0010
0100
1000
0010
0100
0001
0010
0100
1000
0010
0100
0001
,
1000
0000
0000
1000
0001
0010
1000
0100
,
0001
0000
0010
0000
1000
0000
0100
0000
0001
0000
0000
0000
0000
0000
0001
0010
,
1000
0000
0000
0000
0000
0000
1000
0000
0001
0000
0000
0010
0000
0000
0100
0000
,
1000
0100
0010
0001
0100
0010
1000
0100
0010
0001
0100
0010
1000
0100
0010
0001
,
1000
0000
0000
0000
0100
0010
0001
0000
1000
0000
0010
0000
0100
0000
0010
0000
,
1000
0000
0001
0000
0010
0100
1000
0100
0010
0001
0010
0100
1000
0010
0100
0001
,
1000
0000
0000
0000
0000
0000
0010
0000
0100
0000
0000
0001
0000
0000
1000
0000
,
0001
0010
0100
1000
0010
0100
0001
0010
0100
1000
0010
0100
0001
0010
0100
1000
,
0001
0010
1000
0100
0010
0001
0100
0000
,
0000
0110
0100
1001
0010
0100
0010
0000
,
1000
0100
0001
0010
0100
1000
0010
0000
,
0000
1000
0010
0001
0000
0100
1000
0000
,
1000
0100
0001
0010
0100
1000
0010
0000
,
0000
0110
0010
1001
0100
0010
0100
0000
,
1000
0100
0001
0010
0100
1000
0010
0000
,
0000
1000
0010
0001
0000
0100
1000
0000
,
2002
0000
0000
0000
3003
0000
0000
0000
1000
0000
0000
0000
0000
0000
1000
0010
,
0001
0000
0000
0100
0000
0000
1000
0000
0001
0000
0000
0000
0000
0000
0000
0000
,
0001
0000
0100
0000
,
0010
0000
0000
0000
0000
0000
0001
0100
1000
0000
0000
0000
0010
0000
0000
0000
,
1001
0000
0000
0000
0000
0000
0000
0000
1000
0000
0000
0000
0000
0000
1000
0010
,
0001
0000
0000
0100
0000
0000
1000
0000
0001
0000
0000
0000
0000
0000
0000
0000
,
0100
0000
0001
0000
,
0010
0000
0000
0000
0000
0000
0001
0100
1000
0000
0000
0000
0010
0000
0000
0000
,
2002
0000
0000
0000
,
3003
0000
0000
0000
;

//---------------dance-single - ONI----------------
#NOTES:
     dance-single:
     ONI:
     Challenge:
     10:
     0.861,1.000,0.560,1.000,0.494: // measure 1
0000
0000
0000
0000
,  // measure 2
0000
0000
0000
0000
,  // measure 3
0000
0000
0000
0000
,  // measure 4
0000
0000
0000
0000
,  // measure 5
1010
0000
0202
0000
0000
0000
0000
0000
0000
0000
0303
0000
1000
0010
0100
0001
,  // measure 6
1000
0000
2002
0000
0000
0000
0000
0000
0000
0000
0000
3003
0000
1000
0001
0100
,  // measure 7
1010
0000
1001
0000
0202
0000
0000
0000
0303
0000
0001
0100
0010
0100
0001
0000
,  // measure 8
0011
0000
0110
0000
1100
0000
0010
0100
0001
1000
0100
0010
1001
0000
1000
0010
,  // measure 9
0100
0000
2002
0000
0000
0000
0000
0000
0000
0000
3003
0000
1000
0010
0100
0001
,  // measure 10
1000
0000
2002
0000
3003
0000
0110
0000
0010
0100
0001
1000
0200
0000
0300
0000
,  // measure 11
1001
0000
0011
0000
2002
0000
3003
0000
1000
0100
0010
0100
0002
0000
0003
0000
,  // measure 12
1010
0000
0110
0000
0202
0000
0303
0000
1000
0001
0100
0010
2000
0000
3000
0000
,  // measure 13
0110
0000
2002
0000
0000
0000
0000
0000
0000
0000
3003
0000
0010
0100
1000
0010
,  // measure 14
1000
0000
2002
0000
3003
0000
0010
0000
0100
1000
1001
0001
0100
0010
1000
0001
,  // measure 15
0110
0000
1001
0000
0220
0000
0330
0000
0100
0010
0100
0001
1000
0010
0100
0001
,  // measure 16
0110
1001
0220
0330
2002
0000
0000
3003
,  // measure 17
2002
3003
0000
0000
0000
0000
0000
0000
0000
0000
0000
0000
1000
0000
0000
0100
0000
0000
0010
0000
0000
0001
0000
0000
0000
0000
0000
0000
0000
0000
1001
0000
0000
0000
0000
0000
0000
0000
0000
0001
0000
0000
0010
0000
0000
0000
0000
0000
,  // measure 18
0100
1000
0001
0000
0010
0100
1000
0001
2000
0002
0000
0000
3003
0001
1000
0000
,  // measure 19
2002
0000
3003
1000
0001
1000
0100
0010
0000
0000
1001
0000
0000
1000
0100
0000
,  // measure 20
0001
0010
0100
0000
2002
0000
3003
0100
0010
0000
0100
0000
1000
0100
0010
0001
,  // measure 21
1000
0010
0100
0001
1000
0100
0010
0001
0000
0000
1001
0000
0000
0001
0010
0000
,  // measure 22
0100
1000
0001
0000
0010
0100
1000
0001
2000
0002
0000
0000
3003
0001
1000
0000
,  // measure 23
2002
0000
3003
1000
0001
1000
0100
0010
0000
0000
1001
0000
0000
1000
0100
0000
,  // measure 24
0001
0010
0100
0000
2002
0000
3003
0100
0010
0000
0100
0000
1000
0100
0010
0001
,  // measure 25
1000
0010
0100
0001
2000
0000
0000
0000
0000
3000
0002
0000
0000
0003
2000
0000
,  // measure 26
3000
0020
0000
0030
0200
0000
0000
0000
0000
0300
0020
0000
0000
0030
0002
0000
,  // measure 27
0000
0003
2000
3000
0200
0000
0000
0000
0000
0300
0020
0000
0000
0030
2000
0000
,  // measure 28
3000
0002
0000
0003
2000
0000
3000
0020
0000
0030
0002
0000
0000
0003
2000
0000
,  // measure 29
3000
0000
0000
0002
0000
0000
0003
0000
0000
0000
0000
0000
2002
3003
0000
0000
0000
0000
0000
0000
0000
0220
0330
0000
0000
0000
0000
0000
0000
0000
2002
3003
0000
0000
0000
0000
0000
0000
0000
0000
0000
0000
1000
0000
0000
0001
0000
0000
,  // measure 30
2002
0000
0000
0000
3003
0000
0022
0000
0000
0033
2200
0000
3300
0000
0220
0330
,  // measure 31
0202
0000
0000
0000
0000
0303
0220
0000
0000
0330
2002
0000
0000
3003
1020
0030
,  // measure 32
0100
0010
0001
1000
0010
0100
0001
0010
0100
1000
0010
0100
0001
1000
0100
0010
,  // measure 33
2002
0000
0000
0000
0000
0000
0000
0000
0000
0000
0000
0000
3003
0000
0000
0000
0000
0000
2000
3000
0000
0000
0000
0000
0002
0003
0000
0000
0000
0000
0200
0300
0000
0000
0000
0000
2000
3000
0000
0000
0000
0000
0020
0030
0000
0000
0000
0000
,  // measure 34
2002
3003
0000
0000
0000
0000
0200
0300
0000
0000
0000
0000
0002
0003
0000
0000
0000
0000
0020
0030
0000
0000
0000
0000
2002
0000
0000
0000
0000
0000
0000
0000
0000
0000
0000
0000
3003
0000
0000
0000
0000
0000
2000
3000
0000
0200
0300
0000
,  // measure 35
0002
0000
0000
0000
0000
0000
0000
0000
0000
0000
0000
0000
0000
0000
0000
0003
0000
0000
0020
0030
0000
0000
0000
0000
2000
0000
0000
0000
0000
0000
3000
0000
0000
0200
0000
0000
0000
0000
0000
0300
0000
0000
0020
0000
0000
0030
0000
0000
,  // measure 36
0002
0003
0000
0020
0030
0000
0200
0300
0000
2000
3000
0000
0020
0030
0000
0200
0300
0000
0002
0003
0000
0020
0030
0000
0200
0300
0000
2000
3000
0000
0020
0030
0000
0200
0300
0000
0002
0003
0000
0020
0030
0000
0200
0300
0000
2000
3000
0000
,  // measure 37
2002
0003
0000
0000
0000
0000
0000
0000
0000
3000
0000
0000
0200
0300
0000
0020
0030
0000
0002
0003
0000
0000
0000
0000
2000
3000
0000
0000
0000
0000
0020
0030
0000
0000
0000
0000
0200
0300
0000
0000
0000
0000
0020
0030
0000
0000
0000
0000
,  // measure 38
2000
3000
0000
0000
0000
0000
0002
0003
0000
0000
0000
0000
0020
0030
0000
0200
0300
0000
2000
3000
0000
0200
0300
0000
0020
0030
0000
0002
0003
0000
0020
0030
0000
0200
0300
0000
2000
3000
0000
0020
0030
0000
0200
0300
0000
0002
0003
0000
,  // measure 39
2002
3000
0000
0000
0000
0000
0000
0000
0000
0000
0000
0000
0000
0000
0000
0003
0000
0000
0200
0300
0000
0000
0000
0000
0020
0000
0000
0000
0000
0000
0030
0000
0000
2000
0000
0000
0000
0000
0000
3000
0000
0000
0002
0000
0000
0003
0000
0000
,  // measure 40
2000
3000
0000
0020
0030
0000
0200
0300
0000
0002
0003
0000
0020
0030
0000
0200
0300
0000
2000
3000
0000
0020
0030
0000
0200
0300
0000
0002
0003
0000
0020
0030
0000
0200
0300
0000
2000
3000
0000
0020
0030
0000
0200
0300
0000
0002
0003
0000
,  // measure 41
2002
3000
0000
0000
0000
0000
0000
0000
0000
0000
0000
0000
0000
0000
0000
0003
0000
0000
2000
3000
0000
0000
0000
0000
0002
0003
0000
0000
0000
0000
0020
0030
0000
0000
0000
0000
2000
3000
0000
0000
0000
0000
0200
0300
0000
0000
0000
0000
,  // measure 42
2002
3003
0000
0000
0000
0000
0020
0030
0000
0000
0000
0000
2000
3000
0000
0000
0000
0000
0200
0300
0000
0000
0000
0000
2002
0000
0000
0000
0000
0000
0000
0000
0000
0000
0000
0000
3003
0000
0000
0000
0000
0000
0002
0003
0000
0020
0030
0000
,  // measure 43
2000
0000
0000
0000
0000
0000
0000
0000
0000
0000
0000
0000
0000
0000
0000
3000
0000
0000
0200
0300
0000
0000
0000
0000
0002
0000
0000
0000
0000
0000
0003
0000
0000
0020
0000
0000
0000
0000
0000
0030
0000
0000
0200
0000
0000
0300
0000
0000
,  // measure 44
2000
3000
0000
0200
0300
0000
0020
0030
0000
0002
0003
0000
0200
0300
0000
0020
0030
0000
2000
3000
0000
0200
0300
0000
0020
0030
0000
0002
0003
0000
0200
0300
0000
0020
0030
0000
2000
3000
0000
0200
0300
0000
0020
0030
0000
0002
0003
0000
,  // measure 45
2002
3000
0000
0000
0000
0000
0000
0000
0000
0003
0000
0000
0020
0030
0000
0200
0300
0000
2000
3000
0000
0000
0000
0000
0002
0003
0000
0000
0000
0000
0200
0300
0000
0000
0000
0000
0020
0030
0000
0000
0000
0000
0200
0300
0000
0000
0000
0000
,  // measure 46
0002
0003
0000
0000
0000
0000
2000
3000
0000
0000
0000
0000
0200
0300
0000
0020
0030
0000
0002
0003
0000
0020
0030
0000
0200
0300
0000
2000
3000
0000
0200
0300
0000
0020
0030
0000
0002
0003
0000
0200
0300
0000
0020
0030
0000
2000
3000
0000
,  // measure 47
2002
0003
0000
0000
0000
0000
0000
0000
0000
0000
0000
0000
0000
0000
0000
3000
0000
0000
0020
0030
0000
0000
0000
0000
0200
0000
0000
0000
0000
0000
0300
0000
0000
0002
0000
0000
0000
0000
0000
0003
0000
0000
2000
0000
0000
3000
0000
0000
,  // measure 48
0002
0003
0000
0200
0300
0000
0020
0030
0000
2000
3000
0000
0200
0300
0000
0020
0030
0000
0002
0003
0000
0200
0300
0000
0020
0030
0000
2000
3000
0000
0200
0300
0000
0020
0030
0000
0002
0003
0000
0200
0300
0000
0020
0030
0000
2000
3000
0000
,  // measure 49
1002
0000
0003
0000
0000
0000
0000
0000
0000
0000
0000
0000
0000
0000
0000
0000
0000
0000
0000
0000
0000
0000
0000
0000
0010
0000
0000
0000
0000
0000
0000
0000
0000
0000
0000
0000
0000
0000
0000
0000
0000
0000
0000
0000
0000
0000
0000
0000
1000
0000
0000
0000
0000
0000
0000
0000
0000
0000
0000
0000
0000
0000
0000
0000
0000
0000
0000
0000
0000
0000
0000
0000
0100
0000
0000
0000
0000
0000
0000
0000
0000
0000
0000
0000
0000
0000
0000
0000
0000
0000
0000
0000
0000
0000
0000
0000
0010
0000
0000
0000
0000
0000
0000
0000
0000
0000
0000
0000
0000
0000
0000
0000
0000
0000
0000
0000
0000
0000
0000
0000
0001
0000
0000
0000
0000
0000
0000
0000
0000
0000
0000
0000
0000
0000
0000
0000
0000
0000
0000
0000
0000
0000
0000
0000
0202
0000
0000
0000
0000
0000
0000
0000
0000
0000
0000
0000
0000
0000
0000
0000
0000
0000
0000
0000
0000
0000
0000
0000
0000
0000
0000
0000
0000
0000
0000
0000
0000
0000
0000
0000
0000
0000
0000
0000
0000
0000
0000
0000
0000
0000
0000
0000
,  // measure 50
0303
0110
0100
1001
0010
0100
0020
0030
,  // measure 51
1001
0100
0001
0010
0100
1000
2020
0000
,  // measure 52
3030
0000
1000
0000
0010
0000
0002
0000
0000
0003
0100
0000
2002
0000
3003
0000
,  // measure 53
1000
0100
0001
0010
0100
1000
2020
0000
,  // measure 54
3030
0110
0010
1001
0100
0010
0200
0300
,  // measure 55
1001
0100
0001
0010
0100
1000
2020
0000
,  // measure 56
3030
0000
1000
0000
0010
0000
0002
0000
0000
0003
0100
0000
1001
0000
0000
0000
,  // measure 57
2002
0000
0000
0000
0000
0000
0000
0000
0000
0000
0000
0000
3003
0000
0000
0000
0000
0000
0000
0000
0000
0000
0000
0000
0002
0000
0000
0000
0000
0000
0000
0000
0000
0000
0000
0000
0000
0000
0000
0003
0000
0000
2000
3000
0000
0020
0030
0000
,  // measure 58
0002
0000
0003
0200
0000
0300
2000
3000
2002
0000
0000
0000
3003
0000
0000
0000
,  // measure 59
0002
0000
0000
0000
0000
0000
0000
0003
0200
0000
0000
0000
0000
0000
0000
0300
,  // measure 60
0020
0000
0000
0000
0000
0000
0000
0000
0000
0000
0000
0000
0000
0000
0000
0030
0000
0000
0002
0003
0000
0200
0300
0000
2000
0000
0000
0000
0000
0000
0000
0000
0000
3000
0000
0000
0020
0000
0000
0000
0000
0000
0000
0000
0000
0030
0000
0000
,  // measure 61
2002
0000
0000
0000
0000
0000
0000
0000
0000
0000
0000
0000
0000
0000
0000
0000
0000
0000
3003
0000
0000
0000
0000
0000
0002
0000
0000
0000
0000
0000
0000
0000
0000
0000
0000
0000
0000
0000
0000
0003
0000
0000
2000
3000
0000
0020
0030
0000
,  // measure 62
0002
0000
0003
0200
0000
0300
2000
3000
0002
0000
0000
0000
0000
0000
0000
0003
,  // measure 63
0200
0000
0000
0000
0000
0000
0000
0300
0002
0000
0000
0000
0000
0000
0000
0003
,  // measure 64
0020
0000
0000
0000
0000
0000
0000
0000
0000
0000
0000
0000
0000
0000
0000
0030
0000
0000
0002
0003
0000
0200
0300
0000
2000
0000
0000
0000
0000
0000
0000
0000
0000
3000
0000
0000
0020
0000
0000
0000
0000
0000
0030
0000
0000
0000
0000
0000
,  // measure 65
2002
0000
0000
0000
,  // measure 66
3003
0000
0000
0000
;
