#TITLE:kyrie;
#SUBTITLE:;
#ARTIST:paraoka;
#TITLETRANSLIT:;
#SUBTITLETRANSLIT:;
#ARTISTTRANSLIT:;
#CREDIT:;
#BANNER:kyrie.PNG;
#BACKGROUND:kyrie-bg.PNG;
#LYRICSPATH:;
#CDTITLE:cdtitle.png;
#MUSIC:kyrie.mp3;
#OFFSET:-1.680;
#SAMPLESTART:15.000;
#SAMPLELENGTH:12.000;
#SELECTABLE:YES;
#DISPLAYBPM:70.000:140.000;
#BPMS:0.000=140.000,124.000=70.000,144.000=140.000,169.500=100.000,170.000=110.000,170.500=120.000,171.000=130.000,171.500=140.000,172.000=150.000,172.500=160.000,173.000=170.000,173.500=180.000,174.000=190.000,174.500=200.000,175.000=220.000,175.500=240.000,176.000=260.000,176.500=280.000,177.000=299.999,177.500=329.999,178.000=359.999,178.500=389.999,179.000=399.998,179.500=439.998,180.000=479.997,180.500=519.997,181.000=559.996,193.500=35.000,194.000=17.500,195.000=140.000;
#STOPS:169.500=1.600
;
#BGCHANGES:;

//---------------dance-single - BASIC----------------
#NOTES:
     dance-single:
     BASIC:
     Easy:
     5:
     0.194,0.292,0.223,0.170,0.000:
0000
0000
0000
0000
,
0000
0000
0000
0000
,
0000
0000
0000
0000
,
0000
0000
0000
0000
,
0001
0000
0010
1000
,
0100
0001
1000
0001
,
1000
0000
0010
0100
,
1001
0000
0110
0000
,
1000
0000
0001
0000
,
0000
0110
0000
1001
,
2000
0000
3002
0000
,
0003
0220
0000
0330
,
0001
0000
0010
1000
,
0010
1000
0100
0001
,
1000
0000
0010
0100
,
1001
1100
0011
1001
,
1000
0000
0000
0000
,
0001
0000
0000
0000
,
1000
0000
0000
0000
,
0001
0000
0000
1001
,
2000
0000
3020
0000
,
0031
0100
1000
0010
,
0011
1100
0011
1100
,
0002
0000
1003
0000
,
1001
0000
0001
0020
,
1030
0102
0010
1003
,
0100
0000
0001
0000
,
1001
0000
0020
0000
,
0130
0000
0000
0000
,
2002
0000
0000
0000
,
0000
0000
0000
0000
,
3003
0000
0001
0000
,
1000
0000
0010
0000
,
0001
0000
0100
0000
,
1000
0000
0100
0000
,
0002
0000
0000
0000
,
1003
0100
0021
0100
,
0031
1000
0010
1001
,
2000
0000
3001
0000
,
0020
1000
0130
0001
,
0100
0000
1000
0000
,
0000
0100
0000
0001
,
1000
0000
0000
1001
0000
0000
0000
0000
;

//---------------dance-single - TRICK----------------
#NOTES:
     dance-single:
     TRICK:
     Medium:
     7:
     0.318,0.461,0.254,0.360,0.064:
0000
0000
0000
0000
,
0000
0000
0000
0000
,
0000
0000
0000
0000
,
0000
0000
0000
0000
,
0002
0000
0000
0000
0013
1000
0100
0000
,
0101
0011
1100
1001
,
2000
0000
0000
0000
3010
0001
0100
0000
,
1001
0000
0110
0000
,
1000
0000
0000
0010
0000
0000
0000
0000
0001
0000
0000
0010
0000
0000
0000
0000
,
0000
0110
0000
1001
,
2000
0000
0000
3010
0000
0000
0100
0000
0002
0000
0000
0013
0000
0000
0100
0000
,
0000
0220
0000
0330
,
0002
0000
0023
1030
,
0012
0103
2010
3001
,
2000
0000
3020
0130
,
0001
0000
0000
0100
0000
0000
1000
0000
0000
0010
0000
0000
0001
0000
0000
0000
,
2000
3100
1100
0000
,
0002
0103
0101
0000
,
2000
3001
1001
0000
,
0002
1003
1001
1001
,
1000
0010
0010
0100
0202
0000
0303
0000
,
0001
0001
0010
0100
0010
1000
0100
0001
,
0010
1000
0100
0010
1000
0100
0001
1000
,
0002
0000
2000
3003
,
1001
0000
0100
0000
0001
0002
0010
0013
,
0100
1000
0010
0011
0001
1000
0010
1000
,
0200
0000
0302
0003
,
2001
0000
3020
0000
,
0230
0000
0000
0000
0000
0300
0000
1001
,
0020
0000
0000
0000
,
0000
0000
0000
0130
,
1000
0000
0001
0010
,
1000
0000
0000
0100
0010
0000
1000
0000
,
0001
0000
0010
1000
,
0100
0000
0002
0000
,
2003
0000
0000
3000
,
1001
0000
0100
0100
0002
0000
0103
0000
,
0010
0010
2000
0100
3010
0000
1001
0000
,
2000
3020
0031
0101
,
1000
0000
0100
0000
1000
0000
0010
0000
0100
0000
0010
0000
0001
0000
0100
1000
,
0000
0000
0010
0000
0000
0100
0000
0000
1000
0000
0000
0001
0000
0000
0010
0000
,
0000
1000
0000
0000
0100
0000
0000
0010
0000
0000
0001
0000
0010
0000
0100
0000
,
1000
0000
0001
0000
1000
0020
0000
0000
0000
0000
0000
0000
0000
0000
0000
0000
,
0000
0000
0000
0000
,
0000
0000
0000
0000
,
0000
0000
0000
0000
,
0000
0000
0000
0000
,
0000
0000
0000
0000
,
0000
0000
0000
0030
0000
0000
0000
0000
;

//---------------dance-single - HEAVY----------------
#NOTES:
     dance-single:
     HEAVY:
     Hard:
     9:
     0.477,0.646,0.498,0.477,0.313:
0000
0000
0000
0000
,
0000
0000
0000
0000
,
0000
0000
0000
0000
,
0000
0000
0000
0000
,
1002
0000
0000
0000
0000
0000
0013
0010
1000
0100
0010
0001
,
0020
2030
3200
0301
,
2001
0000
0000
0000
0000
0000
3010
0010
0001
0100
0010
1000
,
2002
3003
0220
0330
,
1010
0000
0000
1100
0000
0000
0000
0000
0011
0000
0000
0101
0000
0000
0000
0000
,
1001
0110
1001
0110
,
1010
0000
0000
0110
0000
0000
0101
0000
0011
0000
0000
0110
0000
0000
1100
0000
,
0000
0000
0010
1000
0100
0010
0001
0100
,
0020
1030
0020
0031
,
0002
0203
1300
1001
,
2001
0000
0000
0100
3020
0000
0130
0100
,
0011
0000
0000
0101
0000
0000
1100
0000
0000
1010
0000
0000
1001
0000
0000
0000
,
1000
0000
1000
0000
0100
0000
0010
0000
1100
0000
0000
1001
0000
0000
0000
0000
,
0001
0000
0001
0000
0100
0000
0010
0000
0101
0000
0000
1001
0000
0000
0000
0000
,
0010
0000
0010
0000
1000
0000
0001
0000
0101
0000
0000
1001
0000
0000
0000
0000
,
0010
0000
0010
0000
0001
0000
1000
0000
1010
0000
0000
1001
0000
0000
0000
0000
,
1000
0000
0010
0100
0000
0100
0000
1000
0100
0001
0100
0000
0100
0000
0010
0000
,
0001
0000
0010
0100
0000
0100
0000
0010
1000
0001
0010
0000
0100
0000
0100
0000
,
0010
0000
0001
0010
0000
0010
0000
0001
1000
0010
0100
0000
0001
0000
1000
0000
,
0001
0000
0001
0010
0001
1000
0000
0000
1000
0010
0100
0001
0010
0100
1000
0001
,
2002
0000
3003
1000
0002
0100
0013
0010
,
2100
0000
0000
0000
3010
0000
0010
0000
0001
0000
1000
0000
0010
1000
0000
0000
,
0100
0010
1000
0100
0001
0010
1000
0100
,
2001
3000
0220
0330
,
2002
0000
0000
0000
0000
3003
0000
0010
,
2002
0000
0000
0000
,
0000
0000
0000
0000
0000
0000
0000
0000
0000
0000
3003
0000
0000
0110
0000
0000
,
1000
0000
0000
0000
0000
0000
0000
0000
0001
0000
0010
0010
1000
0100
0001
0001
,
1000
0000
0000
0000
0000
0000
0100
0001
0010
0000
0000
0000
1000
0000
0000
0100
,
0001
0000
0000
0000
0000
0000
0000
0000
0010
1000
0100
0010
0001
0001
0100
0100
,
0010
0000
2020
3030
,
0202
0000
0000
0000
0000
0000
0303
2000
,
3001
0000
0100
0100
0012
0000
0103
1000
,
0100
0001
2000
0100
3010
0000
1001
0001
,
1020
0100
0031
0000
1001
0000
1010
0000
,
1000
0100
0000
0010
0000
0001
0100
1000
0000
0010
0000
0100
0001
0000
0000
2000
,
0000
0000
3020
0000
0000
0230
0000
0000
2300
0000
0000
3002
0000
0000
0023
0000
,
0000
2030
0000
0000
3200
0000
0000
0320
0000
0000
0031
0000
1000
0000
0100
0000
,
0001
0000
0010
0000
1000
0020
0000
0000
0000
0000
0000
0000
0000
0000
0000
0000
,
0000
0000
0000
0000
,
0000
0000
0000
0000
,
0000
0000
0000
0000
,
0000
0000
0000
0000
,
0000
0000
0000
0000
,
0000
0000
0000
0230
0000
0000
0300
0000
;

//---------------dance-single - ONI----------------
#NOTES:
     dance-single:
     ONI:
     Challenge:
     10:
     0.734,0.826,0.583,0.318,0.943:
0000
0000
0000
0000
,
0000
0000
0000
0000
,
0000
0000
0000
0000
,
0000
0000
0000
0000
,
1000
0000
0000
0100
0000
0000
0010
0000
0000
0100
0000
0000
1000
0000
0000
0010
0000
0000
1000
0000
0000
0010
0000
0000
1000
0000
0000
0000
0010
0000
0000
0000
1000
0000
0000
0000
0100
0000
0000
0000
0010
0000
0000
0000
0001
0000
0000
0000
,
0010
0100
1000
0100
1000
0100
0010
0100
1000
0100
0010
0001
0010
0100
1000
0000
,
1000
0000
0000
0010
0000
0000
0100
0000
0000
0010
0000
0000
1000
0000
0000
0100
0000
0000
0010
0000
0000
0001
0000
0000
1000
0000
0000
0000
0010
0000
0000
0000
0100
0000
0000
0000
0001
0000
0000
0000
1000
0000
0000
0000
0001
0000
0000
0000
,
1001
0000
1000
0100
1000
0000
1001
0000
1001
0000
0001
0100
0001
0000
1001
0000
,
1010
0000
0000
1100
0000
0000
1001
0000
0011
0000
0000
0101
0000
0000
1000
0001
,
1000
0100
0010
0001
1000
0001
0000
0000
0001
0100
0010
1000
0001
1000
0000
0000
,
1010
0000
0000
0110
0000
0000
0101
0000
0011
0000
0000
0110
0000
0000
1100
0000
,
0000
0000
0000
0000
1000
0000
0010
0000
0100
0000
0001
0000
1000
0000
0000
0000
0000
0010
0000
0100
0000
0000
0000
0000
0001
0000
0000
0000
0100
0000
0000
0000
,
0010
0100
1000
0100
0010
0100
1000
0100
0010
1000
0100
0010
0100
1000
0100
0010
,
0100
1000
0010
0100
0010
1000
0010
0100
0010
1000
0100
0010
0001
0100
0010
0000
,
1000
0100
0010
0100
1000
0000
0100
0000
0010
0001
1000
0010
0100
0000
0001
0000
,
0001
0100
0000
0100
0010
0000
0010
1000
0000
1000
0001
0000
1001
0000
1001
0000
,
1000
0000
1000
0100
0000
1100
0000
1000
0001
0000
0000
1001
0000
0000
1001
0000
,
0001
0000
0001
0100
0000
0101
0000
0001
1000
0000
0000
1001
0000
0000
1001
0000
,
0010
0000
0010
1000
0000
1001
0000
0001
1000
0000
0000
1001
0000
0000
1001
0000
,
0010
0000
0010
0001
0000
1001
0000
1000
0001
0000
0000
1001
0000
0000
0000
0000
,
2002
3003
0220
0330
,
1000
0010
0100
0010
1000
0010
0100
0010
1000
0010
0100
0010
1000
0010
0100
0010
,
1000
0001
0010
0100
1000
0010
0100
0001
0010
0100
1000
0010
0100
0000
0000
0000
,
1001
0000
0000
1000
0001
0000
0100
0000
1000
0010
0100
0001
0010
0100
1000
0001
,
1001
0000
1000
0001
0000
1000
0100
0000
0001
0000
0100
0000
0110
0000
1010
0000
,
2100
0000
0000
0000
0000
0000
0000
0000
3010
0000
0000
0000
1010
0000
0000
0000
1000
0000
0000
0000
1001
0000
0000
0000
0001
1000
0001
0000
0000
0000
0000
0000
,
1000
0010
0100
0001
0010
0100
1000
0100
0010
0001
0100
0010
1000
0001
1000
0001
,
2002
0000
0000
0000
3003
0000
0000
0000
0100
0010
0100
0010
0100
0000
1000
0001
,
2002
0000
0000
0000
0000
0000
0000
0003
3001
1000
0001
1000
0001
0000
0110
0000
,
1001
0000
1000
0010
0000
0100
0010
1000
1001
0000
0001
0010
0000
0100
0010
0001
,
1000
0010
0100
0001
0100
0010
1000
0100
0010
0001
0010
0100
1000
1001
0000
0000
,
1001
0000
0000
0000
0000
0000
0001
0010
1000
0100
0010
0001
,
1001
0000
0000
0000
0000
0000
0000
0000
0000
0000
0000
0000
0000
0000
0000
0000
0000
0000
0000
0000
0100
0000
0001
0000
0010
0000
0000
0000
0000
0000
0000
0000
0000
0000
1000
0001
1000
0000
0000
0000
0000
0000
0000
0000
0000
0100
0000
0000
,
0001
0000
0000
0000
0000
0000
0000
0000
0000
0000
0000
0000
0000
0000
0000
0000
0000
0000
0000
0000
0000
0000
0000
0000
0010
0000
1000
0000
0100
0000
0010
0000
0001
0000
0100
0000
0001
0000
0000
0001
0000
0000
0100
0000
0000
0100
0000
0000
,
0010
0000
0000
0000
0000
0000
0000
0000
0000
0000
0000
0000
0000
0000
0000
0000
1000
0010
1000
0010
1000
0010
1000
0010
1000
0001
0000
0000
1000
0000
0100
0000
,
0202
0000
0000
0000
0000
0000
0303
2000
,
3001
0010
0100
0010
0001
0100
0010
1000
0002
0000
0000
0000
0103
0000
0010
0100
,
0001
0000
1001
0000
1000
0000
0100
0010
0001
0000
1000
0000
1001
0000
0001
0000
,
1010
1100
1001
0000
0011
0101
1001
0000
,
2000
0000
3000
0000
0000
0000
0000
0000
0000
0000
0000
0000
0200
0000
0300
0000
0000
0000
0000
0000
0000
0000
0000
0000
0000
0000
0000
0000
0000
0000
0000
0000
0000
0000
0000
0000
0020
0000
0030
0000
0000
0000
0000
0000
0000
0000
0000
0000
0000
0000
0000
0000
0000
0000
0000
0000
0000
0000
0000
0000
0002
0000
0003
0000
0000
0000
0000
0000
0000
0000
0000
0000
0200
0000
0300
0000
0000
0000
0000
0000
0000
0000
0000
0000
2000
0000
3000
0000
0000
0000
0000
0000
0000
0000
0000
0000
0000
0000
0000
0000
0000
0000
0000
0000
0000
0000
0000
0000
0020
0000
0030
0000
0000
0000
0000
0000
0000
0000
0000
0000
0000
0000
0000
0000
0000
0000
0000
0000
0000
0000
0000
0000
0200
0000
0300
0000
0000
0000
0000
0000
0000
0000
0000
0000
0002
0000
0003
0000
0000
0000
0000
0000
0000
0000
0000
0000
0000
0000
0000
0000
0000
0000
0000
0000
0000
0000
0000
0000
0000
0000
0000
0000
0000
0000
0000
0000
0000
0000
0000
0000
1000
0000
0000
0000
0000
0000
0000
0000
0000
0000
0000
0000
,
0010
0100
0010
1000
0100
0010
0001
0100
0010
0100
0010
0100
0001
0010
0100
1000
,
0010
0000
0000
0000
0000
0000
0000
0000
0000
0000
0000
0000
0100
0000
0000
0000
0000
0000
0000
0000
0000
0000
0000
0000
1000
0000
0000
0000
0000
0000
0000
0000
0000
0000
0000
0000
0100
0000
0000
0000
0000
0000
0000
0000
0000
0000
0000
0000
0001
0000
0000
0000
0000
0000
0000
0000
0000
0000
0000
0000
0010
0000
0000
0000
0000
0000
0000
0000
0000
0000
0000
0000
0100
0000
0000
0000
0000
0000
0000
0000
0000
0000
0000
0000
1000
0000
0000
0000
0000
0000
0000
0000
0000
0000
0000
0000
0001
0000
0000
0000
0000
0000
0000
0000
0000
0000
0000
0000
1000
0000
0000
0000
0000
0000
0000
0000
0000
0000
0000
0000
0001
0000
0000
0000
0000
0000
0000
0000
0000
0000
0000
0000
0000
0000
0000
0000
0000
0000
0000
0000
0000
0000
0000
0000
2000
0000
3000
0000
0000
0000
0000
0000
0000
0000
0000
0000
0000
0000
0000
0000
0000
0000
0000
0000
0000
0000
0000
0000
0200
0000
0300
0000
0000
0000
0000
0000
0000
0000
0000
0000
0000
0000
0000
0000
0000
0000
0000
0000
0000
0000
0000
0000
,
0002
0000
0003
0000
0000
0000
0000
0000
0000
0000
0000
0000
0000
0000
0000
0000
0000
0000
0000
0000
0000
0000
0000
0000
0020
0000
0030
0000
0000
0000
0000
0000
0000
0000
0000
0000
0000
0000
0000
0000
0000
0000
0000
0000
0000
0000
0000
0000
2000
0000
3000
0000
0000
0000
0000
0000
0000
0000
0000
0000
0020
0000
0000
0000
0000
0000
0000
0000
0000
0000
0000
0000
0000
0000
0000
0000
0000
0000
0000
0000
0000
0000
0000
0000
0000
0000
0000
0000
0000
0000
0000
0000
0000
0000
0000
0000
0000
0000
0000
0000
0000
0000
0000
0000
0000
0000
0000
0000
0000
0000
0000
0000
0000
0000
0000
0000
0000
0000
0000
0000
0000
0000
0000
0000
0000
0000
0000
0000
0000
0000
0000
0000
0000
0000
0000
0000
0000
0000
0000
0000
0000
0000
0000
0000
0000
0000
0000
0000
0000
0000
0000
0000
0000
0000
0000
0000
0000
0000
0000
0000
0000
0000
0000
0000
0000
0000
0000
0000
0000
0000
0000
0000
0000
0000
0000
0000
0000
0000
0000
0000
0000
0000
0000
0000
0000
0000
0000
0000
0000
0000
0000
0000
,
0000
0000
0000
0000
,
0000
0000
0000
0000
,
0000
0000
0000
0000
,
0000
0000
0000
0000
,
0000
0000
0000
0000
,
0000
0000
0000
0000
0000
0030
2002
0000
0000
0000
0000
0000
3003
0000
0000
0000
;

//---------------dance-double - ----------------
#NOTES:
     dance-double:
     :
     Hard:
     9:
     0.439,0.531,0.328,0.180,0.260: // measure 1
00000000
00000000
00000000
00000000
,  // measure 2
00000000
00000000
00000000
00000000
,  // measure 3
00000000
00000000
00000000
00000000
,  // measure 4
00000000
00000000
00000000
00000000
,  // measure 5
01020000
00000000
00000000
00000000
00000000
00000000
00031000
00001000
00010000
00010000
00000010
00000100
,  // measure 6
00000001
00000000
00001001
00000000
00000100
00000001
00000010
00000000
,  // measure 7
00020100
00000000
00000000
00000000
00000000
00000000
00130000
00100000
00010000
10000000
10000000
01000000
,  // measure 8
00020000
00000000
00000000
00030000
00000020
00000000
00000000
00000000
,  // measure 9
00000130
00000000
00000000
00000101
00000000
00000000
00001000
00000000
00000000
00000000
00000100
00010000
00000000
00000000
00001000
00000000
,  // measure 10
00100000
00000000
00000000
10010000
00000000
00000000
10000000
00000000
01000000
00000000
00000000
00000000
00100000
00000000
00001000
00000000
,  // measure 11
00010000
00000000
00000000
00010010
00000000
00000000
00000010
00000000
00000100
00000000
00000000
00001001
00000000
00000000
00000100
00000000
,  // measure 12
00000010
00000000
00000000
00010000
00001000
00000000
00000000
00000000
00001000
00000000
00100000
00000000
00010000
00000000
10000000
00000000
,  // measure 13
01000000
00000000
01100000
00000000
00001000
00010000
00000010
00000000
,  // measure 14
00001000
00000000
00000101
00000010
00001000
00000100
00000010
00000001
,  // measure 15
00000100
00000000
00001000
00000000
00000000
00000000
00000000
00010000
00001000
00000000
00000000
00000000
00100000
00000000
00010000
00000000
,  // measure 16
10000000
00000000
00000000
11000000
00000000
00000000
01000000
00000000
00000000
01100000
00000000
00000000
00101000
00000000
00000000
00000000
,  // measure 17
00010010
00000000
00000010
00000100
00000000
00001000
00000000
00000100
00000010
00000000
00000001
00000000
00000100
00000000
00000000
00000000
,  // measure 18
00001000
00010000
00001000
00000000
00100000
00010000
10000000
01000000
,  // measure 19
00010000
00000000
00000000
00000000
00011000
00000000
00000000
00000000
00001000
00000000
00000100
00000010
00000000
00001000
00000000
00000010
,  // measure 20
00000100
00000000
00001000
00000001
00000000
00000010
00000000
00000100
00010000
00000000
00000000
10010000
00000000
00000000
00000000
00000000
,  // measure 21
10000000
00000000
01010000
00000000
00010000
00001000
00000100
00000010
,  // measure 22
00001000
00000001
00000010
00000100
00001000
00010000
00100000
01000000
,  // measure 23
10000000
00010000
01000000
00100000
10000000
01000000
00010000
00001000
,  // measure 24
00000010
00000100
00000001
00001000
00000010
00000100
00000001
00000010
,  // measure 25
00000100
00010000
00001000
00100000
00010000
10000000
01000000
00100000
,  // measure 26
00001000
00010000
00000010
00000100
00000001
00000010
00000100
00010000
,  // measure 27
00001000
00100000
00001000
00010000
00000010
00000100
00000010
00010000
,  // measure 28
00001000
00100000
01000000
10000000
00010000
00100000
01000000
00010000
,  // measure 29
00001000
00000100
00000010
00001000
00000100
00000001
00000010
00000000
,  // measure 30
00001100
00000000
00000001
00000100
00000010
00000000
00010000
00001000
,  // measure 31
00100000
00000000
00000000
10010000
00000000
00000000
01000000
00000000
00100000
00000000
00000000
00000000
00011000
00000000
00000000
00000000
,  // measure 32
00000220
00000000
00000000
00000300
00020000
00000000
00000000
00030000
,  // measure 33
00002000
00000000
00000000
00003000
00000002
00000000
00000033
00000000
,  // measure 34
00002200
00000000
00000000
00000300
00020000
00000000
00000000
00030000
,  // measure 35
00200000
00000000
00000000
00000000
00000000
00000000
00300000
00000000
02000000
00000000
00000000
00000000
03000000
00000000
00010000
01000000
,  // measure 36
00023000
00000000
00000000
00000000
00000000
00000000
00030000
00000010
,  // measure 37
00000001
00000000
00000000
00000100
00000010
00000000
00010000
00000000
00001000
00010000
00000000
00001000
00010000
00000000
00100000
00000000
,  // measure 38
01000000
00000000
00000000
10000000
00010000
00000000
00100000
00000000
01000000
00100000
00000000
01000000
00100000
00000000
00001000
00000000
,  // measure 39
00010000
00000000
00000000
00000010
00000100
00000000
00000001
00000000
00001000
00000000
00000000
00000000
00000100
00000010
00000001
00000000
,  // measure 40
00000100
00000010
00000000
00010000
00000000
00001000
00000100
00000001
00000000
00000010
00000000
00010000
00001000
00000000
00000000
01001000
,  // measure 41
00000000
00000000
00110000
00000000
00000000
11000000
00000000
00000000
01100000
00000000
00000000
00011000
00000000
00000000
00001010
00000000
,  // measure 42
00000000
00000101
00000000
00000000
00010100
00000000
00000000
00101000
00000000
00000000
10010000
00000000
01000000
00000000
00100000
00000000
,  // measure 43
00001000
00000000
00010000
00000000
00000100
00000020
00000000
00000000
00000000
00000000
00000000
00000000
00000000
00000000
00000000
00000000
,  // measure 44
00000000
00000000
00000000
00000000
,  // measure 45
00000000
00000000
00000000
00000000
,  // measure 46
00000000
00000000
00000000
00000000
,  // measure 47
00000000
00000000
00000000
00000000
,  // measure 48
00000000
00000000
00000002
00000033
;

//---------------dance-double - ----------------
#NOTES:
     dance-double:
     :
     Medium:
     7:
     0.335,0.506,0.328,0.223,0.111: // measure 1
00000000
00000000
00000000
00000000
,  // measure 2
00000000
00000000
00000000
00000000
,  // measure 3
00000000
00000000
00000000
00000000
,  // measure 4
00000000
00000000
00000000
00000000
,  // measure 5
21000000
00000000
00000000
00000000
31000000
00100000
00010000
00000000
,  // measure 6
00012000
00000000
00003010
00000001
,  // measure 7
00000210
00000000
00000000
00000000
00010300
00001000
00100000
00000000
,  // measure 8
12000000
00000000
00020000
03030000
,  // measure 9
00011000
00000000
00000000
00001000
00000000
00000000
00000100
00000000
00000000
00000000
00000000
00000010
00000000
00000000
00000100
00000000
,  // measure 10
00000001
00000000
00000000
00001000
00000000
00000000
00000100
00000000
00000000
00000000
00000000
00010000
00000000
00000000
00001000
00000000
,  // measure 11
00100000
00000000
00000000
01000000
00000000
00000000
10000000
00000000
00000000
00000000
00000000
00100000
00000000
00000000
00010000
00000000
,  // measure 12
00000100
00000000
00000000
00001000
00000000
00000000
00010000
00000000
00000000
00000000
00000000
00000010
00000000
00000000
00000100
00000000
,  // measure 13
00000010
00000001
00001000
00000000
00000100
00010000
00001000
00000000
,  // measure 14
00100000
00010000
10000000
00000000
01000000
00000000
01100000
00000000
,  // measure 15
00001000
00011000
00000010
00000100
,  // measure 16
00001001
00000000
00000000
00000001
00000000
00000000
00001001
00000000
00000000
00001000
00000000
00000000
00001100
00000000
00000000
00000000
,  // measure 17
00101000
00010000
01000000
10000000
,  // measure 18
00200000
01000000
00300000
00000000
00020000
00001000
00030000
00000000
,  // measure 19
00000200
00000010
00000300
00000000
00002000
00000001
00003000
00000000
,  // measure 20
00000200
00000000
00000000
00010000
00000300
00000000
00000000
00000000
00002000
00000000
00100000
00000000
00003000
00000000
00000000
00000000
,  // measure 21
10000000
00000000
01000000
00000000
00100000
01000000
00010000
00000000
,  // measure 22
00001000
00010000
00000110
00001001
,  // measure 23
00000100
00000010
00011000
00101000
,  // measure 24
10000000
01000000
00010000
00000000
00001000
00000010
00000001
00000000
,  // measure 25
00000100
00000000
00000010
00000000
00010000
00001000
00100000
00000000
,  // measure 26
00010000
10000000
01000000
00000000
00100000
00001000
01000000
00000000
,  // measure 27
00010000
00001000
00000000
00000100
00000010
00000000
00001000
00000001
,  // measure 28
00000010
00000000
00000100
00010000
00000010
00000000
00000100
00000010
,  // measure 29
00010000
00000000
00001000
00100000
00010000
00000000
10000000
00000000
,  // measure 30
11000000
00010000
01010000
00100000
,  // measure 31
00001000
00010000
00000100
00000010
,  // measure 32
00000002
00000000
00000203
00000000
,  // measure 33
00020300
00000000
00030020
00000000
,  // measure 34
00002030
00000000
00203000
00000000
,  // measure 35
02300000
00000000
00000000
00000000
23000000
00000000
00000000
00010000
,  // measure 36
30020000
00000000
00000000
00000000
00000000
00000000
00030000
00000100
,  // measure 37
00000010
00000101
00000010
00010100
,  // measure 38
00001000
00100000
00001000
00000000
00010000
00000000
01100000
00000000
,  // measure 39
10000000
01100000
00001000
00010010
,  // measure 40
00000100
00000000
00000000
00000001
00000000
00001000
00000000
00000000
00000000
00000010
00000000
00010000
00000000
00000000
00000000
01001000
,  // measure 41
00000000
00000000
01100000
00000000
00000000
11000000
00000000
00000000
01100000
00000000
00000000
00110000
00000000
00000000
00011000
00000000
,  // measure 42
00000000
00001010
00000000
00000000
00000110
00000000
00000000
00000101
00000000
00000000
00000010
00000000
00000001
00000000
00000010
00000000
,  // measure 43
00001000
00000000
00010000
00000000
01000000
20000000
00000000
00000000
00000000
00000000
00000000
00000000
00000000
00000000
00000000
00000000
,  // measure 44
00000000
00000000
00000000
00000000
,  // measure 45
00000000
00000000
00000000
00000000
,  // measure 46
00000000
00000000
00000000
00000000
,  // measure 47
00000000
00000000
00000000
00000000
,  // measure 48
00000000
00000000
00000000
30000000
;

//---------------dance-double - ----------------
#NOTES:
     dance-double:
     :
     Easy:
     5:
     0.269,0.453,0.244,0.170,0.090: // measure 1
00000000
00000000
00000000
00000000
,  // measure 2
00000000
00000000
00000000
00000000
,  // measure 3
00000000
00000000
00000000
00000000
,  // measure 4
00000000
00000000
00000000
00000000
,  // measure 5
02001000
00000000
03010000
00100000
,  // measure 6
00002000
00000000
00013000
00000010
,  // measure 7
00000200
00000000
00000301
00000010
,  // measure 8
00020000
00000000
00001000
00031000
,  // measure 9
01100000
00000000
00000000
01000000
00000000
00000000
00000000
00000000
10000000
00000000
00000000
00010000
00000000
00000000
00000000
00000000
,  // measure 10
00100000
00000000
00000000
01000000
00000000
00000000
00000000
00000000
00001000
00000000
00000000
00010000
00000000
00000000
00000000
00000000
,  // measure 11
00000110
00000000
00000000
00000110
00000000
00000000
00000000
00000000
00001001
00000000
00000000
00001001
00000000
00000000
00000000
00000000
,  // measure 12
00010100
00000000
00000000
00010100
00000000
00000000
00000000
00000000
00101000
00000000
00000000
00101000
00000000
00000000
00000000
00000000
,  // measure 13
01100000
10000000
01000000
00010000
,  // measure 14
00001000
00000010
00010000
00000100
,  // measure 15
00001100
00000001
00000100
00000010
,  // measure 16
00010000
00000000
00000000
00010000
00000000
00000000
00010000
00000000
00000000
00010000
00000000
00000000
00010000
00000000
00000000
00000000
,  // measure 17
11000000
01000000
00100000
00100000
,  // measure 18
00001000
00010000
00000010
00000100
,  // measure 19
00010000
00001000
00000100
00000010
,  // measure 20
00000001
00001000
00000010
00000100
,  // measure 21
00000001
00000010
00010000
00001000
,  // measure 22
00001000
00010000
00100000
10000000
,  // measure 23
00010000
10000000
01000000
00100000
,  // measure 24
00001000
00010000
00000010
00000100
,  // measure 25
00001001
00000010
00000110
00010000
,  // measure 26
00011000
00100000
01100000
00010000
,  // measure 27
10010000
01000000
01100000
00001000
,  // measure 28
00010000
00000010
00000100
00000001
,  // measure 29
00002000
00000000
00003100
00000001
,  // measure 30
00000101
00000000
00001000
00000100
,  // measure 31
00010100
00001000
00100000
00000000
,  // measure 32
02000000
03000000
20000000
30000000
,  // measure 33
00020000
00030000
00200000
00300000
,  // measure 34
00002000
00003000
00020000
00030000
,  // measure 35
00000020
00000000
00000030
00000000
00000200
00000000
00000300
00000100
,  // measure 36
00000200
00000000
00000000
00000300
,  // measure 37
00010000
00001000
00100000
00001000
,  // measure 38
00010000
10000000
00010000
01000000
,  // measure 39
00100000
00001000
00010000
00000010
,  // measure 40
00010010
00000000
00000000
00001000
00000000
00000000
00000000
00000000
00000000
00000100
00000000
00000000
00000000
00000000
00000000
00010000
,  // measure 41
00000000
00000000
10000000
00000000
00000000
01000000
00000000
00000000
00100000
00000000
00000000
00001000
00000000
00000000
00010000
00000000
,  // measure 42
00000000
00000010
00000000
00000000
00000100
00000000
00000000
00000001
00000000
00000000
00001000
00000000
00000000
00000000
00000100
00000000
,  // measure 43
00000000
00020200
00000000
00000000
00000000
00000000
00000000
00000000
,  // measure 44
00000000
00000000
00000000
00000000
,  // measure 45
00000000
00000000
00000000
00000000
,  // measure 46
00000000
00000000
00000000
00000000
,  // measure 47
00000000
00000000
00000000
00000000
,  // measure 48
00000000
00000000
00030300
00000000
;

//---------------dance-double - ----------------
#NOTES:
     dance-double:
     :
     Challenge:
     10:
     0.672,0.860,0.392,0.360,0.927: // measure 1
00000000
00000000
00000000
00000000
,  // measure 2
00000000
00000000
00000000
00000000
,  // measure 3
00000000
00000000
00000000
00000000
,  // measure 4
00000000
00000000
00000000
00000000
,  // measure 5
02002000
00000000
00000000
03000000
00000000
00000000
00013000
00001000
00010000
00000010
00000100
00000001
,  // measure 6
00000020
00000000
00000000
00000000
00001000
00000000
00000000
00000000
00010030
00001000
00000000
00000000
02000000
00000000
10000000
00000000
,  // measure 7
03200000
00000000
00000000
00001000
00000000
00000000
00310000
00000010
00000100
00000001
00000010
00010000
,  // measure 8
00002000
00000000
01000000
00000000
00203000
00000000
10000000
00300000
,  // measure 9
00110000
00000000
00000000
00011000
00000000
00000000
00001000
00000100
00000101
00000000
00000000
00000011
00000000
00000000
00000100
00001000
,  // measure 10
00001010
00000000
00000000
00010010
00000000
00010000
00001000
00000000
00100000
00000000
01000000
00000000
10000000
00000000
01000000
00000000
,  // measure 11
01010000
00000000
00000000
00011000
00000000
00000000
00000100
00001000
00001100
00000000
00000000
00000011
00000000
00000000
00000100
00000010
,  // measure 12
00000110
00000000
00000000
00001010
00000000
00000000
00010000
00001000
00012000
00000000
00000000
00000000
00203000
00000000
00000000
00000000
,  // measure 13
01000000
00000000
00000000
00000000
10300000
00100000
10000000
00200000
00010000
00000000
00000000
00300000
00100000
00010000
00100000
00010000
,  // measure 14
00002000
00000000
00000000
00000000
00010000
00000000
00000000
00000000
00003010
00000100
00000002
00000000
00001000
00000000
00000000
00000000
,  // measure 15
00000100
00000000
00000000
00000000
00000013
00000001
00000100
00000010
00002000
00010000
00000100
00000000
00000000
00000000
00000000
00000000
,  // measure 16
00013000
00100000
00000000
10000000
01000000
00000000
00100000
00001000
00000000
00010000
00000100
00000000
00000110
00000000
00000100
00000000
,  // measure 17
00000101
00000000
00000100
00000001
00000000
00001000
00000000
00000010
00010000
00000000
00001000
00100000
00000000
00010000
00100000
10000000
,  // measure 18
01000000
00010000
01000000
00000000
00000000
00010000
00000000
00001000
00000100
00000000
00000010
00000001
00000000
00000100
00000000
00000010
,  // measure 19
00010000
00001000
00000100
00000001
00000100
00001000
00010000
01000000
10000000
01000000
00010000
00001000
00000010
00000001
00000010
00001000
,  // measure 20
00010000
00000000
00100000
01000000
00000000
10000000
00000000
01000000
00100000
00000000
00010000
00100000
00000000
00000000
00000000
00000000
,  // measure 21
00001000
00000000
00010000
00000010
00000000
00000100
00000000
00000001
00001000
00000000
00000100
00000010
00000000
00000001
00000000
00000100
,  // measure 22
00000010
00010000
00001000
01000000
00100000
00001000
00010000
00100000
10000000
01000000
00010000
00001000
,  // measure 23
00000100
00000010
00000100
00000010
00000001
00000010
00000001
00000010
00001000
00000100
00001000
00000100
00001000
00000000
00000000
00000000
,  // measure 24
00100000
00000000
01000000
10000000
00000000
01000000
00000000
00100000
00001000
00000000
00010000
00000010
00000100
00000010
00000100
00000010
,  // measure 25
00000100
00000000
00000000
00000000
00000001
00000100
00000010
00001000
00000100
00000000
00001000
00010000
00001000
00100000
00010000
10000000
,  // measure 26
01000000
00000000
00010000
00001000
01000000
00000000
00100000
00001000
00010000
00000000
00001000
00000000
00000100
00000001
00001000
00000100
,  // measure 27
00000001
00000000
00000001
00000010
00000100
00001000
00000001
00000100
00000010
00001000
00000100
00010000
00001000
00010000
00001000
00100000
,  // measure 28
00010000
00000000
01000000
10000000
01000000
00000000
00100000
00010000
00001000
00000010
00001000
00000010
00000100
00000000
00000001
00000100
,  // measure 29
00001000
00000000
00010000
00100000
00001000
00000000
00100000
00000000
01000000
10000000
01000000
10000000
00100000
00010000
00100000
00010000
,  // measure 30
00001000
00000000
00000100
00000010
00000000
00000100
00000000
00000001
00001000
00000000
00000100
00010000
00000000
00001000
00000000
00100000
,  // measure 31
00010000
00000000
10000000
01000000
00000000
00100000
00000000
00010000
00001000
00000000
00010000
00000010
00000100
00000000
00000000
00000000
,  // measure 32
00000202
00000000
00000000
00000000
00000000
00000000
00000000
00000000
00000000
00000303
00000000
00000000
00010020
00000000
00001000
00000000
00010000
00000000
00001000
00000000
00010000
00000000
00001030
00000000
,  // measure 33
02020000
00000000
00000000
00000000
00000000
00000000
00000000
00000000
00000000
00000000
00000000
00000000
03030000
00000000
10000000
01000000
00202000
00000000
00000000
00000000
00000000
00000000
00003000
00000000
00020000
00000000
00000000
00000000
00300000
00000000
00031000
00000000
,  // measure 34
00000202
00000000
00000000
00000000
00000000
00000000
00000303
00000000
00020100
00001000
01000000
00001000
00100000
00001000
00130000
01000000
,  // measure 35
02020000
00000000
00000000
00000000
00000000
00000000
00000000
00000000
00000000
00000000
00000000
00000000
00000000
00000000
00000000
00000000
00000000
00000000
00030000
00000000
00000000
00000000
00000000
00000000
13000000
00010000
10000000
00010000
10000000
00010000
10000000
00010000
10000000
00010000
10000000
00010000
20000000
00000000
00000000
00000000
00000000
00000000
01000000
00000000
00000000
30020000
00000000
00000000
,  // measure 36
00002000
00000000
00000000
00000000
00000000
00000000
00030000
00003020
,  // measure 37
00001000
00010000
00000130
00000010
00000001
00000100
00000010
00010000
00001000
00010000
00001000
00100000
00010000
00100000
01000000
10000000
,  // measure 38
00010000
00100000
01000000
00100000
00001000
00010000
00000010
00010000
00001000
00000100
00000001
00001000
00000100
00000010
00000001
00000100
,  // measure 39
00000110
00000000
00000100
00010000
00000000
00001000
00000000
00100000
01000000
00000000
10000000
01000000
00000000
00100000
00000000
00010000
,  // measure 40
00100000
00001000
00000000
00010000
00000000
00000100
00001000
00000010
00000000
00000001
00000000
00000100
00001000
00000000
00000000
01010000
,  // measure 41
00000000
00000000
10100000
00000000
00000000
00110000
00000000
00000000
00001010
00000000
00000000
00000011
00000000
00000000
00001100
00000000
,  // measure 42
00000000
00110000
00000000
00000000
11000000
00000000
00000000
01100000
00000000
00000000
10010000
00000000
00010000
00000000
00011000
00000000
,  // measure 43
00001000
00000000
00001001
00000000
00000002
00000020
00000000
00000000
00000000
00000000
00000000
00000000
00000000
00000000
00000000
00000000
,  // measure 44
00000000
00000000
00000000
00000000
,  // measure 45
00000000
00000000
00000000
00000000
,  // measure 46
00000000
00000000
00000000
00000000
,  // measure 47
00000000
00000000
00000000
00000000
,  // measure 48
00000000
00000000
00000000
00000000
00000000
00000000
00000000
00000000
00000000
00000000
00000000
00000000
00000000
00000000
00000000
00000000
00000000
00000000
00000000
00000000
00000000
00000000
00000000
00000000
00000000
00000000
00000000
00000000
00000000
00000033
00000000
00000000
00020200
00000000
00000000
00000000
00000000
00000000
00000000
00000000
00000000
00000000
00000000
00000000
00000000
00000000
00000000
00000000
00030300
00000000
00000000
00000000
00000000
00000000
00000000
00000000
00000000
00000000
00000000
00000000
00000000
00000000
00000000
00000000
;

//---------------dance-single - ----------------
#NOTES:
     dance-single:
     :
     Beginner:
     1:
     0.073,0.113,0.000,0.000,0.000:
0000
0000
0000
0000
,
0000
0000
0000
0000
,
0000
0000
0000
0000
,
0000
0000
0000
0000
,
0010
0000
0000
0000
,
0001
0000
0000
0000
,
1000
0000
0000
0000
,
0100
0000
0000
0000
,
1000
0000
0010
0000
,
1000
0000
0000
0000
,
0001
0000
0100
0000
,
0001
0000
0000
0000
,
1000
0000
0000
0000
,
0001
0000
0010
0000
,
0100
0000
0000
0000
,
0001
0000
0000
0000
,
1000
0000
0000
0000
,
0010
0000
0000
0000
,
0100
0000
0000
0000
,
0010
0000
0000
0000
,
0001
0000
0000
0000
,
1000
0000
0000
0000
,
1000
0000
0000
0000
,
0001
0000
0000
0000
,
0001
0000
0000
0000
,
0010
0000
0000
0000
,
0100
0000
0000
0000
,
0010
0000
0000
0000
,
0001
0000
0000
0000
,
1000
0000
0000
0000
,
0100
0000
0000
0000
,
0010
0000
0100
0000
,
0001
0000
1000
0000
,
0100
0000
0010
0000
,
0001
0000
1000
0000
,
0100
0000
0000
0000
,
0010
0000
0000
0000
,
0100
0000
0000
0000
,
1000
0000
0000
0000
,
0001
0000
0000
0001
,
0000
0000
1000
0000
,
0100
0000
0000
0010
,
0000
0000
0100
0000
;
