#TITLE:皇居に向かって敬礼;
#SUBTITLE:;
#ARTIST:morigasigeru and ke;
#TITLETRANSLIT:koukyo;
#SUBTITLETRANSLIT:;
#ARTISTTRANSLIT:morigasigeru and ke;
#CREDIT:;
#BANNER:koukyo.png;
#BACKGROUND:koukyo-bg.png;
#LYRICSPATH:;
#CDTITLE:cdtitle.png;
#MUSIC:koukyo.mp3;
#OFFSET:-3.120;
#SAMPLESTART:53.000;
#SAMPLELENGTH:12.000;
#SELECTABLE:YES;
#BPMS:0.000=77.000;
#STOPS:;
#BGCHANGES:-4.000=koukyo.avi=1.000=1=1=0,
132.000=koukyo.avi=1.000=1=0=1,
99999=-nosongbg-=1.000=0=0=0 // don't automatically add -songbackground-
;

//---------------dance-single - BASIC----------------
#NOTES:
     dance-single:
     BASIC:
     Easy:
     1:
     0.052,0.069,0.009,0.000,0.000:
0000
0000
0000
0000
,
0000
0000
0000
0000
,
0000
0000
0000
0000
,
0000
0000
0000
0000
,
1000
0000
1000
0000
,
0001
0000
0001
0000
,
1000
0000
0010
0000
,
0001
0000
0010
0000
,
1000
0000
0000
0000
,
0001
0000
0000
0000
,
0010
0000
0000
0000
,
0100
0000
0000
0000
,
0001
0000
0000
0000
,
1000
0000
0000
0000
,
0010
0000
0000
0000
,
0100
0000
0000
0000
,
0001
0000
0001
0000
,
1000
0000
1000
0000
,
0010
0000
0000
0000
,
0100
0000
0000
0000
,
1000
0000
1000
0000
,
0001
0000
0001
0000
,
0010
0000
0000
0000
,
0100
0000
0000
0000
,
1000
0000
0001
0000
,
1000
0000
0100
0000
,
0001
0000
1000
0000
,
0001
0000
0100
0000
,
1000
0000
0000
0000
,
1000
0000
0000
0000
,
0001
0000
0000
0000
,
0001
0000
0000
0000
,
1001
0000
0000
0000
;

//---------------dance-single - TRICK----------------
#NOTES:
     dance-single:
     TRICK:
     Medium:
     2:
     0.128,0.138,0.052,0.034,0.000:
0000
0000
0000
0000
,
0000
0000
0000
0000
,
0000
0000
0000
0000
,
0000
0000
0000
0000
,
1000
1000
0100
0000
,
0001
0001
0100
0000
,
1000
1000
0010
0000
,
0001
0001
0100
0000
,
1000
1000
0010
0100
,
0001
0001
0010
0100
,
0100
0100
1001
0000
,
0100
0100
1001
0000
,
0001
0001
0010
0100
,
1000
1000
0010
0100
,
0001
0001
0100
0100
,
0100
0100
1001
0000
,
1000
0010
1001
0000
,
0200
0000
0300
0000
,
0001
0010
1001
0000
,
0200
0000
0300
0000
,
1000
0010
1000
0000
,
0001
0010
0001
0000
,
0020
0030
0100
0000
,
0200
0300
0100
0000
,
1000
0010
0100
0000
1000
0000
0000
0000
,
1000
0010
0100
0100
0100
0000
0000
0000
,
0001
0010
0100
0000
0001
0000
0000
0000
,
0001
0010
0100
0100
0100
0000
0000
0000
,
1000
0010
0100
0001
,
1000
0010
0100
0001
,
0001
0010
0100
1000
,
0001
0010
0100
1000
,
1001
0000
0000
0000
;

//---------------dance-single - BEGINNER----------------
#NOTES:
     dance-single:
     BEGINNER:
     Beginner:
     1:
     0.037,0.055,0.009,0.000,0.000:
0000
0000
0000
0000
,
0000
0000
0000
0000
,
0000
0000
0000
0000
,
0000
0000
0000
0000
,
1000
0000
0000
0000
,
0010
0000
0000
0000
,
0010
0000
0000
0000
,
0100
0000
0000
0000
,
0001
0000
0000
0000
,
0010
0000
0000
0000
,
0010
0000
0000
0000
,
0100
0000
0000
0000
,
1000
0000
0000
0000
,
0100
0000
0000
0000
,
0010
0000
0000
0000
,
0001
0000
0000
0000
,
1000
0000
0000
0000
,
1000
0000
0000
0000
,
0001
0000
0000
0000
,
0001
0000
0000
0000
,
1000
0000
0000
0000
,
0001
0000
0000
0000
,
1000
0000
0000
0000
,
0001
0000
0000
0000
,
0001
0000
0000
0000
,
0010
0000
0000
0000
,
0100
0000
0000
0000
,
1000
0000
0000
0000
,
0001
0000
0000
0000
,
0010
0000
0000
0000
,
1000
0000
0000
0000
,
0001
0000
0000
0000
,
1001
0000
0000
0000
;

//---------------dance-single - HEAVY----------------
#NOTES:
     dance-single:
     HEAVY:
     Hard:
     4:
     0.203,0.207,0.112,0.000,0.000:
0000
0000
0000
0000
,
0000
0000
0000
0000
,
0000
0000
0000
0000
,
0000
0000
0000
0000
,
1000
1000
1000
1000
0000
0000
1000
0000
,
0001
0001
0001
0001
1001
0000
0000
0000
,
0001
0001
0001
0001
0000
0000
0001
0000
,
1000
1000
1000
1000
1001
0000
0000
0000
,
1000
0010
1000
0000
0100
0100
0100
0000
,
0001
0010
0001
0010
0100
0000
0100
0000
,
0001
0001
0001
0000
1000
0010
0100
0000
,
1000
0010
1000
0100
1001
0000
0000
0000
,
0001
0010
0001
0000
0100
0100
0100
0000
,
1000
0010
1000
0010
0100
0000
0100
0000
,
1000
1000
1000
0000
0001
0010
0100
0000
,
0001
0010
0001
0100
1001
0000
0100
0000
,
1001
0000
0010
0100
0100
0000
1000
0010
,
0100
0100
0110
0100
,
1001
0000
0010
0100
0100
0000
0001
0100
,
1000
0100
0110
0000
,
1001
0000
0010
1000
0001
0000
0100
0000
,
0100
0000
0001
0100
0001
0000
0010
0000
,
1001
0000
1000
0000
0100
0000
0001
0010
,
1000
0100
1001
1001
,
0001
0010
0100
0000
0001
0010
1000
0000
,
1000
1000
0100
0100
0100
0000
0100
0000
,
1000
0010
0100
0000
1000
0010
0001
0000
,
0001
0001
0100
0100
0100
0000
0100
0000
,
1000
0010
0000
0100
0001
0000
0001
0000
,
0001
0010
0000
0100
1000
0000
1000
0000
,
1000
0001
0010
0100
0010
0000
1000
0000
,
1000
0001
0100
0010
0100
0000
0001
0000
,
1001
0000
0000
0000
;

//---------------dance-single - ONI----------------
#NOTES:
     dance-single:
     ONI:
     Challenge:
     7:
     0.424,0.413,0.379,0.000,0.357: // measure 1
0000
0000
0000
0000
,  // measure 2
0000
0000
0000
0000
,  // measure 3
0000
0000
0000
0000
,  // measure 4
0000
0000
0000
0000
,  // measure 5
1000
0000
0000
0010
1000
0000
0000
0100
1000
0000
0000
0000
1000
0000
0000
0000
1000
0000
0100
0000
0001
0000
0000
0000
1000
0000
0000
0000
0000
0000
0000
0000
,  // measure 6
0001
0000
0000
0010
0001
0000
0000
0100
0001
0000
0000
0000
0100
0000
0000
0000
1001
0000
0010
0000
0100
0000
0000
0000
0100
0000
0000
0010
0100
0000
0000
0000
,  // measure 7
0001
0000
0000
0010
0001
0000
0000
0100
0001
0000
0000
0000
0001
0000
0000
0000
0001
0000
0100
0000
1000
0000
0000
0000
0001
0000
0000
0000
0000
0000
0000
0000
,  // measure 8
1000
0000
0000
0010
1000
0000
0000
0100
1000
0000
0000
0000
0100
0000
0000
0000
1001
0000
0100
0000
0010
0000
0100
0000
0000
0000
0001
0000
0100
0000
0000
0000
,  // measure 9
1000
0000
0100
0000
0010
0000
0000
0000
1001
0000
0000
0000
0010
0000
0000
0000
0100
0000
0000
0010
0100
0000
0000
0000
0100
0000
0000
0000
0100
0000
0000
0000
,  // measure 10
0001
0000
1000
0000
0100
0000
0000
0000
0101
0000
0000
0001
0010
0000
0000
0000
1100
0000
0100
0000
0010
0000
0000
0000
0100
0000
0000
0000
0100
0000
0000
0000
,  // measure 11
0001
0000
0000
0010
0001
0000
0000
0000
0001
0000
0000
0100
1000
0000
0000
0000
1000
0000
0000
0000
0010
0000
0000
0000
0101
0000
0000
0000
0001
0000
0000
0000
,  // measure 12
1000
0000
0000
0100
0010
0000
0000
0000
0001
0000
0000
0010
0100
0000
0000
0000
1001
0000
0000
0000
0000
0000
0010
0000
0100
0000
0000
0000
0100
0000
0000
0000
,  // measure 13
0001
0000
0000
0000
0110
0000
0000
0000
1001
0000
0000
1000
0100
0000
0000
0000
0110
0000
0000
0000
0010
0000
0000
0000
0100
0000
0000
0000
0100
0000
0000
0000
,  // measure 14
1000
0000
0000
0100
0001
0000
0000
0000
0011
0000
0000
0001
0010
0000
0000
0000
0010
0000
0000
0000
1000
0000
0000
0000
0100
0000
0000
0000
0100
0000
0000
0000
,  // measure 15
1000
0000
0000
0000
1010
0000
0000
0000
1000
0000
0000
1000
0100
0000
0000
0000
0011
0000
0000
0000
0011
0000
0000
0000
0100
0000
0000
0000
1000
0000
0000
0000
,  // measure 16
0010
0010
0010
0100
1001
0000
0100
0000
,  // measure 17
1001
0000
0000
0000
1000
0000
0000
0000
0010
0000
0000
0010
0100
0000
0000
0000
0100
0000
0000
0000
1100
0000
0000
0000
0011
0000
0000
0000
1100
0000
0000
0000
,  // measure 18
0100
0000
0000
0010
0100
0000
0000
0010
0100
0000
0000
0000
0100
0000
0000
0000
0110
0000
1000
0000
0001
0000
0000
0000
0010
0000
0000
0010
0100
0000
0000
0000
,  // measure 19
1001
1000
0110
0001
0100
0100
1001
1001
,  // measure 20
0100
0000
0010
0000
0100
0000
0000
0000
0100
0000
0000
1000
0001
0000
0000
0000
0100
0000
0000
0000
0010
0000
0100
0000
0010
0000
0000
0000
0100
0000
0000
0000
,  // measure 21
1001
0000
0000
0000
0110
0000
0000
0000
0010
0000
0000
0001
1000
0000
0000
0000
0101
0000
0000
0000
0010
0000
0000
0000
0010
0000
0000
0000
1001
0000
0000
0000
,  // measure 22
0100
0000
0000
1000
0010
0000
0000
0000
0101
0000
0000
0000
0001
0000
0000
0010
1000
0000
0000
0000
0100
0000
0000
0000
0101
0000
0000
0000
0001
0000
0000
0000
,  // measure 23
1000
0000
0000
0010
0100
0000
0000
0000
0001
0000
0000
0100
0010
0000
0000
0000
1000
0000
0000
0000
0110
0000
0000
0000
0110
0000
0000
0000
1001
0000
0000
0000
,  // measure 24
0100
0000
0110
0000
0100
0000
0011
0000
0010
0100
1000
0001
0000
1000
0100
0000
,  // measure 25
1001
0000
0000
0000
0010
0100
0000
0000
1000
0100
0000
0000
0010
0001
0000
0000
0100
0000
0000
0000
0100
0000
0000
0000
1001
0000
0000
0000
1000
0000
0000
0000
,  // measure 26
0001
0010
0000
0000
1000
0001
0000
0000
0100
0010
0000
0000
0100
0000
0000
0000
0100
0000
0010
0000
0100
0000
0000
0000
1001
0000
0000
0000
0010
0000
0000
0000
,  // measure 27
1000
0000
0000
0010
0100
0000
0000
1000
0001
0000
0000
1000
0010
0000
0000
0000
0101
0000
0000
0000
1100
0000
0000
1000
0001
0000
0000
0000
0110
0000
0000
0000
,  // measure 28
0001
0000
0000
1000
0100
0000
0000
0010
1000
0000
0000
0000
0100
0000
0000
0000
1010
0000
0000
0000
0100
0000
0001
0000
0010
0000
0000
0000
1001
0000
0000
0000
,  // measure 29
1000
0000
0010
0100
0001
1000
0100
0010
0001
0010
1000
0100
0001
0010
0100
0000
,  // measure 30
0001
0000
0010
1000
0100
1000
0010
0001
0100
0010
1000
0100
0001
0010
1000
0000
,  // measure 31
0100
0000
0010
0001
0100
1000
0100
0010
0100
1000
0100
0001
0010
0100
1000
0000
,  // measure 32
1000
0000
0010
0100
0001
1000
0100
0010
0001
0100
1000
0100
0001
0010
0100
0000
,  // measure 33
1001
0000
0000
0000
;
