#TITLE:神居古潭;
#SUBTITLE:;
#ARTIST:naotyu-;
#TITLETRANSLIT:kamui kotan;
#SUBTITLETRANSLIT:;
#ARTISTTRANSLIT:;
#CREDIT:;
#BANNER:kamui kotan.png;
#BACKGROUND:kamui kotan-bg.png;
#LYRICSPATH:;
#CDTITLE:cdtitle.png;
#MUSIC:kamui kotan.mp3;
#OFFSET:-2.250;
#SAMPLESTART:122.260;
#SAMPLELENGTH:12.000;
#SELECTABLE:YES;
#BPMS:0.000=80.000;
#STOPS:;
#BGCHANGES:-3.000=kamui kotan.avi=1.000=1=1=0,
195.000=kamui kotan-bg.png=1.000=1=0=1,
99999=-nosongbg-=1.000=0=0=0 // don't automatically add -songbackground-
;

//---------------dance-single - BASIC----------------
#NOTES:
     dance-single:
     BASIC:
     Easy:
     2:
     0.104,0.144,0.100,0.020,0.000:
0000
0000
0000
0000
,
0000
0000
0000
0000
,
0000
0000
0000
0000
,
0000
0000
0000
0000
,
0000
0000
0000
0000
,
0000
0000
0000
0000
,
1000
0000
0000
0001
0000
0000
0100
0000
,
0000
0010
0000
0000
0100
0000
0000
0100
,
0000
0000
0001
0000
0000
1000
0000
0000
,
1001
0000
0000
0100
0000
0000
0010
0000
,
0000
1000
0000
0000
0100
0000
0000
0001
,
0000
0000
1001
0000
0000
0110
0000
0000
,
1001
0000
0000
1000
0000
0000
0000
0000
,
0100
0000
0000
0000
0000
0001
0000
0000
,
0000
0000
0010
0000
0000
0100
0000
0000
,
1000
0000
0000
0001
0000
0000
1000
0000
,
0000
0001
0000
0000
0100
0000
0000
0100
,
0000
0000
0010
0000
0000
0100
0000
0000
,
1001
0000
0000
1001
,
0000
0000
1001
0000
,
0000
1001
0000
0000
,
1000
0000
0000
0001
,
0000
0000
0000
0000
0100
0000
0000
0100
,
0000
0000
0100
0000
0000
0100
0000
0000
,
0020
0000
0000
1030
0000
0000
0100
0000
,
0000
1001
0000
0000
0020
0000
0000
0031
,
0000
0000
0100
0000
0000
1001
0000
0000
,
0010
0000
0000
0010
0000
0000
0100
0000
,
0000
1001
0000
0000
1000
0000
0000
1000
,
0000
0000
0001
0000
0000
1001
0000
0000
,
0001
0000
0000
1000
,
0000
0000
0001
0000
,
0000
1000
0000
0000
,
0001
0000
0000
1000
0000
0000
0100
0000
,
0000
0010
0000
0000
0001
0000
0000
1000
,
0000
0000
0000
0000
,
1001
0000
0000
0010
0000
0000
0010
0000
,
0000
1001
0000
0000
0100
0000
0000
0000
,
0000
0100
0000
0000
,
0200
0000
0000
0000
,
0300
0000
0000
0000
0001
0000
0000
1000
,
0000
0001
0000
0000
,
1000
0000
0000
0001
0000
0000
1000
0000
,
0000
0000
0000
0000
0001
0000
0000
1000
,
0000
0000
0100
0000
0000
1000
0000
0000
,
0001
0000
0000
0100
0000
0000
1000
0000
,
0000
0010
0000
0000
0010
0000
0000
0010
,
0000
0000
0010
0000
0000
0010
0000
0000
,
1001
0000
0000
0000
;

//---------------dance-single - TRICK----------------
#NOTES:
     dance-single:
     TRICK:
     Medium:
     4:
     0.207,0.239,0.126,0.020,0.000:
0000
0000
0000
0000
,
0000
0000
0000
0000
,
0000
0000
0000
0000
,
0000
0000
0000
0000
,
0000
0000
0000
0000
,
0000
0000
0000
0000
0000
0000
0100
0100
,
1000
0000
0100
0010
0000
0001
0100
0000
,
1000
0010
0000
0100
0001
0000
0100
0010
,
0000
0001
0001
0000
1000
1000
0000
0100
,
1001
0000
0010
0100
0000
0100
0010
0000
,
0010
1000
0000
1000
0100
0000
0010
0001
,
0000
0100
1001
0000
0010
1001
0000
0100
,
1001
0000
1000
0100
0000
0000
0100
0000
,
0100
0010
0000
0010
0000
0010
0000
0000
,
0000
0000
0001
0000
0001
1000
0000
1000
,
1000
1000
0000
0001
0001
0000
1000
1000
,
0000
0001
0100
0000
0100
0100
0000
0100
,
1000
0000
0010
0010
0000
0100
0000
0000
,
1001
0000
0010
0100
0100
0000
1001
0000
,
0010
0100
0100
0000
1001
0000
0100
0010
,
0010
0000
1001
0000
0001
0100
1000
0000
,
1000
0000
0000
0110
0000
0000
0001
0000
,
1000
1000
0100
0001
0001
0000
0000
0010
,
0000
0000
0100
0000
0000
1000
0000
0000
,
2000
0000
0001
3001
0000
0100
1000
0000
,
1001
1001
0000
0000
0002
0000
1000
1003
,
0000
0100
0001
0000
1001
1001
0000
0000
,
0010
0000
0010
1000
0000
0100
0001
0000
,
0010
1001
0000
0000
0100
0000
1000
1000
,
0000
0001
0001
0000
0000
1001
0000
0000
,
0001
0001
0001
0000
0000
0000
1000
1000
,
1000
0000
0000
0000
0001
0001
0001
0000
,
0000
0000
1000
1000
1000
0000
0000
0000
,
0001
0000
1000
0100
0000
0000
0100
0100
,
0010
0001
0000
0000
0001
0001
0100
1000
,
0000
0000
0010
0010
1000
0100
0000
0001
,
1001
0000
0010
0010
0000
0010
0010
0000
,
0110
1001
0000
0000
0100
0000
0010
0010
,
0000
0000
0100
0000
0001
0010
1000
0100
,
0200
0000
0000
0000
,
0300
0000
0000
0000
0001
0000
0001
1000
,
0000
1000
1000
0000
0000
1000
0000
0000
,
1000
0000
1000
0001
0000
0001
0001
0000
,
0000
0001
0000
0000
0001
0000
0100
0010
,
0000
0100
0010
0000
0100
1000
0010
0010
,
1001
0000
0001
0100
0000
0100
1000
0000
,
0010
0010
0000
0000
0010
0000
0010
0010
,
0000
0010
0010
0000
0010
0010
0000
1000
,
0001
0000
0000
0000
;

//---------------dance-single - HEAVY----------------
#NOTES:
     dance-single:
     HEAVY:
     Hard:
     7:
     0.353,0.351,0.246,0.013,0.236:
0000
0000
0000
0000
,
0000
0000
0000
0000
,
0000
0000
0000
0000
,
0000
0000
0000
0000
,
0000
0000
0000
0000
,
0000
0000
0000
0000
0000
0000
0100
0100
,
0010
0000
0000
1000
0100
0000
0010
0000
0000
0001
0100
0000
0010
0000
0010
0000
,
1000
0000
0100
0000
0001
0000
0010
0000
0001
0000
0000
0001
0100
0000
0010
0000
,
0000
1000
0100
0000
0010
0000
0001
0000
1000
0000
0100
0000
0001
0000
0100
0000
,
1000
0000
0000
0000
0010
0000
0100
0000
0000
0010
1000
0000
0100
0000
0010
0000
,
0001
0000
1000
0000
0100
0000
1000
0000
0001
0000
0000
0010
0100
0000
1000
0000
,
0000
0010
0100
0000
0001
0000
0010
0000
0100
0000
1001
0000
0010
0000
0100
0000
,
1001
0000
0000
1000
0100
0000
0100
0000
0000
0100
0010
0000
0001
0000
0000
0001
,
0010
0000
0010
0000
0010
0100
1000
0100
0001
0100
2000
0000
0000
0000
3000
0000
,
1000
0010
0100
0000
0001
0000
0001
0000
0001
0000
1000
0000
1000
0000
1000
0000
,
1000
0100
0010
0000
0001
0000
0001
0000
0001
0100
0010
0000
1000
0000
1000
0000
,
1000
0001
0100
0000
0100
0000
0100
0000
0100
0010
0100
0000
0100
0000
0100
1000
,
0001
0000
0010
0000
0010
0000
1000
0100
0001
0000
0010
0000
0000
0010
0100
0000
,
1001
0000
0000
0010
0100
0000
0100
0000
0000
0100
0010
0000
1001
0000
0000
0010
,
0100
0000
0100
0000
0000
0100
0010
0000
1001
0000
0000
0010
0100
0000
0100
0000
,
0000
0100
0010
0000
1001
0000
0000
0010
0100
0000
0100
0000
0000
0100
0010
0000
,
1001
0000
0000
0000
1001
0000
0110
0000
0000
0100
0010
0000
0001
0000
0000
0000
,
1000
0000
1000
0000
0100
0000
0001
0000
0001
0000
0000
0010
0100
0000
1000
0000
,
0000
0100
0010
0000
0001
0000
0000
0100
0010
0000
1000
0000
1000
0000
1000
0000
,
1001
0000
0000
0010
0100
0000
1001
0000
0000
0100
0100
0000
1001
0000
0000
0000
,
1001
0000
1001
0000
1000
0000
1000
0000
1001
0000
0000
0010
0100
0000
1001
0000
,
0000
0100
0100
0000
1001
0000
0000
0000
1001
0000
1001
0000
0001
0000
0001
0000
,
0010
0000
0010
0100
0000
0000
1000
0000
0000
1000
0100
0000
0010
0000
0000
0010
,
0100
0000
1001
0000
0100
0000
0100
0000
0100
0000
0000
0100
1000
0000
1001
0000
,
0000
0100
0001
0000
1001
0000
0000
0010
0100
0000
1001
0000
0000
0000
0000
0000
,
0001
0010
0001
0100
1000
0100
0001
0010
,
0001
0100
1000
0010
0001
0010
1000
0100
,
1000
0010
0001
0010
1000
0100
0001
0010
,
0001
0000
1000
0000
1000
0000
1000
0000
0000
0000
0000
0100
0010
0000
0001
0000
,
0001
0000
0001
0000
0000
0000
0000
0100
0010
0000
1000
0000
1000
0000
1000
0000
,
0000
0000
0000
0100
0010
0000
0001
0000
0001
0000
0001
0000
0100
0000
1000
0000
,
1001
0000
0000
0010
0100
0010
0100
0000
0000
0010
0100
0010
0100
0000
0000
0010
,
0100
0010
1001
0000
0100
0000
0100
0000
0100
0000
0000
0100
0010
0000
0001
0000
,
0000
0000
0001
0000
0100
0000
0000
0010
1000
0000
0100
0000
0100
0000
0001
0000
,
0020
0000
0000
0000
,
1030
0100
0001
0000
0001
0000
1000
0000
1001
0000
0000
0010
0100
0000
1001
0000
,
0000
0010
0100
0000
1001
0000
0000
0000
0100
1000
0001
0000
0010
0000
1000
0000
,
1001
0000
0000
0010
0100
0000
1001
0000
0000
0010
0100
0000
1001
0000
0000
0000
,
1000
0010
0001
0000
0100
0000
1000
0000
1001
0000
0000
0100
0010
0000
1001
0000
,
0000
0100
0010
0000
1001
0000
0000
0000
0100
0001
0010
0000
0100
0000
0100
0000
,
1001
0000
0000
0010
0001
0000
1001
0000
0001
0000
0100
0000
1000
0000
0000
1000
,
0010
0000
1001
0000
0000
0000
0000
0000
0010
0000
0000
0010
0001
0000
0001
0000
,
0000
0100
1000
0000
1000
0000
0000
0010
0001
0000
0001
0000
0010
0001
0100
1000
,
0010
0000
0000
0000
;

//---------------dance-single - ONI----------------
#NOTES:
     dance-single:
     ONI:
     Challenge:
     8:
     0.473,0.526,0.638,0.020,0.382: // measure 1
0000
0000
0000
0000
,  // measure 2
0000
0000
0000
0000
,  // measure 3
0000
0000
0000
0000
,  // measure 4
0000
0000
0000
0000
,  // measure 5
0000
0000
0000
0000
,  // measure 6
0000
0000
0000
0000
0000
0000
0100
0100
,  // measure 7
0010
0000
0000
1000
0100
0000
0010
0000
0000
0001
0100
0000
0010
0000
0010
0000
,  // measure 8
1100
0000
0100
0000
0011
0000
0010
0000
1000
0000
0000
0001
0100
0000
0010
0000
,  // measure 9
0000
1000
0100
0000
0011
0000
0001
0000
1100
0000
0100
0000
1001
0000
0100
0000
,  // measure 10
1001
0000
0000
0000
0010
0000
0100
0000
0000
0010
1000
0000
0100
0000
0010
0000
,  // measure 11
0011
0000
0110
0000
0110
0000
1100
0000
0001
0000
0000
0010
0100
0000
1000
0000
,  // measure 12
0000
0010
0100
0000
1001
0000
0010
0000
0100
0000
1001
0000
0010
0000
0100
0000
,  // measure 13
1001
0000
0000
1000
0100
0010
0100
0000
0000
0100
0010
0000
0001
0000
0000
0001
,  // measure 14
0010
0100
0010
0000
0010
0100
1000
0100
0001
0100
2000
0000
0000
0000
3000
0000
,  // measure 15
1000
0010
0100
0000
0001
0010
1000
0010
0001
0000
1000
0010
0001
0010
1000
0000
,  // measure 16
1000
0100
0010
0000
0001
0010
0001
0000
0011
0000
0110
0000
1100
0000
1001
0000
,  // measure 17
0110
1010
0101
0011
1001
0011
1100
1001
,  // measure 18
1010
0000
0101
0000
1001
0000
1000
0100
0001
0000
0010
0000
0000
0010
0100
0000
,  // measure 19
1001
0000
0000
0010
0100
0000
0100
0010
0010
0000
0010
0000
1001
0000
0000
0010
,  // measure 20
0100
0000
0100
0010
0010
0000
0010
0000
1001
0000
0000
1000
0010
0000
0001
0100
,  // measure 21
0100
0000
1000
0000
1001
0000
0000
0001
0010
0000
1000
0100
0100
0000
0001
0000
,  // measure 22
1001
0000
0000
0000
1001
0000
0110
0000
0000
0100
0010
0000
0001
0000
0100
0000
,  // measure 23
1000
0000
1100
0000
0100
0000
0101
0000
0001
0010
0100
1000
1001
0000
1000
0010
,  // measure 24
0100
0001
1001
0000
0001
0010
0100
1000
0010
0100
0001
0000
0100
0000
1000
0000
,  // measure 25
1001
0000
0000
0010
0100
0000
1001
0000
0000
0100
0010
0000
1001
0000
0110
0000
,  // measure 26
1001
0010
0100
0000
1001
0000
0010
0000
1001
0000
0000
0010
0100
0000
1001
0000
,  // measure 27
0000
0100
0010
0000
1001
0000
0110
0000
1001
0010
0100
0000
1001
0000
1000
0000
,  // measure 28
0100
0000
0100
0010
0001
0000
0001
0000
0100
0010
1000
0000
1000
0000
0010
0000
,  // measure 29
0010
0100
1001
0000
0100
0000
0100
0000
0100
0000
0000
0100
1000
0000
1001
0000
,  // measure 30
0000
0010
0001
0000
1001
0000
0000
0010
0100
0000
1001
0000
0100
0000
0010
0000
,  // measure 31
0001
0010
0100
1000
0100
0010
0001
0100
0010
0100
0001
0010
0100
1000
0100
0010
,  // measure 32
0001
1000
0010
0100
0001
0100
0010
1000
0100
0010
0001
0010
0100
1000
0010
0100
,  // measure 33
0010
1000
0100
0010
0001
0010
0100
1000
0010
0100
0010
1000
0100
0010
0001
0010
,  // measure 34
0100
0000
1000
0000
1100
0000
0011
0000
0001
0000
0000
0010
0001
0000
0001
0000
,  // measure 35
0101
0000
1010
0000
1000
0000
0000
1000
0100
0000
1000
0000
1100
0000
0011
0000
,  // measure 36
0001
0000
0000
0001
0100
0000
0001
0000
0101
0000
1010
0000
1000
0000
0110
0000
,  // measure 37
1001
0000
0000
0010
1000
0100
0001
0000
0000
0010
0001
0100
1000
0000
0000
0010
,  // measure 38
0100
0010
1001
0000
0110
0000
1001
0000
1001
0000
0000
0100
0010
0000
1001
0000
,  // measure 39
0000
0000
0001
0000
0100
0000
0010
0010
1000
0000
0100
0000
0100
0001
0010
0000
,  // measure 40
2002
0000
0000
3003
,  // measure 41
1000
0100
0001
0000
0001
0000
1000
0000
1001
0000
0000
1000
0100
0010
1001
0000
,  // measure 42
0000
0001
0100
0010
1001
0000
0000
0000
0100
1000
0010
0000
1001
0000
0110
0000
,  // measure 43
1001
0000
0000
0001
0010
0100
1001
0000
0000
1000
0010
0100
1001
0000
0000
0000
,  // measure 44
0100
0001
0010
0000
1001
0000
0110
0000
1001
0000
0000
0000
0110
0000
1001
0000
,  // measure 45
0000
0000
0110
0000
1001
0000
0000
0000
0100
0001
0010
0000
1001
0000
0110
0000
,  // measure 46
1001
0000
0000
1000
0010
0000
1001
0000
1100
0000
0001
0100
1000
0000
0000
1000
,  // measure 47
0010
0000
1001
0000
0000
0000
0000
0000
1001
0100
0010
0001
0010
0100
1001
0010
,  // measure 48
0100
1000
0100
0010
1001
0010
0100
1000
0100
0010
1001
0100
1000
0010
0001
0100
,  // measure 49
1000
0000
0000
0000
;
