#TITLE:海神寓拝;
#SUBTITLE:;
#ARTIST:sasakure.UK;
#TITLETRANSLIT:;
#SUBTITLETRANSLIT:;
#ARTISTTRANSLIT:;
#CREDIT:;
#BANNER:kaijin.png;
#BACKGROUND:kaijin-bg.png;
#LYRICSPATH:;
#CDTITLE:cdtitle.png;
#MUSIC:kaijin.mp3;
#OFFSET:-3.620;
#SAMPLESTART:28.800;
#SAMPLELENGTH:13.000;
#SELECTABLE:YES;
#BPMS:0.000=200.000,240.000=190.000,240.250=185.000,240.500=180.000,240.750=175.000,241.000=170.000,241.250=165.000,241.500=160.000,241.750=150.000,242.000=140.000,242.250=130.000,242.500=120.000,242.750=105.000,243.000=95.000,243.250=75.000,243.500=65.000,243.750=50.000,244.000=200.000,392.000=100.000,416.000=200.000;
#STOPS:244.000=2.090
;
#BGCHANGES:-12.000=kaijin.avi=1.000=1=1=0,
472.000=kaijin-bg.png=1.000=1=0=1,
99999=-nosongbg-=1.000=0=0=0 // don't automatically add -songbackground-
;

//---------------dance-single - BASIC----------------
#NOTES:
     dance-single:
     BASIC:
     Easy:
     6:
     0.271,0.360,0.161,0.081,0.000:
0000
0000
0000
0000
,
0000
0000
0000
0000
,
0000
0000
0000
0000
,
1000
0000
0001
0010
,
0100
0001
0100
0010
,
1000
0001
0100
0010
,
0001
0000
1000
0010
,
0100
0001
0001
0100
,
0010
1000
0100
0001
,
1001
0000
1000
0010
,
0100
0001
0100
0100
,
0010
1000
0001
1000
,
0100
0000
0001
0010
,
0100
0100
0010
1000
,
0001
0100
0000
0000
,
1000
0000
0000
0010
,
0000
0000
1000
0000
,
0000
0001
0000
0000
,
0100
0000
0000
0010
,
0000
0000
1000
0000
,
0000
0001
0000
0000
,
1000
0000
0000
0001
,
0000
0000
0010
0000
,
0000
0001
0000
0000
,
0100
0000
0000
0010
,
0000
0000
1000
0000
,
0000
0001
0000
0000
,
1000
0000
0000
0001
0000
0000
0100
0000
,
0000
0010
0000
0000
0100
0000
0000
0001
,
0000
0000
1000
0000
0000
0010
0000
0000
,
0100
0000
0000
0100
0000
0000
0010
0000
,
0000
0010
0000
0000
0001
0000
0000
1000
,
0000
0000
0001
0000
0000
1000
0000
0000
,
0010
0000
0000
0100
0000
0000
0100
0000
,
0000
0001
0000
0000
1000
0000
0000
0001
,
0000
0000
0100
0000
0000
0010
0000
0000
,
1000
0000
0000
0100
0000
0000
0010
0000
,
0000
0100
0000
0000
1000
0000
0000
0001
,
0000
0000
1000
0000
0000
1001
0000
0000
,
1000
1000
0010
0010
,
0010
0100
0001
0001
,
1000
0010
0010
0100
,
0001
0001
0001
1000
,
0010
0010
0100
0100
,
0001
1000
1000
0010
,
1000
1000
0001
0100
,
0100
0010
1000
1000
,
0001
0100
0100
0000
,
1001
0000
1001
0000
,
1001
0000
0110
0000
,
1001
0000
1001
0000
,
1000
0000
0002
0000
,
2003
0000
3010
0000
,
0000
2000
0000
3002
,
0000
0003
2000
0000
,
3002
0000
0103
0000
,
0000
0020
0000
0230
,
0000
0300
0002
0000
,
2003
0000
3010
0000
,
0000
0100
0000
0001
,
2002
0000
0000
0000
,
3003
0000
0000
0000
,
0001
0000
0000
1000
,
0000
0000
0010
0000
,
0000
0100
0000
0000
,
0001
0000
0000
1000
,
0000
0000
0010
0000
,
0000
0000
0000
0000
,
1000
0000
0000
0001
,
0000
0000
0100
0000
,
0000
0010
0000
0000
,
0001
0000
0000
0100
,
0000
0000
1000
0000
,
0000
0000
0000
0000
,
1001
0000
0000
1000
,
0000
0000
0010
0000
,
0001
0100
0001
1000
,
0020
0000
0031
0100
,
1000
0010
0001
0000
,
0000
0000
0000
0000
,
1000
0000
0000
1001
,
0000
0000
0001
0000
,
0000
1001
0000
0000
,
1000
0000
0000
1010
,
0000
0000
0001
0000
,
0000
0101
0000
0000
,
1000
0001
0100
0100
,
0010
1000
0100
1000
,
0010
0010
0001
0100
,
0010
0000
0100
0010
,
0010
0010
1000
0000
,
0000
0001
0000
0000
,
1001
0000
0000
0110
,
0000
0000
0011
0000
,
0000
1100
0000
0000
,
1001
0000
0000
0110
,
0000
0000
1001
0000
,
0000
1001
0000
0000
,
1001
0000
0000
0001
0000
0000
1000
0000
,
0000
0010
0000
0000
0100
0000
0000
0010
,
0000
0000
1000
0000
0000
0100
0000
0000
,
0001
0000
0000
0010
0000
0000
0010
0000
,
0000
0100
0000
0000
0100
0000
0000
1000
,
0000
0000
1000
0000
0000
1001
0000
0000
,
1001
0000
0100
0000
,
0010
1000
0100
0010
,
0010
0001
0000
1000
,
0001
0000
0100
0010
,
0010
1000
0001
0100
,
1000
0010
0001
0100
,
1000
0000
0001
0100
,
0010
0010
1000
0100
,
0001
1000
0000
0010
,
0001
0000
0100
1000
,
0010
0010
0001
0100
,
0000
1000
0001
1000
,
1001
0000
0000
0000
;

//---------------dance-single - TRICK----------------
#NOTES:
     dance-single:
     TRICK:
     Medium:
     8:
     0.437,0.540,0.360,0.155,0.000:
0000
0000
0000
0000
,
0000
0000
0000
0000
,
0000
0000
0000
0000
,
1010
0000
0000
0000
0001
0100
0010
0000
,
0100
0000
1000
0000
0100
0010
0001
0000
,
1000
0001
0010
1000
,
0100
0000
0000
0000
1000
0100
0010
0000
,
0100
0010
0001
0100
,
0010
0100
1000
0000
0100
0000
0001
0000
,
1001
0000
0000
0000
1000
0010
0100
0000
,
0100
0011
0100
0110
,
0010
0100
0001
0100
,
1000
0000
0000
0000
0001
1000
0010
0000
,
0100
0010
0100
0000
1010
0000
1001
0000
,
0101
1001
0000
0000
,
1000
0000
0100
0010
,
0001
0100
1000
0000
,
0010
0001
0000
0010
,
0100
0000
0010
1000
,
0000
0100
0001
0000
,
0010
1000
0000
1000
,
0001
0000
0100
0010
,
0001
0010
1000
0000
,
0010
0001
0000
0001
,
0100
0000
0100
0010
,
0000
0010
1000
0000
,
1000
0000
0001
0010
0100
1000
0001
1000
,
0001
0100
0000
0100
0010
0000
0010
1000
,
0000
1000
0100
0000
0100
0000
0010
0000
,
0001
1000
0010
0010
,
0100
0001
0000
0001
0010
0000
0010
0001
,
0000
0001
1000
0000
0010
0000
0100
0000
,
0100
0001
1000
1000
,
0010
1000
0000
1000
0100
0000
0100
0001
,
0000
0001
0010
0000
1000
0000
0100
0000
,
1000
1000
0001
0100
,
0010
1000
0000
1000
0100
0000
0010
0001
,
0000
0001
1000
0000
1000
0010
0000
0010
,
1000
0000
1000
0001
0000
2002
0000
0000
,
3003
0000
0001
0100
0000
0010
0000
0000
,
1000
0100
0000
0010
0000
0000
0001
0010
,
0000
1000
0000
0000
1000
0010
0000
0001
,
0000
0000
0001
0010
0000
0100
0000
0000
,
1000
0010
0000
0100
0000
0000
1000
0010
,
0000
0010
0000
0000
0001
0010
0000
0010
,
0000
0000
1000
0001
0000
1000
0000
0000
,
0001
1000
0000
0001
0000
0000
1000
0100
,
0000
0001
0000
0000
0001
0100
0000
1000
,
1001
0000
1001
0000
,
1001
0000
0110
0000
,
1001
0000
1001
0000
,
1000
0000
0102
0103
,
0120
1030
0010
1000
,
0100
2001
3010
0201
,
0301
0000
1020
0130
,
1002
1003
0100
0010
,
0001
1200
1300
1020
,
0031
0000
0102
0103
,
2100
3010
0010
1000
,
0100
0001
0100
0010
,
2002
0000
0000
0000
,
3003
0000
0000
0000
0000
0000
1000
0100
,
0001
0000
0000
1000
,
0000
0010
0100
0000
,
0001
0010
0100
1000
,
0010
0000
0001
0101
,
0100
1100
1001
0000
,
0000
0000
0000
0000
0000
0000
0001
0010
,
1000
0000
0000
0001
,
0000
0010
0100
0000
,
1000
0010
0100
0001
,
0010
0000
1000
1100
,
0100
0101
1001
0000
,
0000
0000
0000
0000
,
1001
0000
0000
2000
,
0000
3002
0203
0000
,
0320
2030
3100
0001
,
0020
0000
1030
0100
,
1000
0010
1001
0000
,
0000
0000
0000
0000
,
1000
0001
0100
0000
0010
0000
1001
0000
,
0000
0000
0000
0000
0001
1000
0100
0000
,
0010
1001
0000
0000
,
1000
0010
0100
0000
1000
0000
1010
0000
,
0000
0000
0000
0000
0001
0010
0100
0000
,
0001
0101
0000
0000
,
1000
0000
0001
0000
0100
0010
0100
0000
,
0010
0000
1000
0000
0100
1000
0010
0000
,
1000
1010
0001
0101
,
0020
0000
0130
0010
,
0010
0001
0100
0000
,
0000
1001
0000
0000
,
1000
0010
0100
0000
0100
0000
0001
0010
,
0100
0000
0100
0000
0001
1000
0100
0000
,
0100
0000
1000
0001
0100
0000
0100
0000
,
1001
0000
0000
0110
,
0000
0000
1001
0010
,
0100
0000
1001
0000
0000
1001
0000
0000
,
1001
0000
0010
0001
0000
0100
1000
0000
,
1000
0010
0000
0010
0100
0000
0100
0010
,
0000
0010
1000
0000
1000
0100
0000
0100
,
1000
0000
1000
0001
0000
0001
0010
0000
,
0010
0100
0000
0100
0100
0000
0100
0100
,
0000
0100
0100
0000
0000
1001
0000
0000
,
1001
0000
0000
0000
0100
0010
0200
0000
,
0310
1010
1000
1000
,
0100
0101
0010
1000
,
0100
0000
0000
0000
0010
0100
0020
0000
,
0130
0011
0001
0001
,
1010
1000
0001
0100
,
1000
0000
0000
0000
0001
0100
0010
0000
,
0210
0310
0101
0100
,
1000
0010
1010
0010
,
0001
0000
0110
2000
,
3100
0000
0100
0010
0001
0000
0100
0010
,
0100
1000
0001
1000
,
1001
0000
0000
0000
;

//---------------dance-single - HEAVY----------------
#NOTES:
     dance-single:
     HEAVY:
     Hard:
     9:
     0.535,0.792,0.360,0.186,0.000:
0000
0000
0000
0000
,
0000
0000
0000
0000
,
0000
0000
0000
0000
,
1010
0000
1000
0001
0200
0000
0310
0000
,
0100
0001
1000
0000
0201
0000
0301
1000
,
0100
0101
0110
1000
,
0100
0000
0000
0000
1000
0100
0020
0000
,
0031
0100
0010
0000
1200
0000
1300
0001
,
0100
1010
0010
0100
,
1001
0000
0000
0000
1000
0010
0200
0000
,
0310
0000
0100
0001
0010
0000
0201
0000
,
0310
0001
1000
0000
0110
0000
0100
0000
,
1000
0000
0000
0000
0001
0100
0020
0000
,
1030
0100
0001
0000
0021
0000
0130
0001
,
0010
1001
0000
0000
,
1001
0000
0200
0320
,
2030
0000
3200
0000
0302
0000
0003
0100
,
0010
0001
0100
0010
,
0200
0000
0300
0010
1000
0000
1000
0000
,
0000
0010
0100
0000
0001
0000
0000
0100
,
0010
0000
1000
0000
0000
0001
1000
0000
,
0002
0000
0203
0320
,
2030
0000
3200
0000
0302
0000
0003
0100
,
0010
1000
0100
1000
,
0200
0000
0300
0010
0100
0000
0010
0000
,
0000
1000
0010
0000
0001
0000
0000
0010
,
1000
0000
0001
0010
0100
1000
0001
1000
,
0001
0000
0100
0000
0000
0100
0010
0000
,
1000
0000
0000
0001
0100
0000
0010
0000
,
0000
0100
1000
0000
0010
0000
0000
0010
,
0001
0000
0100
0000
0000
0100
0010
0000
,
1000
0000
0000
0100
0010
0000
1000
0000
,
0000
0010
0001
0000
1000
0000
0000
0010
,
0001
0000
1000
0000
0000
0010
0100
0000
,
0001
0000
0000
0010
1000
0000
0001
0000
,
0000
0010
1000
0000
0001
0000
0100
0000
,
0010
1000
0000
1000
0100
0000
0010
0001
,
0000
0001
1000
0000
1000
0010
0000
0010
,
1000
0000
1000
0001
1000
0010
0100
0001
,
1000
0001
0100
0010
0000
0010
1000
0000
,
1000
0100
0000
0100
0010
0000
0010
1000
,
0000
1000
0001
0000
0001
0100
0000
0100
,
0001
0000
0001
1000
0000
1000
0010
0000
,
0010
0001
0000
0001
0100
0000
0100
1000
,
0000
1000
0100
0000
0100
0001
0000
0001
,
0010
0000
0010
0001
0000
0001
1000
0000
,
1000
0001
0000
0001
0010
0000
0010
1000
,
0000
1000
0100
0000
0100
0001
0000
0001
,
1000
0010
0100
0010
0100
0000
0001
1000
,
0001
0000
0100
0010
0100
0000
0001
1000
,
0001
0000
0001
0010
0100
0010
1000
0001
,
1000
0000
0000
0000
1000
0010
0100
0000
,
0001
0010
0100
0000
1100
0000
0011
0000
,
1100
0000
0001
1000
0010
0000
1000
0001
,
0010
0000
0000
0000
1000
0100
0010
0000
,
0001
0100
0010
0000
1010
0000
0101
0000
,
1010
0000
0001
0100
0010
0000
1000
0100
,
0010
0000
0000
0000
1000
0010
1000
0000
,
0001
0010
0001
0000
1001
0000
0110
0000
,
1001
0000
0001
1000
0001
0000
1000
0001
,
2002
0000
0000
0000
,
3003
0000
0000
0000
0000
0000
1000
0100
,
0001
0000
0000
1000
,
0000
0010
0100
0000
,
0001
0011
0100
1100
,
1000
0000
0001
0101
,
0100
1100
1001
0000
,
0000
0000
0000
0000
0000
0000
0001
0010
,
1000
0000
0000
0001
,
0000
0010
0100
0000
,
1000
1010
0100
0101
,
0001
0000
1000
1100
,
0100
0101
1001
0000
,
0000
0000
0000
0000
,
1001
0000
0000
2000
,
3010
0201
2300
0000
,
3020
0230
2300
3001
,
1020
0000
0130
0100
,
0100
0010
1001
0000
,
0000
0000
0000
0000
,
1010
0010
0010
0011
,
0010
0010
1010
0010
,
0010
0011
0010
0010
,
1010
0000
0000
1000
,
0100
0001
0010
0100
,
1000
0000
0001
0010
0100
1000
0001
1000
,
0001
1000
0010
0100
0010
1000
0100
1000
,
0010
0001
1000
0100
0001
0010
0100
0010
,
0001
0010
0100
1000
0010
0001
0010
1000
,
0100
0010
0001
0100
1000
0001
0010
1000
,
0100
0010
0001
0000
0100
0000
0100
0000
,
0010
1001
0000
0000
,
1001
0000
1000
0010
0100
0001
0101
0000
,
0001
0010
0100
1000
1100
0000
1000
0010
,
0100
0001
0101
0000
0001
0010
0100
1000
,
1100
1000
0001
0110
,
0100
1000
1010
0010
,
0100
0000
0100
1000
0001
0010
0100
1000
,
1001
0000
0010
0001
0000
0000
1000
0010
,
0100
0001
1000
0010
0001
0000
0100
0010
,
0000
0000
0001
0100
0010
1000
0010
0001
,
1000
0000
0100
0001
0000
0000
0010
0100
,
0010
0100
0100
0100
1001
0100
0100
1001
,
0100
0100
1001
0100
0100
1001
0100
0100
,
1001
0000
0100
0100
,
0010
1000
1000
1000
,
0100
0001
0010
1000
,
0100
0000
0010
0010
,
0100
0001
0001
0001
,
0010
1000
0100
0001
,
1000
0000
0000
0000
0001
0100
0010
1000
,
0100
0001
0100
1000
0010
0001
0010
1000
,
0100
1000
0010
0001
0100
1000
0001
0000
,
1001
0000
0000
0000
0110
0000
1000
0010
,
0100
0000
0100
0000
0001
0010
0100
0000
,
0100
0000
1000
0010
0000
0001
1000
0000
,
1001
0000
0000
0000
;

//---------------dance-single - ONI----------------
#NOTES:
     dance-single:
     ONI:
     Challenge:
     10:
     0.846,1.000,0.764,0.410,0.028: // measure 1
0000
0000
0000
0000
,  // measure 2
0000
0000
0000
0000
,  // measure 3
0000
0000
0000
0000
1000
0001
1000
0000
0010
0000
0100
0000
0010
0000
0100
0000
,  // measure 4
1010
0010
1000
0001
0100
0010
1000
0100
,  // measure 5
0100
0001
1000
0001
0100
0010
1000
0001
,  // measure 6
0100
0001
0101
0000
0110
0000
1001
0000
,  // measure 7
1100
1000
0100
1000
1010
0010
0100
0010
,  // measure 8
1000
0100
0100
0001
0100
0010
1000
0100
,  // measure 9
0001
0100
1100
0000
1100
0000
0011
0000
,  // measure 10
2001
0000
3001
0100
1000
0100
0101
0001
,  // measure 11
0010
0100
0100
0001
0010
1000
0010
0001
,  // measure 12
0100
0010
1010
0000
0110
0000
0101
0000
,  // measure 13
1001
1000
0010
0100
0101
0001
1000
0100
,  // measure 14
0100
0001
0010
1000
1010
0000
0110
0000
,  // measure 15
0011
0000
2002
0000
0000
0000
0000
3003
,  // measure 16
1001
0000
1200
0320
,  // measure 17
2030
0000
0000
0000
3200
0000
0000
0000
0302
0000
0000
0000
0003
0000
0100
0010
,  // measure 18
0100
1000
0200
0000
0302
0000
2003
0000
,  // measure 19
3100
0010
0100
0000
0010
0000
0001
0000
0100
0000
0000
0000
1200
0000
0000
0000
,  // measure 20
0000
0310
0100
0001
1000
0100
1000
0010
,  // measure 21
0200
0000
1300
0100
0001
0010
1000
0000
,  // measure 22
2001
0000
3200
0320
,  // measure 23
2030
0000
0000
0000
3200
0000
0000
0000
0302
0000
0000
0000
1003
0000
0100
0010
,  // measure 24
0100
0001
1000
0000
0102
0000
1003
0000
,  // measure 25
0010
0100
0010
0000
1000
0000
0010
0000
0100
0000
0000
0000
1020
0000
0000
0000
,  // measure 26
0000
1030
0010
0001
0010
1000
0100
0010
,  // measure 27
0001
0000
1001
0001
1000
0010
0100
0001
,  // measure 28
1001
1000
0010
1000
0010
0010
0001
0100
,  // measure 29
0001
0100
0001
0010
0001
0010
0001
1000
,  // measure 30
0001
1000
0100
1000
0010
1000
0001
0010
,  // measure 31
0010
1000
0001
0100
0001
0100
0010
1000
,  // measure 32
0100
1000
0100
1000
0100
1000
0010
0100
,  // measure 33
0001
0010
0001
0010
0001
0100
0001
0100
,  // measure 34
0100
1000
0001
1000
0001
0010
0001
0010
,  // measure 35
0001
0100
0010
0100
0001
1000
0001
0100
,  // measure 36
0010
0100
0001
0100
0001
1000
0100
1000
,  // measure 37
0010
0010
0001
0010
0010
1000
0010
0010
,  // measure 38
0001
0010
0010
1000
0010
0010
0001
0010
,  // measure 39
0010
1000
0001
0010
0010
1000
0010
0100
,  // measure 40
0001
1000
0010
0010
0001
0100
1000
0100
,  // measure 41
1000
0100
0001
0100
0001
0100
0010
1000
,  // measure 42
0010
1000
0001
0100
0001
0100
0010
0100
,  // measure 43
0001
0010
0001
1000
0010
1000
0001
0100
,  // measure 44
0010
0100
1000
0100
0001
0010
0100
1000
,  // measure 45
0001
1000
0010
0100
0001
0100
0001
0010
,  // measure 46
0010
1000
0100
0010
0001
0100
0010
1000
,  // measure 47
0100
1000
0010
0100
0010
1000
0100
1000
,  // measure 48
0001
0100
0001
0010
0100
1000
0001
1000
,  // measure 49
1001
0001
0100
0010
1010
1000
0100
0010
,  // measure 50
0011
0001
1000
0010
1010
1000
0001
0010
,  // measure 51
0011
0001
1000
0010
0001
0100
1000
0001
,  // measure 52
2002
0000
3003
0000
2010
0010
3100
0000
,  // measure 53
0012
0010
0103
0000
1100
0000
0011
0000
,  // measure 54
1100
0000
1002
1000
0013
0000
2001
0001
,  // measure 55
3010
0000
0000
0000
2010
0010
3100
0000
,  // measure 56
0012
0010
0103
0000
0101
0000
1001
0000
,  // measure 57
1010
0000
1020
1000
0130
0000
0021
0001
,  // measure 58
0130
0000
0000
0000
0012
0010
1003
0000
,  // measure 59
2010
0010
3001
0000
1001
0000
0110
0000
,  // measure 60
1001
0001
0100
0010
1000
0001
1000
0001
,  // measure 61
2002
0000
0000
0000
0000
0000
0000
3003
,  // measure 62
2002
3003
0000
0000
0000
0000
0000
0000
0000
0000
0000
0000
0000
0000
0000
0000
0000
0000
0000
0000
0000
0000
0000
0000
0000
0000
0000
0000
0000
0000
0000
0000
0000
0000
0000
0000
0000
0000
0000
0000
0000
0000
0000
0000
0000
0000
0000
0000
1000
0000
0000
0000
0000
0000
0000
0000
0100
0000
0000
0000
0000
0000
0000
0000
,  // measure 63
0001
0000
0000
1001
,  // measure 64
0000
1010
0101
0000
,  // measure 65
0011
1010
1100
0101
,  // measure 66
1001
0000
0101
1100
,  // measure 67
1010
0011
1001
0000
,  // measure 68
0000
0000
0000
0000
0000
0000
0001
0010
,  // measure 69
1000
0000
0000
1001
,  // measure 70
0000
1010
0101
0000
,  // measure 71
1010
0011
0101
1100
,  // measure 72
1001
0000
1100
0101
,  // measure 73
0110
1010
1001
0000
,  // measure 74
0000
0000
0000
0000
0000
0000
1000
0001
,  // measure 75
1001
1000
0010
0100
0001
0100
0010
1000
,  // measure 76
0010
0100
0001
0100
0010
1000
0100
0010
,  // measure 77
0100
1000
0010
0100
0001
0100
0001
0100
,  // measure 78
0010
1000
0010
1000
0100
0010
0001
0100
,  // measure 79
0010
0001
0010
1000
0010
0001
1000
0100
,  // measure 80
0010
0100
0001
1000
0100
0010
0001
1000
,  // measure 81
1010
0010
1000
0001
1000
0100
0010
0100
,  // measure 82
0001
1000
0010
0100
0001
0100
0010
0001
,  // measure 83
1000
0100
1000
0010
0100
0001
0100
0001
,  // measure 84
0100
0010
1000
0010
0100
0001
1000
0100
,  // measure 85
0010
0001
0100
0001
1000
0100
0010
0001
,  // measure 86
1000
0100
1000
0001
0100
0010
0100
0001
,  // measure 87
1002
1000
0013
0100
0020
1000
0230
1000
,  // measure 88
0310
0001
2000
0100
3002
0010
0203
0010
,  // measure 89
0301
0010
0100
2000
0010
3001
0020
1000
,  // measure 90
0230
0010
0301
0200
1000
0302
0010
1003
,  // measure 91
0200
0010
0302
1000
0103
0020
0100
0032
,  // measure 92
0100
1003
1001
0001
0100
0010
1000
0001
,  // measure 93
1001
1000
0001
0100
0010
1000
1010
0010
,  // measure 94
1000
0100
0010
0001
0011
0010
0001
0100
,  // measure 95
0010
1000
1010
0010
1000
0100
0010
0001
,  // measure 96
0011
0010
0001
0100
0010
0100
0101
0001
,  // measure 97
0100
0010
1000
0001
1001
1000
0010
0100
,  // measure 98
0100
0001
1001
1000
0001
0010
0100
1000
,  // measure 99
1002
0000
0003
0000
1010
0000
0201
0000
0000
0301
0010
0100
2100
0000
3010
0000
,  // measure 100
0100
0102
1003
0010
2100
3000
1100
0012
,  // measure 101
0000
1003
0010
0100
0102
0000
0103
0000
0010
0000
1200
0000
0310
0000
0100
0000
,  // measure 102
1100
1000
1010
0010
0100
1100
1001
1000
,  // measure 103
1010
0100
0010
0011
1001
0110
0110
1001
,  // measure 104
0110
0110
1001
0110
0110
1001
0110
0110
,  // measure 105
1001
1000
0010
0100
0001
0010
0001
0100
,  // measure 106
0010
1000
0001
1000
0100
0010
0100
1000
,  // measure 107
0010
0001
1000
0100
0001
0010
0100
1000
,  // measure 108
0010
0001
1000
0100
0010
0100
1000
0001
,  // measure 109
0010
0100
0001
0100
1000
0100
0001
1000
,  // measure 110
0010
0001
1000
0100
0001
1000
0010
0100
,  // measure 111
0010
1000
0100
1000
0001
0100
0010
1000
,  // measure 112
0100
0001
0100
1000
0010
0001
0010
1000
,  // measure 113
0100
1000
0010
0001
0100
1000
0001
0100
,  // measure 114
0010
2000
0100
3100
0002
0100
0103
2000
,  // measure 115
0010
3010
0002
0010
0013
2000
0010
3010
,  // measure 116
0002
0100
0103
1000
0010
0001
0100
1000
,  // measure 117
1001
0000
0000
0000
;
