#TITLE:innocent cradle;
#SUBTITLE:;
#ARTIST:syatten;
#TITLETRANSLIT:;
#SUBTITLETRANSLIT:;
#ARTISTTRANSLIT:;
#CREDIT:;
#BANNER:innocent cradle.png;
#BACKGROUND:innocent cradle-bg.png;
#LYRICSPATH:;
#CDTITLE:cdtitle.png;
#MUSIC:innocent cradle.mp3;
#OFFSET:0.020;
#SAMPLESTART:31.200;
#SAMPLELENGTH:12.000;
#SELECTABLE:YES;
#BPMS:0.000=124.000,164.000=62.000,180.000=124.000;
#STOPS:;
#BGCHANGES:;

//---------------dance-single - BASIC----------------
#NOTES:
     dance-single:
     BASIC:
     Easy:
     2:
     0.130,0.159,0.020,0.026,0.000:
0000
0000
0000
0000
,
0000
0000
0000
0000
,
0000
0000
0000
0000
,
0000
0000
0000
0000
,
0000
0000
0000
0000
,
0000
0000
0000
0000
,
0000
0000
0000
0000
,
0000
0000
0000
0000
,
0000
0000
0000
0000
,
1000
0000
0010
0000
,
0100
0000
0001
1000
,
0001
0000
0010
0000
,
0100
0000
1000
0001
,
1000
0000
0001
0000
,
0100
0000
0010
0010
,
0100
0000
0100
0000
,
0100
0000
0100
0100
,
0010
0000
1000
0000
,
0100
0000
0010
0000
,
0001
0000
0100
0000
,
0010
0000
0100
0000
,
0010
0000
0100
0000
,
0001
0000
1000
0000
,
0001
0000
0010
0000
,
0100
0000
0010
0000
,
0001
1000
0001
0000
,
1000
0001
1000
0000
,
0010
0100
0010
0000
,
0100
0010
0100
0000
,
1000
0010
0100
0000
,
1000
0010
0100
0000
,
0001
0010
0100
0000
,
0001
0010
0100
0000
,
0002
0000
0000
0000
,
0003
0000
0000
0000
,
2000
0000
0000
0000
,
3000
0000
0000
0000
,
0002
0000
0000
0000
,
0003
0000
0000
0000
,
2000
0000
0000
0000
,
3000
0000
0000
0000
,
1001
0000
0100
0000
,
0001
0000
0010
0000
,
0100
0000
1000
0000
,
0001
0000
1000
0000
,
1001
0000
1000
0000
,
1000
0000
0001
0010
,
0100
0000
0001
0000
,
0001
0000
1000
0010
,
0100
0000
1000
0000
,
1000
0000
0001
0010
,
0100
0000
0001
0000
,
0001
0000
1000
0010
,
0100
0000
0100
0000
,
0100
0000
0010
0010
,
0010
0000
0010
0000
,
0010
0000
0100
0100
,
0100
0000
0010
0000
,
0100
0000
0001
0000
,
1000
0000
0010
0000
,
0100
0000
0001
0010
,
0100
0000
0100
0000
,
0100
0000
1000
1000
,
1000
0000
1000
0000
,
1000
0000
0010
0010
,
0010
0000
0001
0000
,
0001
0000
0100
0100
,
0100
0000
1000
0000
,
1000
0000
0010
0000
,
1001
0000
0000
0000
;

//---------------dance-single - TRICK----------------
#NOTES:
     dance-single:
     TRICK:
     Medium:
     4:
     0.256,0.341,0.429,0.000,0.026:
0000
0000
0000
0000
,
0000
0000
0000
0000
,
0000
0000
0000
0000
,
0000
0000
0000
0000
,
0000
0000
0000
0000
,
1000
0000
0001
0000
,
0010
0000
0010
0010
,
0100
0000
0010
0000
,
0100
0000
0010
0001
,
0100
0010
0100
0000
,
1001
0000
0011
0010
,
1001
0010
0100
0000
,
1001
0000
1010
0010
,
1001
0010
0100
0000
,
1001
0000
0110
0110
,
1001
0000
0110
0000
,
0100
0000
0100
0100
,
1001
0010
1000
0100
,
0100
0000
0010
0100
,
0001
0000
1100
0000
,
0010
0010
0100
0101
,
0010
1000
0100
0010
,
0001
0000
0010
1000
,
0100
0000
0010
0000
,
0101
0000
1010
0000
,
0001
1000
0001
1000
,
0010
0100
0010
0100
,
0001
0010
0001
0010
,
0100
1000
0100
1000
,
0010
1000
0010
1000
,
0001
0100
0001
0100
,
0010
0100
0010
0100
,
0001
1000
0001
1000
,
0001
0010
0000
0010
,
0000
0100
0000
1000
,
1000
0010
0000
0010
,
0000
0100
0000
0001
,
0001
0010
0000
0010
,
0000
0100
0000
1000
,
1000
0010
0000
0100
,
0000
0001
0000
0100
,
1001
0000
0000
0000
0000
0000
0000
1000
0000
0000
0000
0000
0000
0000
0000
0000
0100
0000
0000
0000
0000
0000
0000
0010
0000
0000
0000
0000
0000
0000
0000
0000
,
0001
0000
0000
0000
0000
0000
0000
0010
0000
0000
0000
0000
0000
0000
0000
0000
0100
0000
0000
0000
0000
0000
0000
1000
0000
0000
0000
0000
0000
0000
0000
0000
,
0100
0000
0000
0000
0000
0000
0000
0010
0000
0000
0000
0000
0000
0000
0000
0000
1000
0000
0000
0000
0000
0000
0000
0001
0000
0000
0000
0000
0000
0000
0000
0000
,
0100
0000
0000
0000
0000
0000
0000
0010
0000
0000
0000
0000
0000
0000
0000
0000
1000
0000
0000
0000
0000
0000
0000
0001
0000
0000
0000
0000
0000
0000
0000
0000
,
1001
0000
1100
0000
,
0011
0000
0110
0110
,
0100
0000
0010
0000
,
0100
0000
1001
0010
,
0010
0000
0010
0000
,
0010
0000
1001
0110
,
1001
0000
0001
0000
,
0010
0000
1000
0010
,
0110
0001
0101
1000
,
1100
0010
0110
0110
,
0110
0001
1010
1000
,
0011
0010
0110
0110
,
0110
0100
1001
0010
,
1001
0100
1001
0010
,
1001
1000
0110
0001
,
0110
1000
1001
1001
,
1001
0100
1100
0100
,
0101
0000
1001
1001
,
1001
0010
1010
0010
,
0011
0000
1001
1001
,
1001
0010
0101
0010
,
1100
0010
1001
0110
,
1001
0100
0011
0100
,
1010
0100
0110
0000
,
0110
0000
0000
0000
;

//---------------dance-single - HEAVY----------------
#NOTES:
     dance-single:
     HEAVY:
     Hard:
     6:
     0.370,0.455,0.297,0.086,0.026:
0000
0000
0000
0000
,
1000
0000
0001
0000
,
0110
0000
0100
0100
,
0001
0000
1000
0000
,
0110
0000
0010
0010
,
0100
0000
0010
0000
,
1001
0000
0010
0010
,
0110
0000
0100
0000
,
0010
0000
1001
0010
,
0100
0010
1000
0000
0100
0010
0001
0000
,
1001
0000
0000
0000
1000
0010
0100
0001
,
1001
0010
0110
0100
,
1001
0000
0000
0000
0001
0010
0100
1000
,
1001
0100
0110
0010
,
1001
0000
0000
0000
1000
0001
0100
0010
,
1000
0100
0010
0000
0001
0100
0010
0000
,
1001
0000
0000
0000
0001
1000
0010
0100
,
1001
0000
0010
0100
1000
0000
0100
0001
,
0100
0000
1000
0000
0100
1000
0100
0001
,
0010
0000
1100
0000
0011
0000
0100
1000
,
0010
0000
0010
0001
0100
0000
0101
0000
,
0010
0001
0100
0000
0100
0000
0010
1000
,
0001
0000
1001
0000
0010
1000
0100
1000
,
0010
0001
0100
0020
0000
0000
0130
0000
,
0101
0010
1010
1001
,
0020
1000
0100
0001
,
2030
0100
0001
0010
,
3200
0001
0010
1000
,
0302
0010
1000
0100
,
0023
1000
0100
0001
,
2030
0100
0001
0010
,
3200
0001
0010
1000
,
0302
0010
1000
0103
,
1000
0000
0000
0000
0010
0000
0000
0100
0000
0000
0001
0000
0100
0000
0000
0010
,
0000
0200
0000
0300
,
0001
0000
0000
0000
0010
0000
0000
0100
0000
0000
1000
0000
0100
0000
0000
0010
,
0000
0200
0000
0300
,
0001
0000
0000
0000
0010
0000
0000
1000
0000
0000
0010
0000
0001
0000
0000
0010
,
0000
0200
0000
0300
,
1000
0000
0000
0000
0010
0000
0000
0001
0000
0000
0010
0000
1000
0000
0000
0010
,
0000
0200
0000
0300
,
1001
1000
0000
0100
0100
0010
0000
0010
,
0001
0001
0000
0001
0010
0010
0000
0010
,
1000
1000
0000
1000
0100
0100
0000
0100
,
0010
0010
0000
0010
0001
0001
0000
1000
,
1001
1000
0100
1000
1100
0000
0011
0000
,
0011
0010
0001
0010
0011
0000
1010
0000
,
1001
1000
0001
1000
1001
0000
0110
0000
,
0110
0100
0010
0100
0110
0000
1010
0000
,
1001
1000
0010
0100
0101
0000
1010
0000
,
0011
0001
0010
0100
0110
0000
1001
0000
,
0110
0100
1000
0100
0001
0100
1000
0010
,
0100
1000
0010
0100
0001
0010
0100
0000
,
0110
0000
0001
0100
0001
0000
1000
0100
,
1000
0000
0010
0000
0010
0100
0010
0100
,
0010
0000
1000
0100
1000
0000
0001
0100
,
0001
0000
0100
0000
0100
0010
0100
0010
,
0100
0000
1000
0100
1000
0000
0100
0010
,
0100
0000
0001
0010
0001
0000
0010
0100
,
0010
0000
1000
0001
1000
0000
0001
1000
,
0001
0000
0100
0000
0001
0100
0010
1000
,
0010
0000
0010
0100
0010
0000
0010
0100
,
0010
0000
0110
0000
1000
0010
0100
0001
,
0100
0000
0100
0010
0100
0000
0100
0010
,
0100
0000
0110
0000
1000
0100
0010
0001
,
0010
0000
0010
0001
0010
0000
0100
1000
,
0100
0000
1001
0000
1000
0010
0100
0001
,
0100
0000
0010
0100
0010
0000
0100
0010
,
0100
0000
0010
0000
1000
0100
0001
1000
,
0010
0000
0000
0000
;

//---------------dance-single - ONI----------------
#NOTES:
     dance-single:
     ONI:
     Challenge:
     10:
     0.523,1.000,0.198,0.033,0.713: // measure 1
0000
0000
0000
0000
,  // measure 2
1000
0010
0001
0100
,  // measure 3
1001
0000
0000
0000
0001
0100
0010
0100
,  // measure 4
0001
0010
1000
0100
,  // measure 5
1001
0000
0000
0000
1000
0100
0010
0100
,  // measure 6
1000
0010
0001
0100
,  // measure 7
1001
0000
0000
0000
1000
0001
0100
0001
,  // measure 8
1000
0010
0001
0100
,  // measure 9
1001
0000
0000
0000
0001
0100
0010
0100
,  // measure 10
0001
0010
1000
0000
1000
0100
0001
0000
,  // measure 11
1001
0000
0000
0000
0000
0000
0000
0000
1000
0010
0000
0000
0001
0100
0000
0000
,  // measure 12
1001
0000
1000
0100
0001
0000
0010
0000
,  // measure 13
1001
0000
0000
0000
0000
0000
0000
0000
0001
0010
0000
0000
1000
0100
0000
0000
,  // measure 14
1001
0000
0001
0100
1000
0000
0010
0000
,  // measure 15
1001
0000
0000
0000
0000
0000
0000
0000
1000
0010
0000
0000
0100
0001
0000
0000
,  // measure 16
0001
0010
0000
0000
1000
0000
0000
0000
1000
0010
0000
0000
0001
0000
0000
0000
,  // measure 17
1001
0000
0000
0000
0000
0000
0000
0000
0001
0000
0000
0000
1000
0000
0100
0010
,  // measure 18
0001
0000
0000
0010
0000
0000
0100
0000
0000
0000
1000
0000
0000
0001
0000
0000
,  // measure 19
0100
0000
0000
0000
1000
0000
0000
0000
0001
0000
0000
1000
0000
0000
0010
0000
,  // measure 20
0001
0000
0000
0100
0000
0000
0000
0000
,  // measure 21
1000
0000
0000
0000
0001
0000
0000
0000
0100
0000
0000
0000
1001
0000
0010
0100
,  // measure 22
1000
0000
0000
0010
0000
0000
0100
0000
0000
0000
0001
0000
0000
1000
0000
0000
,  // measure 23
0001
0000
0000
0000
1001
0000
0000
0000
0010
0000
0000
0001
0000
0000
1000
0000
,  // measure 24
0010
0000
0000
0020
0000
0000
0030
0000
,  // measure 25
0000
1001
0110
1001
,  // measure 26
1000
0010
0100
0001
1000
0010
0100
0001
1000
0100
0010
0001
1000
0100
0010
0001
,  // measure 27
1000
0010
0100
0001
1000
0010
0100
0001
1000
0100
0010
0001
1000
0100
0010
0001
,  // measure 28
1000
0100
1000
0100
0010
0001
0010
0001
1000
0100
1000
0100
0010
0001
0010
0001
,  // measure 29
1000
0010
1000
0010
0100
0001
0100
0001
1000
0010
1000
0010
0100
0001
0100
0001
,  // measure 30
1000
0001
0100
0010
1000
0001
0100
0010
1000
0001
0010
0100
1000
0001
0010
0100
,  // measure 31
1000
0001
0100
0010
1000
0001
0100
0010
1000
0001
0010
0100
1000
0001
0010
0100
,  // measure 32
1000
0010
1000
0010
0100
0001
0100
0001
1000
0100
1000
0100
0010
0001
0010
0001
,  // measure 33
1000
0010
1000
0010
0100
0001
0100
0001
1000
0100
1000
0100
0010
0001
0010
0001
,  // measure 34
1000
0010
0100
0000
0010
0100
0000
0100
0000
0100
0001
0000
0001
0010
0000
0100
,  // measure 35
0000
0200
0000
0300
,  // measure 36
0001
0010
0100
0000
0010
0100
0000
0100
0000
0100
1000
0000
1000
0010
0000
0100
,  // measure 37
0000
0200
0000
0300
,  // measure 38
0001
1000
0010
0000
0010
1000
0000
1000
0000
1000
0100
0000
0001
0010
0000
0100
,  // measure 39
0000
0200
0000
0300
,  // measure 40
1000
0001
0010
0000
0010
0001
0000
0001
0000
0001
0100
0000
1000
0010
0000
0100
,  // measure 41
0000
0200
0000
0300
,  // measure 42
1001
1000
0100
0000
0100
0010
0000
0010
0000
0010
0001
0000
0100
0010
0000
1000
0100
0010
0001
0000
0001
0010
0000
0010
0000
0010
0100
0000
1000
0010
0000
0100
,  // measure 43
0001
1000
0010
0000
0100
0001
0000
0001
0000
0001
0100
0000
0100
0010
0000
1000
0001
0100
0010
0000
1000
0100
0000
0100
0000
0100
0010
0000
0010
0001
0000
0001
,  // measure 44
1000
0100
0010
0000
0001
0100
0000
0100
0000
0100
0010
0000
1000
0100
0000
0010
0001
0010
0100
0000
1000
0100
0000
0100
0000
0100
0010
0000
0001
1000
0000
0010
,  // measure 45
0100
0001
1000
0000
1000
0001
0000
0001
0000
0001
1000
0000
0010
0100
0000
0001
0010
0100
1000
0000
1000
0100
0000
0100
0000
0100
0010
0001
1000
0000
0001
0000
,  // measure 46
1001
0000
0000
0000
1000
0100
0000
0000
0100
0000
0000
0000
0001
0010
0000
0000
,  // measure 47
0010
0000
0000
0000
0010
0000
0000
0000
1000
0100
0000
0000
0001
0010
0000
0000
,  // measure 48
1001
0000
0000
0000
0001
0100
0000
0000
0100
0000
0000
0000
1000
0100
0000
0000
,  // measure 49
0100
0000
0000
0000
0100
0000
0000
0000
0001
0010
0000
0000
1000
0100
0000
0000
,  // measure 50
1001
0000
0000
0000
1000
0001
0000
0000
0001
0000
0000
0000
0001
1000
0000
0000
,  // measure 51
1000
0000
0000
0000
0100
0000
0000
0000
0001
0010
0000
0000
1000
0100
0000
0000
,  // measure 52
1001
0000
0000
0000
1000
0010
0000
0000
0001
0000
0000
0000
0001
0100
0000
0000
,  // measure 53
1000
0000
0000
0000
0010
0000
0000
0000
0001
0100
0000
0000
1000
0010
0000
0000
,  // measure 54
1001
0000
0000
0000
0001
0100
0000
0000
0001
0000
0000
0000
1000
0100
0000
0000
,  // measure 55
1000
0000
0000
0000
0010
0000
0000
0000
1000
0100
0000
0000
0010
0001
0000
0000
,  // measure 56
1001
0000
0000
0000
0001
0100
0000
0000
1000
0000
0000
0000
1000
0100
0000
0000
,  // measure 57
0001
0000
0000
0000
0100
0000
0000
0000
0010
1000
0000
0000
0001
0100
0000
0000
,  // measure 58
1001
0000
0000
0000
1000
0100
0000
0000
0001
0000
0000
0000
0001
0100
0000
0000
,  // measure 59
1000
0000
0000
0000
0100
0000
0000
0000
0010
0001
0000
0000
0001
0000
0000
0000
,  // measure 60
0001
0100
0000
0000
0100
0000
0000
0000
0100
1000
0000
0000
1000
0000
0000
0000
,  // measure 61
1000
0010
0000
0000
0010
0000
0000
0000
0010
0001
0000
0000
1000
0100
0000
0000
,  // measure 62
1001
0000
0000
0000
1000
0100
0000
0000
0001
0000
0000
0000
0001
0010
0000
0000
,  // measure 63
1000
0000
0000
0000
0001
0000
0000
0000
1000
0010
0000
0000
0001
0100
0000
0000
,  // measure 64
1001
0000
0000
0000
0001
0100
0000
0000
1000
0000
0000
0000
1000
0010
0000
0000
,  // measure 65
0001
0000
0000
0000
1000
0000
0000
0000
0001
0010
0000
0000
1000
0100
0000
0000
,  // measure 66
1001
0000
0000
0000
0001
0010
0000
0000
1000
0000
0000
0000
1000
0100
0000
0000
,  // measure 67
0001
0000
0000
0000
1001
0000
0000
0000
1000
0100
0000
0000
0001
0010
0000
0000
,  // measure 68
1001
0000
0000
0000
1000
0010
0000
0000
0001
0000
0000
0000
0001
0100
0000
0000
,  // measure 69
1000
0000
0000
0000
1001
0000
0000
0000
1000
0010
0000
0000
0001
0100
0000
0000
,  // measure 70
1001
0000
0000
0000
;
