#TITLE:in the twilight dark;
#SUBTITLE:;
#ARTIST:glustar;
#TITLETRANSLIT:;
#SUBTITLETRANSLIT:;
#ARTISTTRANSLIT:;
#CREDIT:;
#BANNER:in the twilight dark.png;
#BACKGROUND:in the twilight dark-bg.png;
#LYRICSPATH:;
#CDTITLE:cdtitle.png;
#MUSIC:in the twilight dark.mp3;
#OFFSET:0.000;
#SAMPLESTART:99.580;
#SAMPLELENGTH:11.980;
#SELECTABLE:YES;
#BPMS:0.000=135.000;
#STOPS:;
#BGCHANGES:;

//---------------dance-single - BASIC----------------
#NOTES:
     dance-single:
     BASIC:
     Easy:
     2:
     0.125,0.271,0.156,0.000,0.000:
0000
0000
0000
0000
,
0000
0000
0000
0000
,
0000
0000
0000
0000
,
0000
0000
0000
0000
,
0000
0000
0000
0000
,
0000
0000
0000
0000
,
0000
0000
0000
0000
,
0000
0000
0000
0000
,
0000
0000
0000
0000
,
0001
0000
0000
0000
,
0010
0000
0000
0000
,
0010
0000
0000
0000
,
0100
0000
0000
0000
,
1000
0000
0000
0000
,
0001
0000
0000
0000
,
0001
0000
0000
0000
,
0100
0000
0000
0000
,
1001
0000
0000
0000
,
1000
0000
0000
0000
,
1000
0000
0000
0000
,
0001
0000
0000
0000
,
0001
0000
0000
0000
,
0100
0000
0000
0000
,
0100
0000
0000
0000
,
0010
0000
0000
0000
,
1000
0000
0000
0000
,
0010
0000
0000
0000
,
0100
0000
0000
0000
,
0100
0000
0000
0000
,
0001
0000
0000
0000
,
0010
0000
0000
0000
,
0100
0000
0000
0000
,
0100
0000
0000
0000
,
1000
0000
0001
0000
,
0100
0000
0001
0000
,
1000
0000
0010
0000
,
1000
0000
0001
0000
,
1000
0000
0100
0000
,
1000
0000
0001
0000
,
0010
0000
0001
0000
,
1000
0000
0001
0000
,
1001
0000
1000
0000
,
0010
0000
0100
0000
,
0100
0000
0001
0000
,
1000
0000
0010
0000
,
0010
0000
0100
0000
,
0001
0000
1000
0000
,
0100
0000
0010
0000
,
0001
0000
1000
0000
,
1001
0000
0001
0000
,
0100
0000
0010
0000
,
1000
0000
0001
0000
,
1000
0000
0100
0000
,
0010
0000
0100
0000
,
1000
0000
0001
0000
,
0010
0000
0100
0000
,
1000
0000
0001
0000
,
1001
0000
0110
0000
,
1001
0000
0110
0000
,
1001
0000
0110
0000
,
1001
0000
0110
0000
,
1001
0000
0110
0000
,
1001
0000
0110
0000
,
1001
0000
1001
0000
,
0110
0000
1001
0000
,
1001
0000
0000
0000
,
0010
0000
0000
0000
,
0100
0000
0000
0000
,
0100
0000
0000
0000
,
1000
0000
0000
0000
,
0001
0000
0000
0000
,
0100
0000
0000
0000
,
1000
0000
0000
0000
,
1001
0000
0000
0000
;

//---------------dance-single - TRICK----------------
#NOTES:
     dance-single:
     TRICK:
     Medium:
     4:
     0.247,0.488,0.260,0.000,0.015:
0000
0000
0000
0000
,
0000
0000
0000
0000
,
0000
0000
0000
0000
,
0000
0000
0000
0000
,
0000
0000
0000
0000
,
0000
0000
0000
0000
,
0000
0000
0000
0000
,
0000
0000
0000
0000
,
0000
0000
0000
0000
0000
0000
0000
0001
,
0001
0000
0000
0000
0000
0000
0000
1000
,
1000
0000
0000
0000
,
0100
0000
0000
0000
0000
0000
0000
0100
,
0100
0100
0100
0000
0000
0000
0000
0000
,
1000
0000
0000
0000
0000
0000
0000
0001
,
0001
0000
0000
0000
0000
0000
0000
0010
,
0010
0000
0000
0000
0000
0000
0000
0000
0000
0000
0000
0000
0000
0100
0000
0100
,
0000
0000
0000
0000
0000
0000
0000
1000
0000
0000
0000
0001
0000
0000
0000
0000
,
1001
0000
0000
0000
0000
0000
0000
1000
,
1000
0000
0000
0000
,
0001
0000
0000
0000
0000
0000
0000
0001
,
0001
0001
0001
0000
0000
0000
0000
0000
,
1000
0000
0000
0000
0000
0000
0000
1000
,
1000
0000
0000
0000
,
0100
0000
0000
0000
0000
0000
0000
0010
,
0010
0000
0000
0000
0001
0000
0000
0100
,
0100
0000
0000
0000
0000
0000
0000
0010
,
0010
0000
0000
0000
,
0100
0000
0000
0000
0000
0000
0000
1000
,
1000
1000
1000
0000
0000
0000
0000
0000
,
0001
0000
0000
0000
0000
0000
0000
0010
,
0010
0000
0000
0000
,
0001
0000
0000
0000
0000
0000
0000
0100
,
0100
0000
0010
0000
,
1000
0001
0010
0100
,
1000
0001
0100
0010
,
1000
0100
0010
0001
,
1000
0010
0100
0001
,
1000
0100
0010
0001
,
0010
0100
1000
0001
,
0100
0010
1000
0001
,
0010
0100
1000
0001
,
1000
1000
0010
0010
,
0100
0100
0001
0001
,
0010
0010
0100
0100
,
1000
1000
0001
0001
,
0010
0010
0100
0100
,
1000
1000
0010
0100
,
0001
0100
0100
0010
,
0010
1000
1000
0001
,
1001
0000
1000
0000
0001
0100
0010
0000
,
0100
0100
0100
1000
,
0001
0000
0010
0000
0100
1000
0001
0000
,
1000
0000
0010
0000
0100
1000
0001
0000
,
0010
0010
0100
1000
,
0010
0000
0001
0000
0001
0010
0100
0000
,
1000
0010
0100
0100
,
1000
0010
0001
0000
0001
0000
0100
0000
,
1001
1001
0110
0110
,
1001
1001
0110
0110
,
1001
1001
0110
0110
,
1001
1001
0110
0110
,
1001
1001
0110
0110
,
1001
1001
0110
0110
,
1001
0110
1001
0110
,
1001
1100
0101
0011
,
1001
0000
0000
0000
0000
0000
0000
0001
,
0001
0000
0000
0000
,
1000
0000
0000
0000
0000
0000
0000
0010
,
0010
0010
0010
0000
0000
0000
0000
0000
,
0100
0000
0000
0000
0000
0000
0000
0001
,
0001
0000
0000
0000
,
1000
0000
0000
0000
0000
0000
0000
0100
,
0100
0000
0000
0000
0000
0000
0000
0001
,
1000
0000
0000
0000
;

//---------------dance-single - HEAVY----------------
#NOTES:
     dance-single:
     HEAVY:
     Hard:
     6:
     0.345,0.488,0.208,0.030,0.015:
0000
0000
0000
0000
,
0000
0000
0000
0000
,
0000
0000
0000
0000
,
0000
0000
0000
0000
,
0000
0000
0000
0000
,
0000
0000
0000
0000
,
0000
0000
0000
0000
,
0000
0000
0000
0000
,
0000
0000
0000
0000
0100
1001
0000
0010
,
1001
0000
0000
0000
0000
0000
0000
1000
,
0010
0000
0100
0000
,
1001
0000
0000
0000
0000
0000
0000
1000
,
0100
0001
0100
0000
0000
0000
0000
0010
,
1000
0000
0000
0000
0001
0000
0000
0100
,
1001
0000
0000
0000
0010
0000
0000
0010
,
0100
0000
0000
0000
0000
0000
0000
0000
0001
0000
0000
0000
0000
0100
0000
0100
,
0000
0000
0000
0000
0000
0000
0000
1000
0000
0000
0000
0001
0000
0000
0000
0000
,
1001
0000
0000
0000
0000
0000
0000
0100
,
0100
0000
0010
0000
,
0200
0000
0000
0000
0301
0000
0000
0001
,
0100
1000
0100
0000
0001
0000
0010
0000
,
2000
0000
0000
0000
3001
0000
0000
1000
,
0001
0000
0010
0000
,
1001
0000
0000
0000
0010
0000
0000
0100
,
0100
0000
0000
0000
0001
0000
0000
0001
,
1000
0000
0000
0000
1000
0000
0000
0010
,
0001
0000
0001
0100
,
0010
0000
0000
0000
1000
0000
0000
1000
,
0100
0010
0001
0000
1000
0000
0100
0000
,
0001
0000
0000
0000
0010
0000
0000
0010
,
1000
0000
1000
0001
,
0100
0000
0000
0000
0001
0000
0000
0010
,
1000
0000
0100
0001
,
1001
0000
1000
0000
0010
0000
0100
0001
,
1000
0001
1000
0010
,
1000
0000
0010
0000
0100
0000
0001
0010
,
0100
1000
0001
0000
0100
0000
0001
0000
,
0010
0000
1000
0000
0010
0000
0001
0100
,
1000
0100
0001
0010
,
0100
0000
1000
0000
0100
0000
0010
0100
,
0001
1000
0100
0001
,
1001
0000
1000
0000
0010
0000
0010
0010
,
0010
0000
0101
0000
0001
0010
0001
0100
,
0010
0000
0010
0000
1001
0000
0010
0010
,
0010
0010
0010
0000
0100
0000
0100
0000
,
0001
0000
1000
0000
0100
0000
0010
0010
,
0010
1001
0011
1100
,
0001
0010
0001
0010
0100
1000
0100
1000
,
0010
1000
0010
1000
0001
0100
0010
0010
,
1001
0100
1000
0010
0001
0100
0010
1000
,
0100
0001
0100
1000
0010
0100
0001
0010
,
0100
1000
0010
0100
1000
0100
0001
1000
,
0001
0010
0100
0001
0100
1000
0001
1000
,
0001
0010
0100
0010
0100
1000
0100
1000
,
0001
0100
0010
1000
0100
0010
0001
1000
,
0010
0100
0010
1000
0001
1000
0100
0010
,
0001
0010
0001
0100
0010
1000
0100
1000
,
1001
1000
0100
0000
0100
0001
0011
0000
,
1010
1000
0001
0000
0001
0100
1010
0000
,
1010
0001
0100
0000
0100
1000
1010
0000
,
0011
0010
1000
0000
0100
0001
0011
0000
,
0101
0010
1000
0000
0010
1000
0101
0000
,
0011
0001
0100
0000
1000
0010
0101
0000
,
0001
0100
0010
1000
0100
0010
0001
0100
,
1000
0100
0001
0010
1000
0100
0010
1000
,
1001
0000
0000
0000
0000
0000
0000
0010
,
0100
0000
0100
0000
,
0001
0000
0000
0000
0000
0000
0000
0010
,
1000
0100
0001
0000
0000
0000
0000
0000
,
0001
0000
0000
0000
1000
0000
0000
0010
,
0200
0000
0301
0000
,
0010
0000
0000
0000
0000
0000
0000
1000
,
0200
0000
0000
0000
0310
0000
0000
0010
,
1001
0000
0000
0000
;

//---------------dance-single - ONI----------------
#NOTES:
     dance-single:
     ONI:
     Challenge:
     10:
     0.535,0.896,0.260,0.030,0.509: // measure 1
0000
0000
0000
0000
,  // measure 2
0000
0000
0000
0000
,  // measure 3
0000
0000
0000
0000
,  // measure 4
0000
0000
0000
0000
,  // measure 5
0000
0000
0000
0000
,  // measure 6
0000
0000
0000
0000
,  // measure 7
0000
0000
0000
0000
,  // measure 8
0000
0000
0000
0000
,  // measure 9
0000
0000
0000
0000
0110
1001
0000
0110
,  // measure 10
1001
0000
0000
0000
0001
0000
0000
1000
,  // measure 11
0010
0000
0000
0010
0100
0000
0100
0000
,  // measure 12
1001
0000
0000
0000
0001
0000
0000
1000
,  // measure 13
0100
0001
0100
0000
0000
0000
0000
0010
,  // measure 14
1000
0000
0000
0100
0001
0000
0000
0110
,  // measure 15
1001
0000
0000
0000
0010
0000
0000
0010
,  // measure 16
0100
0000
0000
0000
0000
0000
0000
0000
0001
0000
0000
0000
0000
0100
0000
1000
,  // measure 17
0000
0000
0000
0000
0000
0000
0000
1000
0000
0000
0000
0001
0000
0110
0000
0000
,  // measure 18
1001
0000
0000
0000
1000
0000
0000
0100
,  // measure 19
0100
0000
0010
0000
,  // measure 20
0200
0000
0000
0000
0301
0000
0000
0001
,  // measure 21
0100
1000
0100
0000
0001
0000
0010
0000
,  // measure 22
2000
0000
0000
0000
3001
0000
0000
1000
,  // measure 23
0001
0000
0010
0100
,  // measure 24
1001
0000
0000
0000
0010
0000
0000
0100
,  // measure 25
0100
0000
0100
0000
1001
0000
0000
0001
,  // measure 26
1000
0000
1000
0000
1000
0000
0100
0010
,  // measure 27
0001
0001
0101
0101
,  // measure 28
1010
0000
1000
0000
1000
0000
0001
1000
,  // measure 29
0100
0010
0001
0000
1001
0000
0110
0000
,  // measure 30
1001
0000
0001
0100
0010
0000
0100
0010
,  // measure 31
1000
1000
1100
0101
,  // measure 32
1100
0000
1000
0000
0001
0000
0100
0010
,  // measure 33
1000
0000
0010
0000
0110
0000
0101
0100
,  // measure 34
1001
0000
1000
0000
0010
0000
0100
0001
,  // measure 35
1000
0000
0001
0000
1000
0100
0010
0100
,  // measure 36
1000
0000
0010
0000
0100
0000
0001
0010
,  // measure 37
0100
0001
1000
0000
0100
0000
0001
0010
,  // measure 38
0100
0000
1000
0000
0010
0000
0100
0001
,  // measure 39
1000
0000
0100
0000
1000
0010
0100
0001
,  // measure 40
1000
0000
0010
0000
0100
0000
0001
1000
,  // measure 41
0010
0000
0100
0000
1000
0000
0001
0100
,  // measure 42
1000
0010
1000
0010
1000
0000
0000
0010
0000
0010
0100
0000
0010
0000
0010
0000
,  // measure 43
0100
0000
0001
0010
0100
0000
0000
0010
0000
0001
0010
0000
0001
0010
0001
0010
,  // measure 44
0001
0000
1000
0010
0100
0000
0000
0001
0000
0100
0010
0000
0100
0000
0100
0000
,  // measure 45
0001
0000
0010
0100
1000
0000
1000
0001
0000
0000
0010
0100
0010
0000
0010
0001
,  // measure 46
0010
0100
1000
0010
1000
0000
0010
0100
0000
0100
0010
0000
1000
0000
0100
0000
,  // measure 47
0010
0000
0010
0001
0100
0000
0100
0010
0000
1000
0010
0000
0100
0000
0100
0001
,  // measure 48
0010
0000
0010
0100
1000
0000
0010
0000
0100
0001
1000
0000
0100
0000
1000
0000
,  // measure 49
1010
0000
0000
0000
0000
0000
0000
0000
0101
0000
0000
0000
0000
0000
0000
0000
0101
0000
0000
0000
0000
1100
0000
0000
0000
0000
0000
0110
0000
0000
0000
0000
,  // measure 50
1001
1000
0001
1000
0001
0000
0100
0010
0000
0010
0100
0000
0010
0100
1000
0000
,  // measure 51
0001
0010
0001
0010
0001
0000
1000
0010
0000
0010
0100
0000
0001
0010
0100
0000
,  // measure 52
1000
0001
0010
0001
1000
0000
0100
0010
0000
0010
0100
0000
1000
0010
1000
0000
,  // measure 53
0001
0010
0100
1000
0001
0000
0001
1000
0000
0010
1000
0000
0100
0010
0001
0000
,  // measure 54
0001
1000
0100
1000
0001
0000
1000
0010
0000
0100
0001
0000
0100
0010
1000
0000
,  // measure 55
0001
0010
0100
0010
0001
0000
1000
0010
0000
0100
0010
0000
1000
0100
1000
0000
,  // measure 56
0001
0010
0100
0010
0001
0000
1000
0010
0000
0100
0001
0000
1000
0001
1000
0000
,  // measure 57
0001
0010
0001
0010
0001
0000
0100
0010
0000
1000
0100
0000
0100
0010
0001
0000
,  // measure 58
1000
0100
0010
0001
1000
0100
0010
0001
1000
0100
0010
0001
1000
0100
0010
0001
,  // measure 59
1000
0010
0100
0001
1000
0010
0100
0001
1000
0010
0100
0001
1000
0010
0100
0001
,  // measure 60
1000
0100
0010
0001
1000
0010
0100
0001
1000
0100
0010
0001
1000
0010
0100
0001
,  // measure 61
1000
0100
0010
0001
0100
0010
1000
0100
0010
0001
0100
0010
1000
0100
0010
0001
,  // measure 62
1000
0100
1000
0100
0010
0001
0010
0001
1000
0100
1000
0100
0010
0001
0010
0001
,  // measure 63
1000
0010
1000
0010
0100
0001
0100
0001
1000
0010
1000
0010
0100
0001
0100
0001
,  // measure 64
1000
0010
0001
0010
1000
0010
0001
0010
1000
0100
0001
0100
1000
0100
0001
0100
,  // measure 65
1000
0010
0001
0010
1000
0100
0001
0100
1000
0100
0010
0001
0100
0010
1000
0100
,  // measure 66
1001
0000
0000
0000
1000
0000
0000
0010
,  // measure 67
0100
0000
0100
0000
,  // measure 68
1001
0000
0000
0000
0001
0000
0000
0010
,  // measure 69
1000
0100
0001
0000
0100
0000
0000
0000
,  // measure 70
1001
0000
0000
0000
1000
0000
0000
0010
,  // measure 71
0200
0000
0301
0000
,  // measure 72
1001
0000
0000
0000
0010
0000
0000
1000
,  // measure 73
0200
0000
0000
0000
0310
0000
0000
0110
,  // measure 74
1001
0000
0000
0000
;
