#TITLE:in the silent dream;
#SUBTITLE:;
#ARTIST:TAK;
#TITLETRANSLIT:;
#SUBTITLETRANSLIT:;
#ARTISTTRANSLIT:;
#CREDIT:;
#BANNER:in the silent dream.png;
#BACKGROUND:in the silent dream-bg.png;
#LYRICSPATH:;
#CDTITLE:cdtitle.png;
#MUSIC:in the silent dream.mp3;
#OFFSET:0.000;
#SAMPLESTART:56.180;
#SAMPLELENGTH:11.920;
#SELECTABLE:YES;
#BPMS:0.000=68.000;
#STOPS:;
#BGCHANGES:;

//---------------dance-single - BASIC----------------
#NOTES:
     dance-single:
     BASIC:
     Easy:
     1:
     0.064,0.114,0.082,0.038,0.000:
0000
0000
0000
0000
,
0000
0000
0000
0000
,
0000
0000
0000
0000
,
0000
0000
0000
0000
,
2000
0000
0000
0000
,
0000
3000
0000
0000
0000
0000
0000
0000
0000
0000
0000
0000
0000
0000
0000
0000
,
0002
0000
0000
0000
,
0000
0003
0000
0000
0000
0000
0000
0000
0000
0000
0000
0000
0000
0000
0000
0000
,
2000
0000
0000
0000
,
3002
0000
0000
0000
,
2003
0000
0000
0000
,
3002
0000
0000
0000
,
1003
0000
0000
0000
,
0001
0000
0000
0000
,
1000
0000
0000
0000
,
0001
0000
0000
0000
,
1001
0000
0000
0000
,
0001
0000
0000
0000
,
1000
0000
0000
0000
,
0110
0000
0000
0000
,
0001
0000
0000
0000
,
1000
0000
0000
0000
,
0001
0000
0000
0000
,
1000
0000
0000
0000
,
1001
0000
0100
0000
,
0010
0000
0100
0000
,
0001
0000
1000
0000
,
0001
0000
0100
0000
,
0010
0000
0100
0000
,
0110
0000
1000
0000
,
0001
0000
1000
0000
,
0100
0000
0010
0000
,
1001
0000
0100
0000
,
1001
0000
0010
0000
,
1001
0000
0100
0000
,
1001
0000
0010
0000
,
1001
0000
1000
0000
,
1001
0000
0001
0000
,
1001
0000
0000
0000
,
1001
0010
0100
0010
,
1001
0000
0000
0000
;

//---------------dance-single - TRICK----------------
#NOTES:
     dance-single:
     TRICK:
     Medium:
     4:
     0.167,0.228,0.177,0.076,0.000:
0000
0000
0000
0000
,
0000
0000
0000
0000
,
0000
0000
0000
0000
,
0000
0000
0000
0000
,
2000
0000
0000
0000
,
0200
3000
0000
0000
0300
0000
0000
0000
0000
0000
0000
0000
0000
0000
0000
0000
,
0002
0000
0000
0000
,
0200
0003
0000
0000
0300
0000
0000
0000
0000
0000
0000
0000
0000
0000
0000
0000
,
2000
0000
0000
0000
,
3002
0000
1000
0000
,
2003
0000
0001
0000
,
3002
0000
0000
0000
,
1003
0100
0010
0001
,
0001
0010
0100
1000
,
1000
0010
0100
0001
,
0001
0100
0010
1000
,
1001
1000
0010
0100
,
0001
0010
0100
0000
1000
0000
0001
0000
,
1001
0000
0100
0000
0010
0100
0100
0000
,
1001
0011
1100
1001
1000
0000
0001
0010
,
2000
0000
0000
0000
0000
0000
0000
3000
,
1001
0010
0100
1000
0010
0100
0001
0100
,
1002
0000
0000
0000
0000
0000
0000
0003
,
1001
0100
0010
1000
0100
0010
0001
0100
,
1001
0100
0100
0000
,
1001
0010
0100
0000
0100
0000
0010
0000
,
1001
0000
0010
0000
0100
0100
0010
0000
,
1001
1010
0101
1001
0100
0000
0000
0000
,
0002
0000
0000
0000
0000
0000
0000
0003
,
1001
0010
0100
1000
0010
0100
0001
1000
,
2001
0000
0000
0000
0000
0000
0000
3000
,
1001
0010
0100
1000
0100
0001
0010
1000
,
1001
1000
0100
0000
0100
0010
0001
0000
,
1001
0010
0100
0000
1000
0010
0100
0000
,
1001
0001
0100
0000
0100
0010
1000
0000
,
1001
0100
0010
0000
0001
0010
0100
0000
,
1001
0000
0000
0000
,
1001
1000
0010
0100
0001
0010
0100
1000
,
1001
0000
0000
0000
,
1001
1000
0010
0100
0001
0010
1000
0100
,
1001
0000
0000
0000
;

//---------------dance-single - HEAVY----------------
#NOTES:
     dance-single:
     HEAVY:
     Hard:
     9:
     0.414,0.507,0.120,0.076,0.761:
0000
0000
0000
0000
,
0000
0000
0000
0000
,
0000
0000
0000
0000
,
0000
0000
0000
0000
,
2000
0000
0000
0000
,
0200
3000
0000
0000
0300
0000
0100
0000
0000
0000
0000
0000
0000
0000
0000
0000
,
0002
0000
0000
0000
,
0200
0003
0000
0000
0300
0000
0100
0000
0000
0000
0000
0000
0000
0000
0000
0000
,
2000
0000
0000
0000
,
3200
0000
0000
0000
,
0320
0000
0000
0000
,
0032
0000
0000
0000
,
1003
0000
0000
0100
0000
0100
0000
0100
0000
0001
0000
0000
0100
0000
0000
0100
0000
0010
0000
0001
0000
1000
0000
0000
,
0001
0000
0000
0010
0000
0010
0000
0100
0000
1000
0000
0000
0001
0000
0000
1000
0000
0010
0000
0100
0000
0001
0000
0000
,
1000
0000
0000
0010
0000
0100
0000
0100
0000
0001
0000
0000
0010
0000
0000
1000
0000
0100
0000
0100
0000
0001
0000
0000
,
0001
0000
0000
0010
0000
0010
0000
0100
0000
1000
0000
0000
0001
0000
0000
0010
0000
0010
0000
0100
0000
0000
0100
0010
,
1001
0000
1000
0000
0000
1000
0000
1000
0000
0100
0000
0100
0000
0100
0000
0010
0000
0001
0000
0000
0000
0001
0010
0100
,
1001
0000
0001
0010
0000
0010
0100
0000
0100
0000
0000
0100
0000
1000
0000
0010
0000
0100
0000
0001
0000
0000
1000
0010
,
0100
1001
0000
1000
0000
0001
0000
0100
0000
0000
0000
0010
0010
0000
0100
0100
0000
0001
0000
1000
0000
1000
0100
0010
,
0001
0000
0001
0010
0000
0100
1000
0000
0010
0000
0100
0000
0001
0000
0010
0000
0100
0000
1000
0100
0010
0001
0010
0100
,
2000
0000
0010
0010
0000
0100
0100
0000
0001
0001
0000
0000
0000
0100
0000
0100
0000
0000
0000
0100
0000
3100
1000
0010
,
0100
0000
0001
0010
0000
0010
0100
0000
0100
0000
1000
0000
0010
0000
0100
0000
0001
0000
0001
0010
0100
1000
0100
0010
,
0002
0000
0100
0100
0000
1000
1000
0000
0010
0010
0000
0100
0100
0000
0000
0100
0000
0000
0000
0100
0000
0103
0010
0100
,
1001
0000
0010
0100
0000
0100
0010
0000
0010
1000
0000
1000
0100
0000
0100
0000
0010
0000
0001
0000
0010
0100
1000
0010
,
1001
0000
0001
0000
0000
0001
0000
1000
0000
0100
0000
0010
0000
0001
0100
0000
0000
0100
0000
0100
0000
0100
1000
0001
,
1001
0000
1000
0010
0000
0010
0100
0000
0000
0100
0000
0010
0000
1000
0000
0100
0000
1000
0010
0000
0100
0000
0001
0100
,
0010
1001
0000
0001
0000
0010
0000
0100
0000
1000
0000
1000
0100
0000
0000
0001
0000
0001
0100
0000
0000
1000
0100
0010
,
1001
0000
0010
1000
0000
0001
0100
0000
1000
0100
0000
0010
0001
0010
0100
1000
0100
0010
0100
0001
0100
1000
0100
0010
,
0002
0000
0010
0010
0000
1000
1000
0000
0100
0100
0000
0000
0000
0010
0000
1000
0000
0000
0000
1000
0000
0103
0010
0100
,
1001
0000
0001
0010
0000
0010
0100
0000
0100
1000
0000
1000
0010
0000
0010
0000
0100
0000
0001
0010
0100
1000
0001
1000
,
2000
0000
0010
0010
0000
0100
0100
0000
0001
0001
0000
0000
0000
0100
0000
0010
0000
0000
0000
0001
0000
3100
0010
0100
,
1001
0000
0001
0010
0000
0010
1000
0000
1000
0010
0000
0010
0001
0010
0100
1000
0010
0100
0001
0100
1000
0100
0001
0010
,
1001
0000
1000
1000
0000
0100
0100
0000
0010
0010
0000
0001
0001
0010
0010
0100
0000
0100
0100
0000
1000
1000
0001
1000
,
1001
0000
0010
0010
0000
0100
0100
0000
0001
0001
0000
1000
1000
0010
0010
0100
0000
0100
0100
0000
0001
0001
1000
0001
,
1001
0000
0001
0001
0000
1000
1000
0000
0000
0100
0000
0100
0000
0010
0000
0010
0000
1001
0000
0110
0000
1000
0001
0100
,
1001
0000
1000
0100
0000
0010
0001
0000
0001
0010
0000
0100
1000
0100
0010
0001
0010
0100
1000
0010
0100
0001
0010
0100
,
1000
0000
0000
0000
0000
1000
1000
0000
0000
0000
0000
0100
0100
0000
0000
0000
0000
0010
0010
0000
0000
0001
0010
0100
,
1001
0000
0001
0010
0100
1000
0010
0100
0001
1000
0100
0010
0001
0010
0100
1000
0100
0010
0001
0100
0010
1000
0100
0010
,
0001
0000
0000
0000
0000
0001
0001
0000
0000
0000
0000
0010
0010
0000
0000
0000
0000
0100
0100
0000
0000
1000
0100
0010
,
1001
0000
1000
0010
0100
0001
0010
0100
1000
0100
0010
0001
0100
0010
1000
0100
0010
0001
0010
0100
1000
0010
0100
0001
,
1001
0000
0000
0000
;

//---------------dance-single - ONI----------------
#NOTES:
     dance-single:
     ONI:
     Challenge:
     10:
     0.487,0.558,0.215,0.051,0.903: // measure 1
0000
0000
0000
0000
,  // measure 2
0000
0000
0000
0000
,  // measure 3
0000
0000
0000
0000
,  // measure 4
0000
0000
0000
0000
,  // measure 5
2000
0000
0000
0000
,  // measure 6
0200
3000
0000
0000
0300
0000
0100
0000
0000
0000
0000
0000
0000
0000
0000
0000
,  // measure 7
0002
0000
0000
0000
,  // measure 8
0200
0003
0000
0000
0300
0000
0100
0000
0000
0000
0000
0000
0000
0000
0000
0000
,  // measure 9
2000
0000
0000
0000
,  // measure 10
3200
0000
0000
0000
,  // measure 11
0320
0000
0000
0000
,  // measure 12
0032
0000
0000
0000
,  // measure 13
1003
0000
0000
0100
0000
0010
0000
0010
0000
0001
0010
0100
1000
0000
0000
0100
0000
0100
0000
0010
0000
0001
0010
0100
,  // measure 14
1000
0000
0000
0010
0000
0010
0000
0100
0000
0001
0100
0010
1000
0000
0000
0100
0000
0100
0000
0010
0000
0001
0100
0010
,  // measure 15
1000
0000
0000
1000
0000
0100
0000
0100
0000
1000
0010
0100
0001
0000
0000
0010
0000
0100
0000
0100
0000
1000
0010
0100
,  // measure 16
0001
0000
0000
0010
0000
0010
0000
0100
0000
0001
0010
0100
1000
0000
0000
0010
0000
0100
0000
0100
0000
0001
0100
0010
,  // measure 17
1001
0000
1000
0100
0000
0100
0010
0000
0001
0100
0000
0100
0000
0100
0000
0010
0000
1000
0000
0001
0000
1000
0010
0100
,  // measure 18
1001
0000
0001
0010
0000
0010
0100
0000
0100
0001
0000
0100
0000
1000
0000
0010
0000
0001
0000
1000
0100
0000
0010
0100
,  // measure 19
1000
1001
0000
1000
0100
0000
1000
0100
0000
0010
0000
0001
0010
0000
0001
0010
0000
0100
0000
1000
0000
1000
0100
0010
,  // measure 20
1001
0000
0001
0010
0000
0100
1000
0010
0100
0001
0010
0100
1000
0100
0010
0001
0010
1000
0010
0001
0010
0100
1000
0001
,  // measure 21
1001
0000
0010
0010
0000
0100
0100
0000
0001
0001
0000
0010
0010
0000
0100
0100
0000
0100
0000
0100
0000
0100
1000
0001
,  // measure 22
1001
0000
0001
0010
0000
0010
0100
1000
0100
0010
0001
0100
0010
1000
0100
0001
0100
1000
0001
0100
0010
1000
0010
0100
,  // measure 23
1001
0000
0100
0100
0000
1000
1000
0000
0010
0010
0000
0100
0100
0000
0100
0100
0000
0100
0000
0100
0000
0100
0001
1000
,  // measure 24
1001
0000
0001
0100
0000
0100
0010
1000
0100
0010
0001
0100
0010
0100
0001
0010
0100
1000
0010
0100
0001
0010
0100
1000
,  // measure 25
1001
0000
0001
0001
0000
0001
0010
0000
0100
0100
0000
0100
1000
0000
1000
0100
0000
0100
0000
0100
0000
0100
1000
0001
,  // measure 26
1001
0000
1000
0010
0000
0010
0100
0000
0000
0100
0000
0001
0000
0010
0000
0100
0000
1000
0000
0010
0000
1000
0001
0100
,  // measure 27
0010
1001
0000
0001
0010
0000
0010
0100
0000
1000
0000
1000
0000
0100
0000
0010
0000
0001
0000
1000
0000
0001
1000
0010
,  // measure 28
1001
0000
0010
1000
0000
0001
0100
0000
1000
0100
0010
0001
0100
0010
1000
0100
0001
0100
1000
0010
0100
0001
0010
0100
,  // measure 29
1001
0000
0010
0010
0000
1000
1000
0000
0100
0100
0000
0010
0010
0000
0000
0010
0000
0010
0000
0001
0000
0100
0010
1000
,  // measure 30
1001
0000
0001
0010
0000
0010
0100
1000
0010
0100
0001
0100
1000
0100
0001
0010
1000
0010
0001
0010
0100
1000
0010
0100
,  // measure 31
1001
0000
0010
0010
0000
0100
0100
0000
0001
0001
0000
0100
0100
0000
0000
0100
0000
0010
0000
1000
0000
0001
0010
0100
,  // measure 32
1001
0000
0001
0010
0000
0100
1000
0100
0010
0001
0010
0100
1000
0010
0100
1000
0100
0001
0010
0100
1000
0100
0010
0001
,  // measure 33
1001
0000
1000
1000
0000
0100
0100
0000
0010
0010
0001
0001
0001
0000
0010
0010
0000
0100
0100
0000
1000
1000
0001
1000
,  // measure 34
1001
0000
0010
0010
0000
0100
0100
0000
0001
0001
1000
1000
1000
0000
0010
0010
0000
0100
0100
0000
0001
0001
1000
0001
,  // measure 35
1001
0000
0001
0001
0000
1000
1000
0000
0000
1000
0100
0010
0001
0100
0000
0010
0000
0100
0000
1001
0000
1000
0001
0100
,  // measure 36
1001
0000
1000
0100
0000
0010
0001
0000
0001
0010
0100
1000
0010
0100
0001
0010
0100
1000
0010
0100
0001
0010
0100
1000
,  // measure 37
1001
0000
0000
1001
0000
1000
1000
0000
0000
1001
0000
0100
0100
0000
0000
1001
0000
0010
0010
0000
0000
1001
0010
0100
,  // measure 38
1001
0000
0001
0010
0100
1000
0010
0100
0001
1000
0100
0010
0001
0010
1000
0100
0001
0010
1000
0100
0001
0010
0100
1000
,  // measure 39
1001
0000
0000
1001
0000
0001
0001
0000
0000
1001
0000
0010
0010
0000
0000
1001
0000
0100
0100
0000
0000
1001
0100
0010
,  // measure 40
1001
0000
1000
0010
0100
0001
0010
0100
1000
0100
0010
0001
0100
1000
0010
0001
0100
1000
0010
0001
0010
0100
1000
0001
,  // measure 41
1001
0000
0000
0000
;
