#TITLE:路上のギリジン-Shou+rt Mix-;
#SUBTITLE:;
#ARTIST:tarolabo feat.小宮真央;
#TITLETRANSLIT:girizin;
#SUBTITLETRANSLIT:;
#ARTISTTRANSLIT:;
#CREDIT:;
#BANNER:girizin.png;
#BACKGROUND:girizin-bg.png;
#LYRICSPATH:;
#CDTITLE:cdtitle.png;
#MUSIC:girizin.mp3;
#OFFSET:0.020;
#SAMPLESTART:13.480;
#SAMPLELENGTH:12.000;
#SELECTABLE:YES;
#BPMS:0.000=120.000,20.000=155.000,249.000=77.500,257.000=155.020;
#STOPS:20.000=3.097
;
#BGCHANGES:;

//---------------dance-single - BASIC----------------
#NOTES:
     dance-single:
     BASIC:
     Easy:
     3:
     0.211,0.240,0.030,0.015,0.000:
0000
0000
0000
0000
,
0000
0000
0000
0000
,
0000
0000
0000
0000
,
0000
0000
0000
0000
,
0000
0000
0000
0000
,
0000
1000
0100
1000
,
0000
0001
0100
0001
,
0000
1000
0010
1000
,
0000
0001
0010
0001
,
0000
1000
0001
1000
,
0000
0001
1000
0001
,
0000
0100
0010
0100
,
0000
0010
0100
0010
,
0000
1000
1000
1000
,
0010
1000
1000
0000
,
0000
1000
1000
1000
,
0000
1000
1000
1000
,
0000
0100
0100
0100
,
0001
0100
0100
1000
,
0000
1000
1000
1000
,
0010
0001
0001
0100
,
0000
1000
1000
0001
,
1000
0100
0100
1000
,
0000
0001
0001
0100
,
0010
0100
0100
0100
,
0000
0010
0010
0100
,
0001
0100
0100
1000
,
0000
1000
1000
0010
,
0010
0001
0100
1000
,
1001
0000
0000
0000
,
0000
0100
0000
0001
,
0000
1000
0000
0100
,
0000
1000
0000
0010
,
0000
0100
0000
0001
,
0000
0100
0100
1000
,
1000
0100
0100
0001
,
0001
0010
0000
0100
,
0000
1000
0000
0001
,
0010
1001
0000
0001
,
0000
0010
0000
0100
,
0000
1000
0000
0100
,
0000
0010
0000
0010
,
0000
0100
0000
0010
,
0000
0100
0000
0010
,
0000
0200
0000
0301
,
1000
0100
0000
0010
,
0000
1001
0000
0100
,
0000
1000
1000
0000
,
0000
0001
0000
1000
,
0000
0001
0000
1000
,
0000
0001
0001
0010
,
0000
0001
0001
0100
,
0000
1000
0000
0100
,
0000
1000
0000
0100
,
0000
0010
0010
0001
,
0000
0010
0010
1000
,
0000
0001
0001
1000
,
0000
1000
1000
0001
,
0000
0100
0100
0001
,
0000
0100
0100
1000
,
0000
1000
1000
0001
,
0000
0001
0001
1000
,
0000
0020
0000
0000
,
0000
0000
0000
0000
,
0030
0010
0000
1000
,
0000
0100
0000
0010
,
0000
0001
0000
1000
,
0000
0001
0000
0000
,
0000
1000
0000
0001
,
0000
0100
0100
1000
,
0000
0001
0000
1000
,
0000
0100
0100
0001
,
0000
0010
0000
1000
,
0000
0001
0001
1000
,
0000
0010
0000
0001
,
0000
1000
1000
0001
,
0000
0000
1001
0000
,
0000
0000
0000
0000
,
0000
0000
0000
0000
,
0000
0010
0000
0000
;

//---------------dance-single - TRICK----------------
#NOTES:
     dance-single:
     TRICK:
     Medium:
     6:
     0.343,0.420,0.333,0.023,0.000:
0000
0000
0000
0000
,
0000
0000
0000
0000
,
0000
0000
0000
0000
,
0000
0000
0000
0000
,
0000
0000
0000
0000
,
0000
0000
1000
0100
0001
0000
0001
0001
,
0000
0001
0100
0000
1000
0000
1000
0000
,
0000
0000
1000
0010
0001
0000
0001
0001
,
0000
0001
0010
0000
1000
0000
1000
0000
,
0000
0000
0001
0100
1000
0000
1000
1000
,
0000
1000
0100
0000
0001
0000
0001
0000
,
0000
0000
0001
0010
1000
0000
1000
1000
,
0000
1000
0010
0000
0001
0000
0001
0000
,
0000
1000
1000
0010
,
0101
0000
1000
1000
1000
0000
0000
0000
,
0000
1010
0100
1010
,
0000
0101
0010
0101
,
0000
0000
0110
0000
0110
0000
0100
0100
,
0001
0110
0110
1000
,
0000
1010
1000
1100
,
1000
0000
1001
0000
0001
0100
1000
0000
,
0000
0011
0011
1100
,
1100
0110
0110
1001
,
0000
0101
0001
0101
,
0100
1100
1000
1100
,
0000
0000
0100
0000
1001
0000
0100
1000
,
0010
0010
0010
0101
,
0000
0000
1000
0100
1000
0000
0110
0000
,
0101
0000
0001
0100
0100
0000
1000
0000
,
1001
0000
0000
0000
,
0000
0100
0000
0001
,
0100
1000
0000
0100
,
0100
0010
0000
0010
,
1000
0100
0000
0001
,
0000
0000
0001
0001
0100
0100
1000
0000
,
1000
0000
1000
1000
0100
0100
0001
0000
,
0001
0010
0000
1000
,
0100
0001
0000
0001
,
0010
1001
0000
0001
,
0000
0110
0000
0100
,
0000
1010
0000
0100
,
0000
0101
0000
0010
,
0000
0100
0000
0110
,
0000
0100
0000
0110
,
0000
0100
0000
0001
,
1000
0100
0000
0010
,
0000
0100
0100
0100
,
0000
0000
1000
1000
1000
0000
0000
0000
,
0000
0000
0001
0000
0100
0100
1000
0000
,
0000
0000
0001
0000
0100
0100
1000
0000
,
0000
0011
0011
0011
,
0000
1100
1100
1100
,
0000
1000
0100
0100
,
1001
1000
0100
0100
,
1001
0000
1000
0100
0001
0000
0001
0001
,
0000
0001
0100
0000
1000
1000
1000
0000
,
0000
0000
1000
0010
0001
0000
0001
0001
,
0000
0001
0010
0000
1000
1000
1000
0000
,
0000
0000
0001
0100
1000
0000
1000
1000
,
0000
1000
0100
0000
0001
0001
0001
0000
,
0000
0000
0001
0010
1000
0000
1000
1000
,
0000
1000
0010
0000
0001
0001
0001
0000
,
0000
0020
0000
0000
,
0000
0000
0000
0000
,
0030
0010
0100
1000
,
0100
0010
0001
0100
,
0010
1000
0100
0001
,
0100
1000
0000
0000
0110
0000
0000
0001
,
0000
0000
1000
0010
0100
0000
0001
0001
,
0000
0100
0100
0000
1000
0100
1000
0000
,
0000
0000
0001
0100
0001
0000
0001
0001
,
0000
0010
0100
0000
0100
0100
0100
0000
,
0000
0000
1000
1000
1000
0000
0100
0100
,
0000
0010
0010
0000
0001
0001
0001
0000
,
0000
0000
0010
0010
0010
0000
0010
0010
,
0000
0010
0010
0000
0010
0010
0010
0000
,
0000
0100
2002
0000
,
0000
0000
0000
0000
,
0000
0000
0000
0000
,
3003
0010
0000
0000
;

//---------------dance-single - HEAVY----------------
#NOTES:
     dance-single:
     HEAVY:
     Hard:
     7:
     0.453,0.540,0.288,0.030,0.083:
0000
0000
0000
0000
,
0000
0000
0000
0000
,
0000
0000
0000
0000
,
0000
0000
0000
0000
,
0000
0000
0000
0000
,
0000
0000
1001
0000
0100
0001
0010
0100
,
0000
1010
0000
1001
0000
0101
0000
0011
,
0000
1001
0000
0000
0001
0010
0100
1000
,
0000
1001
0000
0011
0000
1100
0000
1001
,
0000
0110
0000
0000
1000
0010
0100
0001
,
0000
1000
0000
0010
0010
0100
0000
0001
,
0100
1000
0000
1000
0100
0010
0001
0100
,
1000
0020
0000
0000
0000
0000
0000
0000
,
0030
0000
1000
0000
1000
0100
0010
0000
,
1001
0000
0000
0000
0001
0010
0001
0010
0001
0000
0000
0000
0000
0000
0000
0000
,
0000
0000
1000
0010
0001
0010
1000
0000
,
0000
0000
0001
0010
1000
0010
0001
0000
,
0000
0000
0010
0010
0100
0100
0001
0001
,
0001
0000
0010
0010
0100
1000
0001
0000
,
0000
0000
0010
1000
0100
1000
0010
0100
,
1000
0000
0001
0100
0001
0100
1000
0000
,
0000
0000
0001
0010
0001
0100
0010
0100
,
1000
0000
1000
0100
1000
0010
0001
0000
,
0000
0000
0001
0100
0001
0100
0001
0000
,
0100
0000
1000
0100
1000
0100
1000
0000
,
0000
0000
0100
0010
0001
0000
0100
1000
,
0010
0000
0010
0001
0010
1000
0100
0000
,
0000
0000
1000
0100
1000
0010
0100
0010
,
0001
0000
0010
0100
1000
0100
0001
0000
,
1001
0000
0000
0100
,
0100
0000
0100
0000
0000
0010
0001
0001
,
0100
0100
1000
0000
0000
0000
0100
1000
,
0100
0001
0010
0000
0000
0010
0001
0010
,
0001
0100
1000
0000
0000
0000
0001
0000
,
0000
0000
0001
0001
0010
0010
0100
0100
,
1000
1000
0100
0100
0010
0010
0001
0000
,
1000
1000
0010
0000
0000
0000
0001
0001
,
0100
0100
1000
0000
0000
0000
0000
0100
,
0010
0100
1001
0000
0100
0000
0001
0000
,
0100
1010
0001
0100
,
1000
0010
0100
0001
,
0010
1100
1001
0110
,
0000
1000
0001
0110
,
1000
0100
0001
0110
,
1000
0000
0100
0000
0001
0000
0001
0010
,
1000
0100
0200
0000
0000
0000
0310
0000
,
0000
0000
0100
0001
0100
0001
0100
0000
,
0100
0000
1000
0010
0001
0000
0000
0000
,
0000
0000
0100
0000
0100
0100
0010
0000
,
0000
0000
0100
0000
0100
0100
0010
0000
,
0000
0000
0001
1000
0010
1000
0001
0000
,
1100
0000
1000
0100
1000
0100
1000
0000
,
0000
0000
1000
0100
1000
0100
0001
0000
,
1001
0000
0001
0100
0001
0100
1000
0000
,
1001
0000
1001
0000
0100
1000
0010
0100
,
0000
0011
0000
1001
0000
1100
0000
1010
,
0000
1001
0000
0000
1000
0010
0100
0001
,
0000
1001
0000
1010
0000
0101
0000
1001
,
0000
0110
0000
0000
0001
0010
0100
1000
,
0000
0001
0000
0010
0010
0100
0000
1000
,
0100
0001
0000
0001
0100
0010
1000
0100
,
0001
0010
0000
0000
0000
0000
0000
0000
,
0000
0000
0000
0000
0010
0000
0000
0000
0000
0010
1000
0100
0000
0000
0000
0000
,
0000
0010
0001
0100
0000
0010
0000
0010
0000
0010
0000
0010
0000
1000
0100
1000
,
0001
0010
0100
1000
0001
0000
0000
0000
0001
0000
0000
0000
1000
0000
0000
0000
,
1000
0000
0000
1000
0001
1000
0010
0100
0001
0100
0010
1000
,
0100
0000
0010
0000
0100
0000
1000
0000
0000
0010
0000
0000
0001
0000
0000
0010
0000
0000
0001
0000
0000
0100
0000
0000
,
1000
0001
0000
0000
0110
0000
0000
1001
,
0000
0000
1000
0010
1000
0010
0001
0001
,
0000
0001
0100
1000
0001
0001
0001
0000
,
0000
0000
0001
0100
0001
0100
1000
1000
,
0000
1000
0010
0001
1000
1000
1000
0000
,
0000
0000
1000
0100
1000
0010
0001
0001
,
0000
0001
0100
0001
0100
1000
0010
0000
,
0000
0000
0001
0010
0001
0100
0010
1000
,
0000
1000
0010
1000
0010
0001
0100
0000
,
0100
0100
2002
0000
,
0000
0000
0000
0000
,
0000
0000
0000
0000
,
3003
0110
0000
0000
;

//---------------dance-single - ONI----------------
#NOTES:
     dance-single:
     ONI:
     Challenge:
     10:
     0.725,0.810,0.598,0.030,0.534: // measure 1
0000
0000
0000
0000
0000
0000
0000
0000
0000
0000
0000
0000
0000
0000
0000
0000
0000
0000
0000
0000
0000
0000
0000
1000
,  // measure 2
0000
0000
0000
0000
0000
0001
0000
0000
0000
0000
0000
1000
0000
0000
0000
0000
0000
0001
0000
0000
0000
0000
0000
1000
,  // measure 3
0000
0000
0000
0000
0000
0001
0000
0000
0000
0000
0000
1000
0000
0000
0000
0000
0000
0001
0000
0000
0000
0000
0000
1000
,  // measure 4
0000
0000
0000
0000
0000
0001
0000
0000
0000
0000
0000
1000
0000
0000
0000
0000
0000
0001
0000
0000
0000
0000
0000
1000
,  // measure 5
0000
0000
0000
0000
0000
0001
0000
0000
0000
0000
0000
1000
0000
0000
0000
0000
0000
0001
0000
0000
0000
0000
0000
2000
,  // measure 6
0002
3003
0000
0000
0000
0000
0000
0000
0000
0000
0000
0000
0000
0000
0000
0000
1000
0000
0000
0000
0010
0000
0000
0000
1000
0000
0000
0000
0010
0000
0000
0000
1000
0000
0000
0000
0010
0000
0000
0000
1000
0000
0000
0000
0000
0000
0000
0000
0100
0000
0000
0000
0000
0000
0000
0000
0100
0000
0000
0000
0000
0000
0000
0000
,  // measure 7
0000
0000
1000
0010
1000
0010
1000
0000
0100
0000
0100
0000
0100
0000
0000
0000
,  // measure 8
0000
0000
0000
0000
0001
0010
0001
0010
0001
0010
0001
0000
0100
0000
0100
0000
,  // measure 9
0000
0000
0001
0010
0001
0010
0001
0000
0100
0000
0100
0000
0100
0000
0000
0000
,  // measure 10
0000
0000
0000
0000
1000
0001
1000
0001
1000
0001
1000
0000
0010
0000
0010
0000
,  // measure 11
0000
0000
1000
0001
1000
0001
1000
0000
0100
0000
0100
0000
0100
0000
0000
0000
,  // measure 12
0000
0000
0000
0000
0001
1000
0001
1000
0001
1000
0001
0000
0100
0000
0100
0000
,  // measure 13
0000
0000
0001
1000
0001
1000
0001
0000
0100
0000
0100
0000
0100
0000
0000
0000
,  // measure 14
0000
0000
1010
0000
1000
0100
0010
0000
,  // measure 15
1001
0000
0000
0000
0001
0010
0001
0010
0001
0000
0000
0000
1000
0000
0000
0000
,  // measure 16
0011
0000
0000
0000
1000
0000
0010
0100
0001
0000
0010
0000
1000
0000
0000
0000
,  // measure 17
0100
0000
0000
0000
0001
0000
0010
0100
1000
0100
0010
0000
0001
0000
0000
0000
,  // measure 18
1000
0000
0000
0000
0010
0001
0010
0000
0100
1000
0100
0000
1001
0000
0101
0000
,  // measure 19
1001
0000
0000
0000
0010
0000
0010
0000
0100
1000
0010
0000
0001
0000
0000
0000
,  // measure 20
1010
0000
0000
0000
0010
0100
1000
0000
1000
0100
0001
0000
0101
0000
0110
0000
,  // measure 21
1001
0000
0000
0000
0001
0000
1000
0100
0001
0000
0100
0000
1000
0000
0000
0000
,  // measure 22
0001
0000
0000
0000
0001
0010
0001
0000
0100
0010
0100
0000
0101
0000
0110
0000
,  // measure 23
1010
0000
0000
0000
1000
0010
0100
0010
1000
0000
0010
0000
0001
0000
0000
0000
,  // measure 24
1001
0000
0001
0100
0001
0100
1001
0110
,  // measure 25
0101
0000
0000
0000
1000
0001
0100
0000
0010
0000
0100
0000
1000
0000
0000
0000
,  // measure 26
1001
0000
0000
0000
0100
0000
0010
0000
0001
0100
0000
0010
0100
0000
1000
0000
,  // measure 27
0100
0000
0000
0000
1000
0001
1000
0100
0010
0000
0001
0000
0100
0000
0000
0000
,  // measure 28
1001
0000
0000
0000
1000
0010
1000
0001
0100
0010
0100
0001
1000
0100
0010
0001
,  // measure 29
0100
0000
0000
0000
0100
0010
0001
0010
0100
1000
0100
0010
0001
0000
0000
0000
,  // measure 30
1001
0000
0000
0000
0010
0100
0010
0100
0010
0000
0000
0000
1001
0000
0000
0000
,  // measure 31
0110
0100
1001
0001
0100
0010
0100
0001
,  // measure 32
0100
1000
0100
0001
0010
0100
1000
0100
,  // measure 33
0010
0001
0100
0010
1000
0100
1000
0010
,  // measure 34
0001
0010
1000
0100
1000
0010
0100
0001
,  // measure 35
0100
1000
0100
0100
0001
0001
0010
0010
,  // measure 36
0100
0100
1000
1000
0100
0100
0010
0001
,  // measure 37
0010
0010
0001
0100
0010
1000
0100
0100
,  // measure 38
0010
0010
0001
0100
1000
0100
0001
0010
,  // measure 39
0100
1000
1001
0001
0100
0000
0001
1000
,  // measure 40
0100
0000
1010
0000
0100
0010
0001
0000
,  // measure 41
1010
0000
0010
1000
0100
0000
0010
0001
,  // measure 42
0100
1000
1100
0010
1001
0000
0110
0000
,  // measure 43
1001
0000
1000
0010
0001
0100
0110
0000
,  // measure 44
1001
0000
0001
0100
1000
0010
0110
0000
,  // measure 45
1001
0000
0100
0010
0001
0000
0001
0010
,  // measure 46
1000
0100
0110
0000
0110
0000
1001
0000
,  // measure 47
0110
0000
1000
0100
0001
0010
1000
0000
,  // measure 48
1100
0000
1000
0010
0001
0000
0101
0000
,  // measure 49
1100
0000
1000
0000
0100
0100
0010
0000
,  // measure 50
0011
0000
0001
0000
0010
0010
0100
0000
,  // measure 51
1100
0000
0001
0100
1000
0010
0001
0000
,  // measure 52
0101
0000
0000
0000
0001
0100
0001
0000
1000
0000
0010
0000
0100
0000
0000
0000
,  // measure 53
1001
0000
1000
0100
1000
0100
0001
0010
,  // measure 54
1001
0000
0000
0000
0001
0100
0001
0000
1000
0100
1000
0000
0010
0000
0000
0000
,  // measure 55
1001
0000
0000
0000
1000
0010
0100
0001
0100
0010
1000
0000
0100
0000
0100
0000
,  // measure 56
0000
0000
1000
0010
0001
0010
1000
0000
0100
0000
0100
0000
0100
0000
0000
0000
,  // measure 57
0000
0000
0000
0000
0001
0010
0100
1000
0100
0010
0001
0000
0100
0000
0100
0000
,  // measure 58
0000
0000
0001
0010
1000
0010
0001
0000
0100
0000
0100
0000
0100
0000
0000
0000
,  // measure 59
0000
0000
0000
0000
1000
0001
0100
0010
0100
0001
1000
0000
0010
0000
0010
0000
,  // measure 60
0000
0000
1000
0001
0010
0001
1000
0000
0100
0000
0100
0000
0100
0000
0000
0000
,  // measure 61
0000
0000
0000
0000
0001
1000
0010
0100
0010
1000
0001
0000
0100
0000
0100
0000
,  // measure 62
0000
0000
0001
1000
0010
1000
0001
0000
0100
0000
0100
0000
0100
0000
0000
0000
,  // measure 63
0000
0000
0000
0000
0010
0000
0000
0000
0000
0010
1000
0100
0000
0000
0000
0000
,  // measure 64
0000
0000
0010
0000
0001
0000
0100
0000
0000
0000
0010
1000
0010
0000
0010
0100
0010
0000
0010
0001
0010
0000
0010
0000
0000
0000
1000
0000
0100
0000
1000
0000
,  // measure 65
0001
0000
0000
0000
0000
0000
0010
0000
0000
0000
0000
0000
0001
0000
0000
0000
0000
0000
0000
0000
0000
0000
0000
0000
0100
0000
0000
0000
0000
0000
0000
0000
0000
0000
0000
0000
1000
0000
0000
0000
0000
0000
0000
0000
0000
0000
0000
0000
0001
0000
0000
0000
0000
0000
0000
0000
0000
0000
0000
0000
0000
0000
0000
0000
0000
0000
0000
0000
0000
0000
0000
0000
0000
0000
0000
0000
0000
0000
0000
0000
0000
0000
0000
0000
0000
0000
0000
0000
0000
0000
0000
0000
0000
0000
0000
0000
0001
0000
0000
0000
0000
0000
0000
0000
0000
0000
0000
0000
0000
0000
0000
0000
0100
0000
0000
0000
0000
0000
0000
0000
0000
0000
0000
0000
0000
0000
0000
0000
0010
0000
0000
0000
0000
0000
0000
0000
0000
0000
0000
0000
0000
0000
0000
0000
1000
0000
0000
0000
0000
0000
0000
0000
0000
0000
0000
0000
0000
0000
0000
0000
0000
0000
0000
0000
0000
0000
0000
0000
0000
0000
0000
0000
0000
0000
0000
0000
0000
0000
0000
0000
0000
0000
0000
0000
0000
0000
0000
0000
0000
0000
0000
0000
,  // measure 66
1010
1000
0010
0100
0001
1000
0010
0100
0001
0100
0010
1000
,  // measure 67
0100
0000
0010
0000
0100
0000
1000
0000
0000
0010
0000
0000
0001
0000
0000
1000
0000
0000
0100
0000
0000
0001
0000
0000
,  // measure 68
0010
1001
0000
0000
0110
0000
0000
1001
,  // measure 69
0000
0000
0000
0000
0001
0010
0100
1000
0010
0100
0001
0000
0110
0000
1001
0000
,  // measure 70
1000
0000
0001
0010
1000
0010
0001
0000
0011
0000
1001
0000
0011
0000
0000
0000
,  // measure 71
1001
0000
0000
0000
1000
0010
0100
0001
0010
0100
1000
0000
0110
0000
1001
0000
,  // measure 72
0001
0000
1000
0010
0001
0010
1000
0000
1010
0000
1001
0000
1010
0000
0000
0000
,  // measure 73
1001
0000
0000
0000
0001
0100
0010
1000
0100
0010
0001
0000
0110
0000
1001
0000
,  // measure 74
1000
0000
0001
0100
1000
0100
0001
0000
0101
0000
1001
0000
0101
0000
0000
0000
,  // measure 75
1001
0000
0000
0000
1000
0100
0010
0001
0100
0010
1000
0000
0110
0000
1001
0000
,  // measure 76
0001
0000
1000
0100
0001
0100
1000
0000
1100
0000
1001
0000
1100
0000
0000
0000
,  // measure 77
0110
1001
0110
0000
2002
0000
0000
0000
,  // measure 78
0000
0000
0000
0000
,  // measure 79
0000
0000
0000
0000
,  // measure 80
3003
0000
0001
1000
0110
0000
0000
0000
0000
0000
0000
0000
0000
0000
0000
0000
;
