#TITLE:far in the blue sky...;
#SUBTITLE:;
#ARTIST:saikoro;
#TITLETRANSLIT:;
#SUBTITLETRANSLIT:;
#ARTISTTRANSLIT:;
#CREDIT:;
#BANNER:far in the blue sky....png;
#BACKGROUND:far in the blue sky...-bg.png;
#LYRICSPATH:;
#CDTITLE:cdtitle.png;
#MUSIC:far in the blue sky....mp3;
#OFFSET:-3.250;
#SAMPLESTART:54.300;
#SAMPLELENGTH:12.000;
#SELECTABLE:YES;
#BPMS:0.000=148.000,192.000=74.000,208.000=148.000;
#STOPS:;
#BGCHANGES:;

//---------------dance-single - BASIC----------------
#NOTES:
     dance-single:
     BASIC:
     Easy:
     2:
     0.146,0.259,0.101,0.000,0.000:
0000
0000
0000
0000
,
0000
0000
0000
0000
,
0000
0000
0000
0000
,
0000
0000
0000
0000
,
0000
0000
0000
0000
,
0000
0000
0000
0000
,
0000
0000
0000
0000
,
0000
0000
0000
0000
,
1000
0000
0001
0000
,
0100
0000
0010
0000
,
0010
0000
0100
0000
,
0001
0000
1000
0000
,
0001
0000
0100
0000
,
0100
0000
0010
0000
,
0010
0000
1000
0000
,
0001
0000
1000
0000
,
1001
0000
1000
0000
,
0000
0000
1000
0000
,
1001
0000
0001
0000
,
0000
0000
0001
0000
,
1001
0000
1000
0000
,
0000
0000
1000
0000
,
1001
0000
0001
0000
,
0000
0000
0001
0000
,
1001
0000
1000
0000
,
0100
0000
1000
0000
,
1001
0000
0001
0000
,
0100
0000
0001
0000
,
1001
0000
1000
0000
,
0010
0000
1000
0000
,
1001
0000
0001
0000
,
0010
0000
0001
0000
,
1001
0000
0000
0000
,
0010
0000
0000
0000
,
0010
0000
0000
0000
,
0100
0000
0000
0000
,
0100
0000
0000
0000
,
0010
0000
0000
0000
,
0010
0000
0000
0000
,
0100
0000
0000
0000
,
0100
0000
0000
0000
,
0000
0000
0000
0000
,
0100
0000
0000
0000
,
0000
0000
0000
0000
,
0010
0000
0000
0000
,
0000
0000
0000
0000
,
0010
0000
0000
0000
,
0000
0000
0000
0000
,
1001
0000
0000
0000
,
0010
0000
0000
0000
,
0010
0000
0000
0000
,
0100
0000
0000
0000
,
0001
0000
0000
0000
,
0010
0000
0000
0000
,
1000
0000
0000
0000
,
0100
0000
0000
0000
,
0001
0000
0000
0000
,
1000
0000
0000
0000
,
0001
0000
0000
0000
,
0100
0000
0000
0000
,
0010
0000
1000
0000
,
0001
0000
0001
0000
,
0100
0000
0100
0000
,
0010
0000
0010
0000
,
1000
0000
1000
0000
,
0001
0000
0001
0000
,
1000
0000
0001
0000
,
0100
0000
0010
0000
,
0100
0000
0001
0000
,
1000
0000
0010
0000
,
0001
0000
0100
0000
,
1000
0000
1000
0000
,
0001
0000
0001
0000
,
1000
0000
1000
0000
,
0001
0000
0001
0000
,
1000
0000
0001
0000
,
1001
0000
1000
0000
,
1001
0000
0001
0000
,
1001
0000
0100
0000
,
0110
0000
0010
0000
,
0110
0000
0100
0000
,
1001
0000
1000
0000
,
1001
0000
0001
0000
,
1001
0000
0010
0000
,
1000
0010
0100
0001
,
0100
0010
1000
0001
,
1000
0100
0010
0001
,
0010
0100
1000
0001
,
1000
0010
0100
0001
,
0010
0100
1000
0001
,
1000
0100
1000
0001
,
0010
0001
0100
0001
,
0100
0000
0100
0000
,
0010
0000
0010
0000
,
1000
0000
1000
0000
,
0001
0000
0001
0000
,
1000
0000
0100
0000
,
0001
0000
0010
0000
,
1000
0000
0010
0000
,
0001
0000
0100
0000
,
1001
0000
0000
0000
,
1000
0000
0000
0000
,
0001
0000
0000
0000
,
1000
0000
0000
0000
,
0001
0000
0000
0000
,
0100
0000
0000
0000
,
0010
0000
0000
0000
,
0100
0000
0000
0000
,
0010
0000
0000
0000
;

//---------------dance-single - TRICK----------------
#NOTES:
     dance-single:
     TRICK:
     Medium:
     5:
     0.272,0.404,0.283,0.149,0.000:
0000
0000
0000
0000
,
0000
0000
0000
0000
,
0000
0000
0000
0000
,
0000
0000
0000
0000
,
0000
0000
0000
0000
,
0000
0000
0000
0000
,
0000
0000
0000
0000
,
0000
0000
0000
0000
,
1000
0010
0100
0100
,
0100
0001
0100
1000
,
0100
0001
0100
0010
,
1000
1000
0100
0001
,
0001
0010
0100
0100
,
0100
1000
0100
0001
,
0100
1000
0100
0010
,
0001
0001
0100
1000
,
1001
0000
1000
0000
,
1000
0000
1000
0000
,
1001
0000
0001
0000
,
0001
0000
0001
0000
,
1001
0000
0010
0000
,
0010
0000
0100
0000
,
1001
0000
0010
0000
,
0010
0000
0100
0000
,
1001
0100
1000
0010
,
0100
0100
0000
0000
,
1001
0100
0001
0010
,
0100
0100
0000
0000
,
1001
0000
1000
0010
,
0010
0000
1000
0000
,
1001
0000
0001
0010
,
0010
0000
0001
0000
,
1001
0000
0000
1000
,
0100
0000
0010
0000
,
0010
0000
0001
0000
,
0100
0000
1000
0000
,
0100
0000
0000
0001
,
0010
0000
0100
0000
,
0010
0000
1000
0000
,
0100
0000
0001
0000
,
0200
0000
0000
0000
,
0310
0000
0000
0000
,
1001
0000
0000
0000
,
0000
0000
0000
0000
,
0001
0000
0000
0000
,
0000
0000
0000
0000
,
1000
0000
0200
0000
,
0020
0000
0330
0000
,
1001
0000
0100
0000
,
0010
0000
0010
0000
,
0010
0000
0000
0000
,
0100
0000
0100
0000
,
1001
1000
0010
0100
,
1000
0000
1000
0000
,
1000
0001
0100
0100
,
0100
0010
0100
0000
,
0100
0001
0010
0100
,
0001
0000
0001
0000
,
0001
1000
0100
0100
,
0100
0001
1000
0100
,
0010
0100
1000
0110
,
0001
0010
0001
1010
,
0100
1000
0100
0001
,
0010
1010
0100
0101
,
1000
0001
1000
0100
,
0001
0010
0001
0110
,
1000
0100
0001
0100
,
0100
0001
0010
1100
,
0200
0000
0301
0020
,
0100
0130
1100
0100
,
0102
0000
0103
0010
,
1100
0010
1001
0100
,
2001
0000
3001
0010
,
1200
0010
0310
0100
,
0201
0000
0301
0001
,
0001
0110
1001
0110
,
1001
1000
1010
1000
,
1001
1000
1010
1000
,
1001
0001
0011
0001
,
1001
0001
0011
0001
,
1001
0000
0100
0000
,
1001
0000
0100
0000
,
1001
0000
0010
0000
,
1001
0000
0010
0000
,
2001
0001
3010
0100
,
0010
1001
0010
0100
,
1002
1000
0013
0100
,
0010
1001
0010
0100
,
2000
3010
0100
0101
,
0001
0101
0010
0011
,
1001
0010
0100
1100
,
0010
0101
1010
0100
,
2001
0000
3200
0000
,
0302
0000
0023
0000
,
2030
0000
3002
0000
,
2003
0000
3200
0000
,
0320
0000
0032
0000
,
2003
0000
3020
0000
,
2030
0000
3200
0000
,
0302
0000
0203
0000
,
1300
0000
1000
0000
,
1000
0000
1000
0000
,
1000
0000
1000
0000
,
1000
0000
1000
0000
,
0010
0000
0010
0000
,
0010
0000
0010
0000
,
0010
0000
0010
0000
,
0010
0000
0010
0000
,
1001
0000
0000
0000
;

//---------------dance-single - HEAVY----------------
#NOTES:
     dance-single:
     HEAVY:
     Hard:
     7:
     0.409,0.461,0.390,0.123,0.000:
0000
0000
0000
0000
,
0000
0000
0000
0000
,
0000
0000
0000
0000
,
0000
0000
0000
0000
,
0000
0000
0000
0000
,
0000
0000
0000
0000
,
0000
0000
0000
0000
,
0000
0000
0000
0000
,
1000
0001
0010
0100
0100
0000
0100
0000
,
0101
0000
0001
0100
1000
0000
1010
0000
,
1000
1000
0100
0001
0100
0000
0010
0000
,
0011
1010
0100
0100
,
0001
1000
0010
0100
0100
0000
0100
0000
,
1100
0000
1000
0100
0001
0000
0011
0000
,
0001
0001
0100
1000
0100
0000
0010
0000
,
1010
0011
0100
0100
,
1001
0100
1000
1001
,
0100
0001
1001
1001
,
1001
0100
0001
1001
,
0100
1000
1001
1001
,
1001
0010
1000
1001
,
0010
0001
0100
1001
,
1001
0010
1000
1001
,
0010
1000
0100
1001
,
1001
1000
0100
0000
1000
0000
0010
0000
,
0100
0001
0100
0000
0100
0000
0110
0000
,
0001
0000
0100
0001
0010
1000
0100
0000
,
0100
0200
0010
0310
,
1001
0001
0100
0000
0010
0000
1000
0000
,
0100
0001
0100
0000
0010
0000
0110
0000
,
1001
0000
1000
0000
0001
0100
0010
0000
,
0100
0000
0010
1000
0100
0001
1000
0000
,
1001
0000
1000
0100
0000
0010
0010
0000
,
0100
0000
0100
0000
0010
0010
0010
0000
,
0001
0010
0100
0000
1000
0000
0100
0000
,
0100
0000
0100
1000
0010
0000
0010
0000
,
1001
0000
0001
0100
0000
0010
0010
0000
,
0100
0000
0100
0000
0010
0010
0010
0000
,
1000
0010
0100
0000
0001
0000
0100
0000
,
0100
0000
0100
0001
0010
0000
0010
0000
,
0200
0010
0000
0010
,
0000
1000
0000
0001
,
2300
0010
0000
3100
,
0001
0000
0100
0000
,
0020
0100
0000
0001
,
0000
0100
0000
1000
,
2030
0010
3200
0000
,
0020
0000
0330
0000
,
1001
0100
0100
0000
,
0010
0010
0010
0000
,
0010
1000
0100
0010
0001
0000
0100
0000
,
0010
1000
0100
0000
0001
0000
0100
0000
,
1001
1000
1000
0000
0010
0000
0010
0000
,
0001
0100
1000
1010
,
1000
0001
0100
0000
0100
0000
1010
0000
,
0001
0010
0110
0100
,
1010
0000
1000
0001
0100
0000
0100
0010
,
0100
0100
0001
0010
,
1010
0000
0010
1000
0100
0000
0100
0000
,
0100
0001
0100
1000
0100
0001
0100
1000
,
0020
0000
0130
0000
1000
0010
0100
0000
,
0101
0000
2000
0000
3010
0100
1000
0000
,
1200
0000
1300
0100
0001
0000
0011
0000
,
0010
1000
1001
0100
,
1002
0000
1003
0010
0002
0000
0103
0000
,
2100
0000
3010
0000
0010
0000
0010
0001
,
0200
1300
1000
1010
,
1100
0100
0001
0011
,
0100
1010
0200
0001
,
0000
1300
0100
1001
,
0010
0010
0020
1000
,
0000
0031
1001
0100
,
1001
0000
0100
0001
2000
0000
0100
0000
,
3020
0031
2000
3010
,
0001
0100
1001
1000
,
0001
0000
0100
0010
1000
0100
0010
0001
,
1000
0100
1000
0000
1010
0000
1001
0000
,
0001
0100
1000
0000
1010
0000
1001
0000
,
0001
0100
0001
0000
0011
0000
1001
0000
,
1000
0100
0001
0000
0011
0000
1001
0000
,
1000
0010
1000
0100
1000
0100
1000
0000
,
1000
0010
0001
0000
0100
0000
0100
0000
,
0001
0010
0001
0100
0001
0100
0001
0000
,
0001
0010
1000
0000
0100
0000
0100
0000
,
0001
0010
0100
0000
1000
0010
0100
0000
,
0001
1000
1000
1000
0010
1000
0001
0000
,
0001
0010
0010
1000
0010
0100
0100
0000
,
0010
0011
0010
0011
,
1000
0001
0100
0110
,
0002
0000
2003
0000
,
3001
0100
0100
1000
0010
0001
1000
0000
,
1000
0010
0100
0001
0010
0100
1000
0001
,
1000
1010
1000
1001
,
1000
1100
1000
1001
,
0001
0011
0001
1001
,
0001
0101
0001
1001
,
1000
1010
0010
0100
,
0100
0001
0100
1000
,
0010
0001
0201
0000
,
0320
0000
0031
0000
,
1001
0000
0010
0000
,
0010
0000
1000
0000
,
0001
0000
0010
0000
,
0010
0000
0001
0000
,
1000
0000
0010
0000
,
0010
0000
0100
0000
,
0010
0000
0010
0000
,
0010
0010
0010
0010
,
1001
0000
0000
0000
;

//---------------dance-single - ONI----------------
#NOTES:
     dance-single:
     ONI:
     Challenge:
     10:
     0.820,0.865,0.555,0.267,0.627:
0000
0000
0000
0000
,
0000
0000
0000
0000
,
0000
0000
0000
0000
,
0000
0000
0000
0000
,
0000
0000
0000
0000
,
0000
0000
0000
0000
,
0000
0000
0000
0000
,
0000
0000
0000
0000
,
0101
0000
0001
0100
0001
0000
0100
0000
0100
0010
0000
0010
0100
0000
0100
0000
,
0101
0000
0001
1000
0001
0000
1000
0000
1000
0010
0000
0010
1000
0000
1000
0000
,
1001
0000
1000
0100
1000
0000
0100
0000
0100
0010
0000
0010
0100
0000
0100
0000
,
1100
0000
1000
0001
1000
0000
0001
0000
0001
0010
0000
0010
0001
0000
0001
0000
,
1001
0000
1000
0010
0100
0000
0001
0000
0100
0010
0000
0010
1000
0000
1000
0000
,
1100
0000
1000
0001
0010
0000
0100
0000
0100
0010
0000
0010
0001
0000
0001
0000
,
1001
0000
0001
1000
0010
0000
0100
0000
0100
0010
0000
0010
1000
0000
1000
0000
,
1010
0000
1000
0001
0100
0000
0100
0000
0100
0010
1000
0100
0010
0001
1000
0001
,
1000
0010
0100
0001
0100
0000
0100
0000
1000
0100
0000
0100
1000
0000
0100
0000
,
0001
0000
0010
0000
0001
0000
1000
0000
1000
0001
0000
0001
1000
0000
0001
0000
,
1000
0010
0100
0001
0100
0000
1000
0000
0100
0001
0000
0001
0100
0000
0010
0000
,
1000
0000
0100
0000
1000
0000
0001
0000
1000
0001
0000
0001
1000
0000
0010
0000
,
0100
0001
0010
0100
1000
0000
0001
0000
0100
0001
0000
0001
0100
0000
0010
0000
,
1000
0000
0100
0000
1000
0000
0001
0000
0010
0001
0000
0001
0100
0000
0100
0000
,
0010
1000
0100
0010
0001
0000
0100
0000
0010
0100
0000
0100
0010
0000
1000
0000
,
0001
0000
0100
0000
0010
0000
0100
0000
0001
0010
0000
0010
0001
0000
1000
0000
,
1000
0010
0100
0010
1000
0000
0100
0000
1000
0010
0000
0010
0100
0000
0100
0000
,
0101
0000
0001
0000
0101
0000
0100
0000
0010
1000
0000
1000
0100
0000
1000
0000
,
0001
0010
0100
1000
0100
0000
1000
0000
0010
1000
0000
1000
0100
0000
1000
0000
,
1010
0000
1000
0000
1100
0000
0100
0000
1000
0010
0000
0010
1000
0000
0001
0000
,
1000
0010
0100
0010
1000
0000
0100
0000
0010
0100
0000
0010
1000
0000
0100
0000
,
1100
0000
1000
0000
1010
0000
0010
0000
0010
1000
0000
0010
0100
0000
0001
0000
,
1000
0010
0100
0001
0100
0000
0010
0000
1000
0100
0000
1000
0001
0000
0100
0000
,
0010
0000
1000
0000
0100
0010
0100
1000
0100
0010
0001
0100
0010
0100
0001
1000
,
1001
0000
0000
0000
1000
0000
0200
0010
0000
0000
0010
0000
0010
0000
0310
0000
,
0200
0000
1000
0000
1000
0000
1300
0100
0020
0000
0001
0000
0001
0000
0031
0000
,
0001
0010
0100
2000
0100
0000
3200
0010
0000
0000
0010
0000
0010
0000
0310
0000
,
1100
0000
1100
0000
1000
0000
2000
0010
0000
0010
3100
0000
0100
0000
0101
0000
,
0001
1000
0100
0020
0001
0000
0032
0010
0000
0000
0010
0000
0013
0000
0002
0000
,
0100
0000
0100
0000
0103
0000
0020
1000
0000
0000
1030
0000
0200
0000
1000
0000
,
1300
0010
0100
0002
0100
0000
0103
0001
0000
0100
0010
0000
0100
0000
0100
0010
,
1000
0000
0100
0000
1100
0000
2000
0010
0000
3010
1000
0000
0010
0000
1000
0001
,
0100
0100
2001
0100
0100
3100
1002
0100
,
0100
0103
2001
0100
0100
3100
1002
0100
,
0100
0103
2001
0010
0010
3010
1002
0010
,
0010
0013
2001
0010
0010
3010
1002
0010
,
0010
0013
1001
0001
1000
0100
1100
1000
,
0010
0100
0101
0001
1000
0100
1100
1000
,
0010
0100
0101
0001
0100
0010
1010
1000
,
0001
1000
1001
1000
0100
0010
1001
0110
,
1001
0000
0001
0000
0000
0100
0000
0100
0000
0000
0100
0000
0010
0000
0010
0100
0000
0000
0000
0000
0000
0000
0000
0000
0100
0000
0000
0000
0000
0000
0000
0000
,
0010
0000
1000
0000
0000
0100
0000
0010
0001
0000
0100
0000
0000
0010
0000
0100
0000
0000
0000
0000
0000
0000
0000
0000
0100
0000
0000
0000
0000
0000
0000
0000
,
0010
0000
0001
0000
0000
0100
0000
0010
0000
0000
1000
0000
0100
0000
0010
0100
0000
0000
0000
0000
0000
0000
0000
0000
0100
0000
0000
0000
0000
0000
0000
0000
,
0010
0100
1000
0000
0101
0000
0000
0000
0001
0010
1000
0100
0000
0000
0000
0000
,
1001
0000
1000
0000
0000
1000
0000
0010
0000
0000
0001
0000
0010
0000
1000
0100
,
0000
0000
0100
0000
0000
0100
0000
0010
0001
0000
0100
0000
0000
0010
0000
1000
,
0000
0000
0001
0000
0000
0100
0000
0100
0000
0000
0010
0000
1000
0000
0100
0001
,
0000
0000
0100
0000
0000
1000
0000
0010
0100
0000
0100
0000
0000
0001
0000
0010
,
0100
0000
1100
0000
0000
1000
0000
0010
0000
0000
0110
0000
0100
0000
0001
0100
,
0000
0000
1100
0000
0000
1000
0000
0100
0001
0000
0010
0000
0000
0100
0000
1100
,
0000
0000
1000
0000
0000
0001
0000
0101
0000
0000
0100
0000
1000
0000
0100
0002
,
0000
0000
0000
0000
0000
0000
0000
0000
2003
0000
0000
0000
0000
0000
0000
0000
0000
0000
0000
0000
3200
0000
0000
0000
0000
0000
0000
0000
0000
0000
0000
0000
0302
0000
0000
0000
0200
0300
0000
0000
2003
0000
0000
0000
0200
0300
0000
0000
3002
0000
0000
0000
0200
0300
0000
0000
2003
0000
0000
0000
0200
0300
0000
0000
,
3010
0000
0100
0000
0120
0000
0130
0001
1000
0000
0010
0000
0100
0001
0100
0000
,
0100
0000
1000
0000
1010
0000
1000
0010
1000
0000
0100
0000
0101
0000
0001
0100
,
1000
0010
1001
0010
1100
0001
0011
0100
,
1100
0000
1000
0001
1000
0000
0001
1000
0001
0000
0100
0010
0100
0000
0001
1000
,
0001
0000
1000
0000
1200
0000
0010
0301
0200
0000
0010
0000
0310
0000
1100
0000
,
0100
1000
0020
0000
0100
0000
0130
0000
0010
0000
0100
0000
0001
0100
0001
0000
,
0101
0000
0100
0000
1000
0000
0020
0000
0100
0000
0130
0000
0101
0000
0001
0100
,
0001
0000
1000
0100
1000
0000
0001
0010
0001
0000
1000
0000
0100
0000
0010
0000
,
0001
0100
0000
0010
1000
0000
0100
0000
0100
0001
0100
0000
0100
1000
0000
1000
,
0100
0000
1100
0000
0100
0000
1000
0000
0010
1000
0000
1000
0100
0000
0100
0000
,
0110
0000
0010
0000
0010
0001
0000
0001
0100
0000
0100
0000
1000
0000
0100
0000
,
0101
0001
0101
0100
1100
1000
1100
0100
,
0101
0000
0001
0100
0001
0000
0100
0000
1100
0000
1000
0000
1200
0000
1000
0000
,
0310
0000
0100
0000
0001
0000
0010
0000
0001
0100
0010
0000
0100
0000
1100
0000
,
1000
0000
0100
0000
0101
0000
0001
0000
0100
0010
0100
0000
0001
0100
0000
0100
,
0001
0000
1000
0000
1100
0000
0001
0000
1000
0010
0100
0001
0100
0010
1000
0100
,
1000
0100
1000
0100
0001
0100
1100
1000
,
0010
0001
0100
1000
1100
1000
2001
0001
,
3001
0100
0001
0100
1000
0100
0101
0001
,
0010
1000
0100
0001
0101
0001
1001
1000
,
1001
0001
1001
1000
1001
0001
1001
1000
,
1001
0001
0100
0100
0010
1000
0100
0001
,
0101
0100
1000
0100
0001
0100
0001
0010
,
0001
0010
1000
0100
1000
0001
1001
0110
,
1001
0000
1000
0000
0100
1000
0100
0000
1000
0000
0010
0000
0100
0001
0100
0000
,
0100
0001
0100
0000
0100
0000
1000
0000
0100
0000
0001
0000
0010
0000
0001
0000
,
1000
0000
0010
0100
0010
0000
1000
0000
0010
0100
0001
0000
1000
0100
0010
0000
,
0001
0010
0011
0010
1010
1000
0100
0001
,
1000
0010
1000
0000
0001
0010
0001
0000
1000
0100
1000
0000
0010
0100
0010
0000
,
1000
0100
1000
0000
0001
0000
0100
0000
1000
0000
0100
0000
0101
0000
0001
0000
,
1001
1000
0100
0100
0010
0001
1000
0100
,
1000
0000
0010
0000
0000
0100
0000
0001
0100
0010
1000
0100
1000
0010
0100
0001
,
2000
0000
0100
0000
0000
3200
0000
0000
0010
0000
0000
0310
0000
0000
1001
0000
,
1000
0100
0001
0100
1000
0001
1001
0000
,
0001
0010
0100
1000
0100
0020
0000
0000
0032
0000
0000
0103
0000
0000
0110
0000
,
0100
0001
0100
0010
0100
1000
1001
0000
,
1000
0010
0100
0001
0100
2000
0000
0000
3020
0000
0000
0130
0000
0000
0101
0000
,
0100
0010
0001
0100
1000
0001
1001
0000
,
1000
0010
0100
0001
0100
0020
0000
0000
2030
0000
0000
3200
0000
0000
0320
0000
,
0000
0000
0032
0000
0000
0000
0103
0000
0101
0000
0000
0011
0000
0000
1001
0000
,
1010
0000
1000
0010
1000
0000
0010
0000
0010
0100
0000
0100
0010
0000
0010
0000
,
1010
0000
1000
0001
1000
0000
0001
0000
0001
0100
0000
0100
0001
0000
0001
0000
,
1001
0000
0001
0010
0001
0000
0010
0000
0010
0100
0000
0100
0010
0000
0010
0000
,
0011
0000
0001
1000
0001
0000
1000
0000
1000
0100
0000
0100
1000
0000
1000
0000
,
1001
0000
0001
0100
0010
0000
1000
0000
0010
0100
0000
0100
0001
0000
0001
0000
,
0011
0000
0001
1000
0100
0000
0010
0000
0010
0100
0000
0100
1000
0000
1000
0000
,
1001
0000
1000
0001
0100
0000
0010
0000
0010
0100
0000
0100
0001
0000
0001
0000
,
0101
0000
0001
1000
0010
0000
0010
0000
1000
0001
0000
0100
1000
0000
0001
0000
,
1001
0000
0000
0000
;

//---------------dance-double - ----------------
#NOTES:
     dance-double:
     :
     Challenge:
     11:
     0.828,0.865,0.566,0.320,0.627: // measure 1
00000000
00000000
00000000
00000000
,  // measure 2
00000000
00000000
00000000
00000000
,  // measure 3
00000000
00000000
00000000
00000000
,  // measure 4
00000000
00000000
00000000
00000000
,  // measure 5
00000000
00000000
00000000
00000000
,  // measure 6
00000000
00000000
00000000
00000000
,  // measure 7
00000000
00000000
00000000
00000000
,  // measure 8
00000000
00000000
00000000
00000000
,  // measure 9
00000011
00000000
00000010
00000001
00000010
00000000
00000001
00000000
00001000
00000100
00000000
00001000
00000100
00000000
00010000
00000000
,  // measure 10
00011000
00000000
01000000
00010000
01000000
00000000
00100000
00000000
00010000
10000000
00000000
00010000
10000000
00000000
00100000
00000000
,  // measure 11
11000000
00000000
00010000
00100000
00010000
00000000
00100000
00000000
00001000
00010000
00000000
00001000
00010000
00000000
00000100
00000000
,  // measure 12
00000110
00000000
00000010
00001000
00000010
00000000
00001000
00000000
00000001
00000010
00000000
00000001
00000010
00000000
00001000
00000000
,  // measure 13
00010100
00000000
00000010
00000100
00000010
00000000
00010000
00000000
01000000
00100000
00000000
01000000
00100000
00000000
00010000
00000000
,  // measure 14
11000000
00000000
00010000
00100000
00010000
00000000
00001000
00000000
00000010
00000100
00000000
00000010
00000100
00000000
00010000
00000000
,  // measure 15
00001001
00000000
00000100
00001000
00000100
00000000
00000010
00000000
00010000
01000000
00000000
00010000
01000000
00000000
10000000
00000000
,  // measure 16
01100000
00000000
10000000
00010000
10000000
00000000
00011000
00000000
00000100
00000010
00000001
00001000
00000010
00000100
00010000
00001000
,  // measure 17
01000000
10000000
01000000
00010000
00100000
00000000
00001000
00000000
00000100
00000010
00000000
00000010
00000100
00000000
00000001
00000000
,  // measure 18
00001100
00000000
00000010
00000000
00000101
00000000
00001000
00000000
00000100
00010000
00000000
00010000
00001000
00000000
00100000
00000000
,  // measure 19
00001000
00010000
00000100
00000010
00000100
00000000
00010000
00000000
00001000
00000100
00000000
00000100
00000010
00000000
00010000
00000000
,  // measure 20
11000000
00000000
00100000
00000000
01010000
00000000
10000000
00000000
00010000
00100000
00000000
00100000
00010000
00000000
10000000
00000000
,  // measure 21
00010000
00001000
00000100
00000001
00000100
00000000
00010000
00000000
01000000
00010000
00000000
00010000
01000000
00000000
00100000
00000000
,  // measure 22
11000000
00000000
00010000
00000000
00101000
00000000
00000100
00000000
00001000
00000010
00000000
00000010
00000001
00000000
00000100
00000000
,  // measure 23
00000010
00001000
00010000
01000000
10000000
00000000
01000000
00000000
00100000
00010000
00000000
00010000
00001000
00000000
00000100
00000000
,  // measure 24
00000011
00000000
00001000
00000000
00000101
00000000
00000010
00000000
00000100
00001000
00000000
00001000
00010000
00000000
00100000
00000000
,  // measure 25
10000000
01000000
00010000
00100000
01000000
00000000
01100000
00000000
00010000
00100000
00000000
00100000
00001000
00000000
00000100
00000000
,  // measure 26
00000002
00000000
00000010
00000000
00000203
00000000
00001000
00000000
00010300
00000100
00000000
00000010
00001000
00000000
00010000
00000000
,  // measure 27
01000000
10000000
00010000
01000000
00100000
00000000
10000000
00000000
00010000
00100000
00000000
00100000
00001000
00000000
00000001
00000000
,  // measure 28
00000200
00000000
00000001
00000000
00002300
00000000
00000010
00000000
00013000
00000100
00000000
00000100
00000010
00000000
00001000
00000000
,  // measure 29
00000010
00010000
00001000
00100000
01000000
00000000
10000000
00000000
00100000
00010000
00000000
00010000
10000000
00000000
01000000
00000000
,  // measure 30
00020000
00000000
10000000
00000000
02030000
00000000
00100000
00000000
03001000
00010000
00000000
00010000
00100000
00000000
01000000
00000000
,  // measure 31
10000000
01000000
00010000
00100000
00001000
00000000
00000100
00000000
00000001
00000100
00000000
00000100
00001000
00000000
00010000
00000000
,  // measure 32
00200000
00000000
10000000
00000000
01300000
00010000
00001000
00000010
00000100
00000001
00000010
00001000
00010000
00100000
01000000
10000000
,  // measure 33
10010000
00000000
00000000
00000000
00100000
00000000
00020000
00001000
00000000
00000000
00000100
00000000
00000100
00000000
00030100
00000000
,  // measure 34
00002000
00000000
00000010
00000000
00000010
00000000
00003010
00000001
00000200
00000000
00001000
00000000
00001000
00000000
00001300
00000000
,  // measure 35
00010000
00100000
10000000
02000000
10000000
00000000
03200000
01000000
00000000
00000000
00010000
00000000
00010000
00000000
00310000
00000000
,  // measure 36
01010000
00000000
01010000
00000000
01000000
00000000
02000000
00001000
00000000
00001000
03010000
00000000
00010000
00000000
00011000
00000000
,  // measure 37
00010000
00001000
00000100
00000020
00000001
00000000
00000032
00000010
00000000
00000000
00000100
00000000
00000103
00000000
00000200
00000000
,  // measure 38
00001000
00000000
00001000
00000000
00001300
00000000
00000200
00000001
00000000
00000000
00000301
00000000
00002000
00000000
00000010
00000000
,  // measure 39
00003010
00000100
00001000
00020000
00100000
00000000
00230000
00010000
00000000
10300000
01000000
00000000
00010000
00000000
00010000
00001000
,  // measure 40
01000000
00000000
00010000
00000000
00010100
00000000
00002000
00000010
00000000
00003010
00001000
00000000
00000100
00000000
00000001
00000100
,  // measure 41
00001000
00010000
00012000
01000000
01000000
01003000
00021000
00000100
,  // measure 42
00000100
00030100
00012000
01000000
01000000
01003000
00021000
00000100
,  // measure 43
00000100
00030100
00012000
00100000
00100000
00103000
00021000
00000010
,  // measure 44
00000010
00030010
00012000
00100000
00100000
00103000
00021000
00000010
,  // measure 45
00000010
00030010
10010000
00010000
00000100
00000010
00000011
00001000
,  // measure 46
00000100
00010000
00011000
00100000
01000000
10000000
01010000
00001000
,  // measure 47
01000000
00100000
00011000
00000010
00000100
00000001
00001100
00010000
,  // measure 48
00001000
01000000
00110000
01000000
10000000
00010000
01100000
00011000
,  // measure 49
00000110
00000000
00010000
00000000
00000000
01000000
00000000
01000000
00000000
00000000
00000100
00000000
00000010
00000000
00000001
00000010
00000000
00000000
00000000
00000000
00000000
00000000
00000000
00000000
00000100
00000000
00000000
00000000
00000000
00000000
00000000
00000000
,  // measure 50
00010000
00000000
10000000
00000000
00000000
01000000
00000000
10000000
00010000
00000000
00100000
00000000
00000000
00001000
00000000
00000010
00000000
00000000
00000000
00000000
00000000
00000000
00000000
00000000
00000001
00000000
00000000
00000000
00000000
00000000
00000000
00000000
,  // measure 51
00000100
00000000
00010000
00000000
00000000
00001000
00000000
00000100
00000000
00000000
00001000
00000000
00010000
00000000
01000000
00100000
00000000
00000000
00000000
00000000
00000000
00000000
00000000
00000000
10000000
00000000
00000000
00000000
00000000
00000000
00000000
00000000
,  // measure 52
00100000
00001000
00000100
00000000
00001001
00000000
00000000
00000000
00000100
00000001
00001000
00000010
00000000
00000000
00000000
00000000
,  // measure 53
00011000
00000000
01000000
00000000
00000000
00100000
00000000
10000000
00000000
00000000
00010000
00000000
00001000
00000000
00000100
00000010
,  // measure 54
00000000
00000000
00000010
00000000
00000000
00000010
00000000
00000001
00001000
00000000
00010000
00000000
00000000
00001000
00000000
01000000
,  // measure 55
00000000
00000000
10000000
00000000
00000000
00100000
00000000
00100000
00000000
00000000
01000000
00000000
00001000
00000000
00000100
00010000
,  // measure 56
00000000
00000000
00000010
00000000
00000000
00000001
00000000
00001000
00000100
00000000
00000100
00000000
00000000
00010000
00000000
00001000
,  // measure 57
01000000
00000000
01100000
00000000
00000000
00100000
00000000
10000000
00000000
00000000
10010000
00000000
00010000
00000000
00000100
00001000
,  // measure 58
00000000
00000000
00010100
00000000
00000000
00000001
00000000
00000100
00001000
00000000
00000010
00000000
00000000
00001000
00000000
00001100
,  // measure 59
00000000
00000000
00000001
00000000
00000000
00000010
00000000
00000110
00000000
00000000
00010000
00000000
00100000
00000000
10000000
00020000
,  // measure 60
00000000
00000000
00000000
00000000
00032000
00000000
00000000
00000000
00000000
00000000
00003200
00000000
00000000
00000000
00000000
00000000
00020300
00000000
00002000
00003000
00030020
00000000
00000200
00000300
00020030
00000000
00002000
00003000
00030020
00000000
00000200
00000300
,  // measure 61
00001030
00000000
00000010
00000000
00000102
00000000
00000103
00000010
00000001
00000000
00000100
00000000
00010000
00000100
00010000
00000000
,  // measure 62
00001000
00000000
00100000
00000000
01100000
00000000
00010000
10000000
00010000
00000000
01000000
00000000
01010000
00000000
00010000
00001000
,  // measure 63
00000100
00000010
00001001
00000010
00000101
00001000
00001010
00010000
,  // measure 64
01010000
00000000
10000000
01000000
10000000
00000000
00010000
00100000
00010000
00000000
00001000
00010000
00001000
00000000
00000100
00000010
,  // measure 65
00000100
00000000
00001000
00000000
00021000
00000000
01000000
00130000
20000000
00000000
01000000
00000000
31000000
00000000
01010000
00000000
,  // measure 66
00001000
00000100
00000020
00000000
00000001
00000000
00000031
00000000
00000100
00000000
00001000
00000000
00010000
01000000
00010000
00000000
,  // measure 67
11000000
00000000
00010000
00000000
01000000
00000000
00200000
00000000
00001000
00000000
00301000
00000000
00011000
00000000
00000100
00000010
,  // measure 68
00000100
00000000
00000001
00000010
00000001
00000000
00001000
00000100
00001000
00000000
00000100
00000000
00010000
00000000
00000100
00000000
,  // measure 69
00000010
00001000
00000000
00010000
01000000
00000000
10000000
00000000
10000000
00100000
10000000
00000000
00010000
01000000
00000000
01000000
,  // measure 70
00010000
00000000
00011000
00000000
00000100
00000000
00000001
00000000
00000010
00001000
00000000
00001000
00000010
00000000
00000001
00000000
,  // measure 71
00000101
00000000
00001000
00000000
00000100
00001000
00000000
00001000
00010000
00000000
01000000
00000000
10000000
00000000
01000000
00000000
,  // measure 72
01010000
00010000
00011000
00001000
00001001
00000001
00000011
00000010
,  // measure 73
00000110
00000000
00001000
00000100
00001000
00000000
00010000
00000000
00011000
00000000
00100000
00000000
02100000
00000000
10000000
00000000
,  // measure 74
13000000
00000000
01000000
00000000
00010000
00000000
00100000
00000000
00010000
00001000
00000100
00000000
00000010
00000000
00000110
00000000
,  // measure 75
00000001
00000000
00000100
00000000
00001100
00000000
00000000
00000000
00001000
00000100
00001000
00000000
00010000
01000000
00000000
01000000
,  // measure 76
00010000
00000000
10000000
00000000
11000000
00000000
00010000
00000000
00001000
00000100
00000010
00000001
00000010
00000100
00001000
00010000
,  // measure 77
00001000
00000010
00001000
00010000
01000000
00010000
11000000
00010000
,  // measure 78
00001000
00000010
00000001
00000100
00000011
00001000
00002100
00010000
,  // measure 79
00013000
01000000
00010000
01000000
10000000
00100000
01010000
00100000
,  // measure 80
00010000
00001000
00000100
00000001
00001100
00000001
00000011
00001000
,  // measure 81
00001100
00010000
00011000
00100000
01100000
10000000
10010000
01000000
,  // measure 82
01010000
00010000
00001000
00001000
00000100
00000001
00001000
00000100
,  // measure 83
00000011
00001000
00010000
01000000
00100000
10000000
00100000
00010000
,  // measure 84
00001000
00010000
00001000
00000100
00000010
00000001
00001100
00000011
,  // measure 85
00001100
00000000
00010000
00000000
00100000
01000000
00100000
00000000
10000000
00000000
01000000
00000000
00010000
00001000
00010000
00000000
,  // measure 86
00001000
00010000
00001000
00000000
00000010
00000000
00000100
00000000
00000001
00000000
00000010
00000000
00001000
00000000
00000100
00000000
,  // measure 87
00010000
00000000
01000000
10000000
01000000
00000000
00010000
00000000
00001000
00010000
00100000
00000000
10000000
01000000
00100000
00000000
,  // measure 88
00010000
00001000
00001100
00000010
00000011
00000001
00000100
00001000
,  // measure 89
00100000
00010000
00100000
00000000
10000000
01000000
10000000
00000000
00010000
00100000
00010000
00000000
00001000
00010000
00001000
00000000
,  // measure 90
00000100
00001000
00000100
00000000
00000001
00000000
00000100
00000000
00000010
00000000
00001000
00000000
00010100
00000000
00001000
00000000
,  // measure 91
00000110
00000001
00000100
00000100
00010000
00001000
00010000
01000000
,  // measure 92
10000000
00000000
00100000
00000000
00000000
00001000
00000000
00010000
00000100
00000010
00000001
00000100
00000010
00001000
00010000
01000000
,  // measure 93
20000000
00000000
01000000
00000000
00000000
32000000
00000000
00000000
00100000
00000000
00000000
03100000
00000000
00000000
00011000
00000000
,  // measure 94
00001000
00000100
00000001
00000100
00001000
00000001
00001001
00000000
,  // measure 95
00000100
00001000
00010000
01000000
00100000
20000000
00000000
00000000
30020000
00000000
00000000
01030000
00000000
00000000
01100000
00000000
,  // measure 96
01000000
00010000
00001000
00000100
00000001
00001000
00000101
00000000
,  // measure 97
00000010
00001000
00010000
01000000
00010000
00200000
00000000
00000000
20300000
00000000
00000000
31000000
00000000
00000000
01010000
00000000
,  // measure 98
01000000
00010000
00001000
00000100
00000010
00000001
00001100
00000000
,  // measure 99
00010000
00001000
00000100
00000010
00000001
00000200
00000000
00000000
00002300
00000000
00000000
00203000
00000000
00000000
20300000
00000000
,  // measure 100
00000000
00000000
30020000
00000000
00000000
00000000
01030000
00000000
01020000
00000000
00000000
00032000
00000000
00000000
00003100
00000000
,  // measure 101
00000101
00000000
00001000
00000100
00001000
00000000
00000010
00000000
00010000
00001000
00000000
00010000
00001000
00000000
00100000
00000000
,  // measure 102
11000000
00000000
00010000
00100000
00010000
00000000
10000000
00000000
01000000
00100000
00000000
01000000
00100000
00000000
00001000
00000000
,  // measure 103
00011000
00000000
00000010
00000100
00000010
00000000
00000100
00000000
00000001
00001000
00000000
00000001
00001000
00000000
00000100
00000000
,  // measure 104
00010100
00000000
00001000
00100000
00001000
00000000
00100000
00000000
00010000
10000000
00000000
00010000
10000000
00000000
01000000
00000000
,  // measure 105
01100000
00000000
00010000
00001000
00010000
00000000
00001000
00000000
00000100
00000010
00000000
00000100
00000010
00000000
00001000
00000000
,  // measure 106
00001001
00000000
00000100
00000010
00000100
00000000
00000010
00000000
00000001
00001000
00000000
00000001
00001000
00000000
00000100
00000000
,  // measure 107
00010100
00000000
00001000
00100000
00001000
00000000
00100000
00000000
01000000
10000000
00000000
01000000
10000000
00000000
00010000
00000000
,  // measure 108
01010000
00000000
00001000
01000000
00001000
00000000
00010000
00000000
00000010
00001000
00000000
00000010
00001000
00000000
00000001
00000000
,  // measure 109
00000101
00000000
00000000
00000000
;

//---------------dance-double - ----------------
#NOTES:
     dance-double:
     :
     Hard:
     8:
     0.513,0.519,0.112,0.171,0.155: // measure 1
00000000
00000000
00000000
00000000
,  // measure 2
00000000
00000000
00000000
00000000
,  // measure 3
00000000
00000000
00000000
00000000
,  // measure 4
00000000
00000000
00000000
00000000
,  // measure 5
00000000
00000000
00000000
00000000
,  // measure 6
00000000
00000000
00000000
00000000
,  // measure 7
00000000
00000000
00000000
00000000
,  // measure 8
00000000
00000000
00000000
00000000
,  // measure 9
00001000
00000000
00000000
00000000
00010000
00000000
00000000
00000000
00000100
00000010
00000000
00000100
00000010
00000000
00000000
00000000
,  // measure 10
00000001
00000000
00000000
00000000
00000100
00000000
00000000
00000000
00000010
00010000
00000000
00000010
00010000
00000000
00000000
00000000
,  // measure 11
00001000
00000000
00000000
00000000
00100000
00000000
00000000
00000000
01000000
10000000
00000000
01000000
10000000
00000000
00000000
00000000
,  // measure 12
00100000
00000000
00000000
00000000
01000000
00000000
00000000
00000000
00001000
00010000
00000000
00001000
00010000
00000000
00000000
00000000
,  // measure 13
00011000
00000000
00000000
00000000
00001100
00000000
00000000
00000000
00000010
00000100
00000000
00000010
00000100
00000000
00000000
00000000
,  // measure 14
00001001
00000000
00000000
00000000
00001010
00000000
00000000
00000000
00010000
00001000
00000000
00010000
00001000
00000000
00000000
00000000
,  // measure 15
01100000
00000000
00000000
00000000
10010000
00000000
00000000
00000000
01000000
10000000
00000000
01000000
10000000
00000000
00000000
00000000
,  // measure 16
10010000
00000000
00000000
00000000
01010000
00000000
00000000
00000000
00001000
00100000
00000000
00001000
00100000
00000000
00000000
00000000
,  // measure 17
00002000
00000000
00000000
00000000
00003010
00000100
00000010
00000000
,  // measure 18
00000002
00000000
00000000
00000000
00001003
00000100
00001000
00000000
,  // measure 19
00020000
00000000
00000000
00000000
00031000
00010000
00001000
00000000
,  // measure 20
02000000
00000000
00000000
00000000
03100000
10000000
00100000
00000000
,  // measure 21
00020000
00000000
00000000
00000000
00130000
00001000
00100000
00000000
,  // measure 22
00020000
00000000
00000000
00000000
00030100
00001000
00000100
00000000
,  // measure 23
00000002
00000000
00000000
00000000
00001003
00000010
00001000
00000000
,  // measure 24
00000200
00000000
00000000
00000000
00010300
00000010
00010000
00000000
,  // measure 25
00002000
00000000
00000000
00000000
01003000
00100000
01000000
00000000
,  // measure 26
00010000
00100000
00010000
00000000
10000000
01000000
10000000
00000000
,  // measure 27
00200000
00000000
00000000
00000000
10300000
00010000
10000000
00000000
,  // measure 28
01000000
00100000
01000000
00000000
00001000
00010000
00001000
00000000
,  // measure 29
00000200
00000000
00000000
00000000
00000310
00000001
00000010
00000000
,  // measure 30
00001000
00000010
00001000
00000000
00010000
00000100
00010000
00000000
,  // measure 31
00002000
00000000
00000000
00000000
01003000
00100000
01000000
00000000
,  // measure 32
00010000
10000000
00010000
00000000
00100000
01000000
00100000
00000000
,  // measure 33
00010000
00000000
00100000
00000000
00000000
00001000
00000000
00000000
00010000
00000000
00000000
00000010
00000000
00000000
00001000
00000000
,  // measure 34
00000001
00000000
00000100
00000000
00000000
00000010
00000000
00000000
00001000
00000000
00000000
00000100
00000000
00000000
00010000
00000000
,  // measure 35
00001000
00000000
00100000
00000000
00000000
00000000
00010000
00000000
10000000
00000000
00000000
01000000
00000000
00000000
00100000
00000000
,  // measure 36
00001000
00000000
00010000
00000000
00000000
00000000
00000010
00000000
00000100
00000001
00000000
00001000
00000100
00000000
00010000
00000000
,  // measure 37
00000100
00000000
00000010
00000000
00000000
00000000
00000001
00000000
00000100
00000000
00000000
00001000
00000000
00000000
00010000
00000000
,  // measure 38
01000000
00000000
00100000
00000000
00000000
00000000
01000000
00000000
10000000
00000000
00000000
00010000
00000000
00000000
00100000
00000000
,  // measure 39
00001000
00000000
01000000
00000000
00000000
00000000
00100000
00000000
00001000
00000000
00000000
00010000
00000000
00000000
00000010
00000000
,  // measure 40
00001000
00000000
00000001
00000000
00000000
00000000
00000010
00000000
00000100
00000000
00000000
00001000
00000000
00000000
00000010
00000000
,  // measure 41
00010000
00001000
00100000
00000000
10000000
01000000
00010000
00000000
,  // measure 42
00001000
00000100
00000001
00000010
00000100
00001000
00000010
00000000
,  // measure 43
00010000
00001000
00100000
00000000
01000000
10000000
00010000
00000000
,  // measure 44
00100000
01000000
00010000
00001000
00000100
00000010
00001000
00000000
,  // measure 45
00000001
00000010
00000100
00000000
00010000
00001000
01000000
00000000
,  // measure 46
00100000
10000000
00010000
01000000
00001000
00010000
00000010
00000000
,  // measure 47
00001000
00000100
00000010
00000000
00010000
00001000
00000100
00000000
,  // measure 48
00000010
00010000
00001000
00010000
01000000
10000000
00010000
00000000
,  // measure 49
00200000
00000000
00000000
01300000
00002000
00000000
00000000
01003000
,  // measure 50
00020000
00000000
00000000
00030100
00002000
00000000
00000000
00003100
,  // measure 51
00000020
00000000
00000000
00010030
00002000
00000000
00000000
00013000
,  // measure 52
02000000
00000000
00000000
13000000
00020000
00000000
00000000
10030000
,  // measure 53
00100000
00000000
00010000
00000000
00000000
00001000
00000000
00000100
00000000
00000000
00000010
00000000
00001000
00000000
00000001
00000010
,  // measure 54
00000000
00000000
00000100
00000000
00000000
00001000
00000000
00000010
00000001
00000000
00001000
00000000
00000000
00000010
00000000
00010000
,  // measure 55
00000000
00000000
00001000
00000000
00000000
01000000
00000000
00010000
00000000
00000000
00100000
00000000
01000000
00000000
10000000
01000000
,  // measure 56
00000000
00000000
00100000
00000000
00000000
00010000
00000000
00001000
00010000
00000000
00000100
00000000
00000000
00000010
00000000
00000100
,  // measure 57
00000001
00000000
00000010
00000100
00000000
00001000
00000000
00010000
00000000
00000000
01000000
00000000
00100000
00000000
01000000
10000000
,  // measure 58
00000000
00010000
01000000
00000000
00000000
00001000
00000000
00010000
00000010
00000000
00000100
00000000
00000000
00000001
00000000
00000010
,  // measure 59
00000000
00000000
00000100
00000000
00000000
00001000
00000000
00000010
00000000
00000000
00010000
00000000
00001000
00000000
00100000
01000000
,  // measure 60
00000000
00000000
10000000
00000000
00000000
00100000
00000000
00000000
00001000
00010000
00001000
00010000
00000100
00000010
00000100
00000010
,  // measure 61
00001000
00010000
00000100
00000010
00000001
00000100
00000010
00010000
,  // measure 62
00001000
00100000
01000000
00010000
00001000
00100000
10000000
01000000
,  // measure 63
00010000
00001000
00100000
00001000
00010000
00000010
00000100
00000010
,  // measure 64
00001000
00000100
00010000
00001000
00010000
00001000
00100000
01000000
,  // measure 65
10000000
00010000
00100000
01000000
00001000
00010000
00000010
00000100
,  // measure 66
00000001
00000010
00000100
00010000
00001000
00010000
00000010
00010000
,  // measure 67
00001000
01000000
00100000
01000000
10000000
00010000
00100000
01000000
,  // measure 68
00001000
00010000
00000010
00000100
00000001
00000010
00001000
00000100
,  // measure 69
00010000
00001000
00100000
01000000
10000000
00100000
00010000
00001000
,  // measure 70
00000100
00010000
00000010
00000100
00001000
00010000
00000100
00000010
,  // measure 71
00000001
00000100
00000010
00010000
00001000
00100000
01000000
00010000
,  // measure 72
00001000
00010000
01000000
10000000
00010000
00100000
01000000
00010000
,  // measure 73
00001000
00000100
00000010
00010000
00001000
00000010
00000100
00000010
,  // measure 74
00000001
00000100
00000010
00010000
00001000
00100000
01000000
00010000
,  // measure 75
00001000
00010000
01000000
10000000
00010000
00100000
01000000
00010000
,  // measure 76
00001000
00000100
00000001
00000010
00001000
00010000
01000000
00100000
,  // measure 77
00010000
10000000
01000000
00000000
00100000
00000000
00010000
00001000
,  // measure 78
00000100
00000010
00001000
00000001
00000010
00000100
00010000
00001000
,  // measure 79
01000000
00000000
00100000
10000000
01000000
00100000
00001000
00010000
,  // measure 80
00000010
00000100
00000001
00000010
00000001
00000100
00001000
00010000
,  // measure 81
01000000
10000000
00100000
00010000
10000000
00000000
01000000
00100000
,  // measure 82
00001000
00010000
00000010
00000100
00000001
00000010
00000100
00000010
,  // measure 83
00000100
00010000
00001000
00100000
00000000
01000000
10000000
00100000
,  // measure 84
00010000
00001000
00010000
01000000
00000000
00010000
00001000
00000100
,  // measure 85
00000010
00010000
00001000
00010000
00000100
00000010
00000100
00010000
,  // measure 86
00001000
00100000
00000000
01000000
00010000
00001000
00010000
00100000
,  // measure 87
10000000
01000000
00010000
00001000
01000000
00100000
00000000
00010000
,  // measure 88
00001000
00000100
00000010
00000100
00000001
00000010
00000100
00010000
,  // measure 89
00001000
00000100
00000000
00001000
00000100
00010000
00000100
00000010
,  // measure 90
00000001
00000010
00000100
00001000
00000010
00010000
00001000
00100000
,  // measure 91
01000000
10000000
00000000
00010000
01000000
00001000
00010000
00100000
,  // measure 92
01000000
00010000
00001000
00000100
00000010
00001000
00000001
00000010
,  // measure 93
00000100
00000000
00010100
00000000
00010000
00001000
00010000
00000000
,  // measure 94
01000000
00000000
01100000
00000000
10000000
00010000
10000000
00000000
,  // measure 95
00100000
00000000
00101000
00000000
00010000
00000100
00010000
00000000
,  // measure 96
00001000
00000000
00001100
00000000
00000001
00000010
00000001
00000000
,  // measure 97
00001000
00000000
00001010
00000000
00010000
00001000
00010000
00000000
,  // measure 98
00100000
00000000
01100000
00000000
00010000
10000000
00010000
00000000
,  // measure 99
01000000
00000000
01001000
00000000
00010000
00000100
00010000
00000000
,  // measure 100
00001000
00000000
00000110
00000000
00000001
00000010
00000001
00000000
,  // measure 101
00002000
00003100
00200000
01300000
,  // measure 102
20000000
30010000
02000000
03100000
,  // measure 103
00020000
01030000
00000020
00000130
,  // measure 104
00002000
00003010
00000002
00000103
,  // measure 105
00020000
00031000
01000000
01100000
,  // measure 106
20000000
30010000
00100000
01100000
,  // measure 107
00002000
00013000
00000100
00000110
,  // measure 108
00002000
00003001
00000010
00000110
,  // measure 109
00011000
00000000
00000000
00000000
;

//---------------dance-double - ----------------
#NOTES:
     dance-double:
     :
     Medium:
     6:
     0.384,0.404,0.203,0.246,0.051: // measure 1
00000000
00000000
00000000
00000000
,  // measure 2
00000000
00000000
00000000
00000000
,  // measure 3
00000000
00000000
00000000
00000000
,  // measure 4
00000000
00000000
00000000
00000000
,  // measure 5
00000000
00000000
00000000
00000000
,  // measure 6
00000000
00000000
00000000
00000000
,  // measure 7
00000000
00000000
00000000
00000000
,  // measure 8
00000000
00000000
00000000
00000000
,  // measure 9
00011000
00000000
00000100
00000000
00000010
00000001
00000100
00000000
,  // measure 10
00000001
00000000
00000100
00000000
00000010
00001000
00000100
00000000
,  // measure 11
00001000
00000000
00000010
00000000
00000100
00010000
00000010
00000000
,  // measure 12
00001000
00000000
00100000
00000000
01000000
00010000
00100000
00000000
,  // measure 13
10000000
00000000
00010000
00000000
00100000
01000000
10000000
00000000
,  // measure 14
00010000
00000000
01000000
00000000
00001000
00010000
00000100
00000000
,  // measure 15
00000010
00000000
00000001
00000000
00001000
00000100
00000001
00000000
,  // measure 16
00002100
00000000
00000001
00003001
,  // measure 17
00000100
00001000
00011000
00010000
,  // measure 18
00100000
10000000
00100000
00010000
,  // measure 19
01000000
00010000
00011000
00001000
,  // measure 20
00000010
00000001
00000010
00001000
,  // measure 21
00010000
00001000
00000101
00000001
,  // measure 22
00000100
00001000
00010000
01000000
,  // measure 23
00010000
00001000
01010000
10000000
,  // measure 24
01000000
00010000
00100000
10000000
,  // measure 25
00020000
01000000
00230000
10000000
,  // measure 26
00310000
00011000
00000100
00000110
,  // measure 27
00002000
00000100
00003020
00000001
,  // measure 28
00001030
00011000
01000000
01010000
,  // measure 29
00010000
00100000
10000000
01000000
,  // measure 30
00010000
00001000
00000100
00000001
,  // measure 31
00001000
00000010
00000001
00000100
,  // measure 32
00001000
00010000
00100000
11000000
,  // measure 33
00210000
00000000
00001000
00301000
,  // measure 34
00010000
00002000
00000100
00003100
,  // measure 35
00001002
00000000
00000010
00000013
,  // measure 36
00000200
00001000
00000010
00000310
,  // measure 37
00002100
00000000
00010000
00013000
,  // measure 38
00200000
00010000
00001000
00301000
,  // measure 39
01020000
00000000
10000000
10030000
,  // measure 40
01000000
11000000
00020000
00130000
,  // measure 41
00002000
00010000
00000100
00003001
,  // measure 42
00002000
00000100
00010000
00103000
,  // measure 43
00020000
00001000
01000000
10030000
,  // measure 44
00020000
00100000
10000000
01030000
,  // measure 45
00200000
00001000
00010000
01300000
,  // measure 46
00020000
00001000
00000100
00030010
,  // measure 47
00000200
00001000
00000001
00000310
,  // measure 48
00002000
00000100
00000001
00003010
,  // measure 49
00002000
00000000
00010000
00000000
,  // measure 50
02003000
00000000
10000000
00000000
,  // measure 51
03020000
00000000
00100000
00000000
,  // measure 52
00032000
00000000
00023000
00000000
00030200
00000020
00000000
00000330
,  // measure 53
00001001
00000000
00000000
00000000
00000000
00010000
00000000
00000000
00000000
00000000
00000100
00000000
00000000
00000000
00000000
00000010
,  // measure 54
00000000
00000000
00010000
00000000
00000000
00000000
00000000
00001000
00000000
00000000
00100000
00000000
00000000
00000000
00000000
00010000
,  // measure 55
00000000
00000000
00000000
00000000
00000000
10000000
00000000
00000000
00000000
00000000
01000000
00000000
00000000
00000000
00000000
00010000
,  // measure 56
00000000
00000000
00001000
00000000
00000000
00000001
00000000
00000001
00000000
00000000
00001000
00000000
00000000
00010000
00000000
00010000
,  // measure 57
00000000
00000000
00001000
00000000
00000000
00000100
00000000
00000100
00000000
00000000
00010000
00000000
00010000
00000000
00000000
00100000
,  // measure 58
00000000
00000000
00100000
00000000
00000000
10000000
00000000
10000000
00000000
00000000
00010000
00000000
00000000
00000000
00000000
01000000
,  // measure 59
00000000
00000000
00000000
00000000
00000000
00001000
00000000
00001000
00000000
00000000
00000010
00000000
00000000
00000000
00000000
00000200
,  // measure 60
00000000
00000000
00000000
00000000
00010000
00010000
00010000
00010000
,  // measure 61
00010300
01010000
10000000
01000000
,  // measure 62
10000000
10000000
10100000
00000000
00010000
00000000
00100000
00001000
,  // measure 63
00010000
00000110
00000001
00000100
,  // measure 64
00001000
00000000
00000101
00000000
00001000
00000000
00000100
00000010
,  // measure 65
00010000
00001000
01010000
00100000
,  // measure 66
10000000
00000000
00010000
00000000
00101000
00000000
00010000
00001000
,  // measure 67
00000100
00000010
00001001
00000100
,  // measure 68
00000010
00000100
00011000
00001100
,  // measure 69
00000001
00000100
00001010
00010000
,  // measure 70
00001000
00000000
00000100
00000000
00001000
00010000
01000000
00000000
,  // measure 71
00100000
00010000
11000000
00010000
,  // measure 72
01000000
00000000
00101000
00000000
00010000
00000100
00001000
00000000
,  // measure 73
00000001
00000110
00001000
00000001
,  // measure 74
00000100
00000000
00001000
00000000
00010000
00000100
00000010
00000000
,  // measure 75
00000100
00010000
00000110
00011000
,  // measure 76
00100000
00000000
00110000
00000000
10000000
01000000
00010000
01000000
,  // measure 77
20000000
00010000
00010000
30010000
,  // measure 78
02000000
00100000
00100000
03100000
,  // measure 79
00002000
00010000
00010000
00013000
,  // measure 80
00000020
00000100
00000100
00000130
,  // measure 81
00000002
00001000
00000010
00001003
,  // measure 82
00000200
00010000
00010000
00001300
,  // measure 83
00020000
00001000
01000000
00031000
,  // measure 84
02000000
00100000
00100000
13000000
,  // measure 85
00020000
00100000
00001000
00130000
,  // measure 86
00002000
00010000
00010000
00003100
,  // measure 87
00000020
00001000
00000001
00001030
,  // measure 88
00000200
00010000
00010000
00000310
,  // measure 89
00002000
01000000
00100000
01003000
,  // measure 90
00020000
10000000
10000000
00130000
,  // measure 91
02000000
00010000
00100000
13000000
,  // measure 92
00020000
00000000
00001000
00000000
00030200
00000010
00000010
00000010
,  // measure 93
00000310
00000101
00001000
00000100
,  // measure 94
00010000
00000000
00100000
00000000
10000000
01000000
00100000
00000000
,  // measure 95
00001000
01010000
00100000
00001000
,  // measure 96
00010000
00000000
00000010
00000000
00001000
00000100
00000001
00000000
,  // measure 97
00000010
00010100
00001000
00100000
,  // measure 98
00010000
00000000
00001000
00000000
00010000
00100000
10000000
00000000
,  // measure 99
01000000
00110000
00001000
00010000
,  // measure 100
00001000
00000000
00000100
00000000
00000001
00000010
00000100
00000000
,  // measure 101
00001000
00000000
00010000
00000000
01000000
00100000
01000000
00000000
,  // measure 102
10000000
00010000
01000000
00100000
,  // measure 103
00001000
00010000
00000010
00000100
,  // measure 104
00000001
00000000
00001000
00000000
00000100
00000001
00000100
00000000
,  // measure 105
00001000
00000010
00010000
00001000
,  // measure 106
00100000
00000000
01000000
00000000
10000000
00010000
10000000
00000000
,  // measure 107
01000000
10000000
00010000
00100000
,  // measure 108
00001000
00000000
00010000
00000000
00000010
00000100
00000010
00000000
,  // measure 109
00001001
00000000
00000000
00000000
;

//---------------dance-double - ----------------
#NOTES:
     dance-double:
     :
     Easy:
     4:
     0.235,0.288,0.053,0.133,0.000: // measure 1
00000000
00000000
00000000
00000000
,  // measure 2
00000000
00000000
00000000
00000000
,  // measure 3
00000000
00000000
00000000
00000000
,  // measure 4
00000000
00000000
00000000
00000000
,  // measure 5
00000000
00000000
00000000
00000000
,  // measure 6
00000000
00000000
00000000
00000000
,  // measure 7
00000000
00000000
00000000
00000000
,  // measure 8
00000000
00000000
00000000
00000000
,  // measure 9
00011000
00000000
01000000
01000000
,  // measure 10
10000000
00000000
01000000
01000000
,  // measure 11
00001000
00000000
00000100
00000100
,  // measure 12
00000001
00000000
00000100
00000100
,  // measure 13
00010000
00000000
00100000
00100000
,  // measure 14
10000000
00000000
00100000
00100000
,  // measure 15
00001000
00000000
00000010
00000010
,  // measure 16
00000002
00000000
00001000
00001003
,  // measure 17
00000200
00010000
00001000
00010300
,  // measure 18
00000000
01000000
00100000
01000000
,  // measure 19
00200000
00001000
00010000
00301000
,  // measure 20
00000000
00000010
00000100
00000010
,  // measure 21
00020000
00001000
00000100
00031000
,  // measure 22
00000000
00010000
01000000
00010000
,  // measure 23
20000000
01000000
00010000
31000000
,  // measure 24
00000000
00100000
00010000
00100000
,  // measure 25
00002000
00010000
00000010
00003100
,  // measure 26
00000000
00001001
00000100
00000100
,  // measure 27
00002000
00010000
01000000
00103000
,  // measure 28
00000000
10010000
00100000
00100000
,  // measure 29
00020000
00001000
00000100
00031000
,  // measure 30
00000000
00010010
00000100
00000100
,  // measure 31
00002000
00010000
01000000
00103000
,  // measure 32
00000000
10010000
01000000
01000000
,  // measure 33
20000000
00000000
00010000
30010000
,  // measure 34
02000000
00001000
00001000
03001000
,  // measure 35
00020000
00000000
00000100
00030100
,  // measure 36
00002000
00000001
00000001
00003001
,  // measure 37
00000200
00000000
00000010
00000310
,  // measure 38
00020000
00001000
00001000
00031000
,  // measure 39
02000000
00000000
00100000
03100000
,  // measure 40
00020000
10000000
10000000
10030000
,  // measure 41
00200000
00000000
00000000
00000000
,  // measure 42
00000000
00000000
00000000
00000000
,  // measure 43
00300020
00000000
00000000
00000000
,  // measure 44
00000000
00000000
00000000
00000000
,  // measure 45
00020030
00000000
00000000
00000000
,  // measure 46
00000000
00000000
00000000
00000000
,  // measure 47
00030002
00000000
00000000
00000000
,  // measure 48
00000000
00000000
00000000
00000000
,  // measure 49
00001003
00000000
00000000
00000000
,  // measure 50
00010000
00000000
00000000
00000000
,  // measure 51
10000000
00000000
00000000
00000000
,  // measure 52
00000100
00000000
00000010
00000000
,  // measure 53
00010000
00000000
00000000
00000000
,  // measure 54
00001000
00000000
00000000
00000000
,  // measure 55
10000000
00000000
00000000
00000000
,  // measure 56
00010000
00000000
00000000
00000000
,  // measure 57
00000001
00000000
00000000
00000000
,  // measure 58
00000010
00000000
00000000
00000000
,  // measure 59
01000000
00000000
00000000
00000000
,  // measure 60
00000100
00000100
00000010
00000010
,  // measure 61
00010000
00000000
00001000
00001000
,  // measure 62
00010000
01000000
01000000
10000000
,  // measure 63
00010000
00000000
00001000
00010000
,  // measure 64
00001000
00001000
00000001
00000001
,  // measure 65
00000100
00000000
00000010
00000010
,  // measure 66
00010000
00010000
00001000
00001000
,  // measure 67
01000000
00000000
00010000
00010000
,  // measure 68
01000000
10000000
00010000
01000000
,  // measure 69
10000000
00100000
00010000
00001000
,  // measure 70
00100000
00010000
00001000
00000100
,  // measure 71
00010000
00001000
00000100
00000001
,  // measure 72
00001000
00000100
00000001
00000010
,  // measure 73
00000100
00000010
00000000
00001001
,  // measure 74
00000100
00000010
00000000
00011000
,  // measure 75
00100000
01000000
00000000
10010000
,  // measure 76
01000000
01000000
00100000
00100000
,  // measure 77
20000000
01000000
00010000
30010000
,  // measure 78
00000000
00001000
00000000
00010000
,  // measure 79
00002000
00000100
00000001
00003001
,  // measure 80
00000000
00001000
00000000
00010000
,  // measure 81
00200000
01000000
01300000
00000000
,  // measure 82
00000100
00000000
01000000
00000000
,  // measure 83
00010000
00001000
00000100
00000000
,  // measure 84
00000001
00000000
00001000
00000000
,  // measure 85
00000100
00000000
00000010
00000010
,  // measure 86
00010000
00000000
00001000
00000000
,  // measure 87
01000000
00000000
00100000
00100000
,  // measure 88
10000000
00000000
00010000
00000000
,  // measure 89
00100000
00010000
00001000
00000000
,  // measure 90
00000001
00000000
00000100
00000000
,  // measure 91
00000100
00001000
00000000
00010000
,  // measure 92
02000000
00000000
00100000
03100000
,  // measure 93
10010000
01000000
00100000
00000000
,  // measure 94
00001000
00000000
00000100
00000000
,  // measure 95
00000001
00000100
00001000
00000000
,  // measure 96
00010000
00000000
00100000
00000000
,  // measure 97
01000000
10000000
00100000
00000000
,  // measure 98
00001000
00000000
00000010
00000000
,  // measure 99
00010000
00001000
00000100
00000000
,  // measure 100
00000001
00000000
00000100
00000000
,  // measure 101
00010000
00000000
00001000
00001000
,  // measure 102
01000000
00000000
10000000
10000000
,  // measure 103
01000000
00000000
00001000
00001000
,  // measure 104
00000010
00000000
00000001
00000001
,  // measure 105
00000010
00000000
00010000
00010000
,  // measure 106
00100000
00000000
10000000
10000000
,  // measure 107
00100000
00000000
00001000
00001000
,  // measure 108
00000010
00000000
00000001
00000001
,  // measure 109
00010100
00000000
00000000
00000000
;

//---------------dance-single - beginner----------------
#NOTES:
     dance-single:
     beginner:
     Beginner:
     1:
     0.135,0.173,0.005,0.000,0.000:
0000
0000
0000
0000
,
0000
0000
0000
0000
,
0000
0000
0000
0000
,
0000
0000
0000
0000
,
0000
0000
0000
0000
,
0000
0000
0000
0000
,
0000
0000
0000
0000
,
0000
0000
0000
0000
,
1000
0000
0001
0000
,
0001
0000
1000
0000
,
1000
0000
0001
0000
,
0001
0000
1000
0000
,
0100
0000
0010
0000
,
0010
0000
0100
0000
,
0100
0000
0010
0000
,
0010
0000
0100
0000
,
1000
0000
0000
0000
,
0001
0000
0001
0000
,
0001
0000
0000
0000
,
1000
0000
1000
0000
,
1000
0000
0000
0000
,
0010
0000
0010
0000
,
0010
0000
0000
0000
,
1000
0000
1000
0000
,
1000
0000
0001
0000
,
0000
0100
0000
0100
,
0100
0000
0010
0000
,
0000
0001
0000
0001
,
0001
0000
1000
0000
,
0000
1000
0000
0010
,
0010
0000
0100
0000
,
0000
0001
0000
1000
,
1000
0000
0001
0000
,
0100
0100
0100
0000
,
0001
0000
1000
0000
,
0000
0100
0000
0010
,
0010
0000
1000
0000
,
0000
0001
0001
0000
,
0100
0000
1000
0000
,
0000
0010
0000
0001
,
0001
0000
1000
0000
,
0000
0100
0000
0100
,
0100
0000
0010
0000
,
0000
1000
0000
0001
,
0001
0000
1000
0000
,
0000
0010
0000
0100
,
0100
0000
0001
0000
,
0000
1000
0000
0100
,
0100
0000
0000
0000
,
1000
0000
0000
0000
,
0001
0000
0000
0000
,
0100
0000
0010
0000
,
1000
0000
0000
0000
,
0001
0000
0000
0000
,
0010
0000
0000
0000
,
0001
0000
0000
0000
,
1000
0000
0000
0000
,
0010
0000
0000
0000
,
1000
0000
0000
0000
,
0001
0000
0001
0001
,
0001
0000
1000
0000
,
0010
0000
0100
0000
,
0010
0000
0100
0000
,
0001
0000
1000
0000
,
0001
0000
1000
0000
,
0010
0000
0100
0000
,
0010
0000
0100
0000
,
1000
0000
0001
0000
,
0010
0000
1000
0000
,
0001
0000
0010
0000
,
0001
0000
1000
0000
,
0010
0000
1000
0000
,
0001
0000
0100
0000
,
0001
0000
1000
0000
,
0100
0000
1000
0000
,
0001
0000
0100
0000
,
0010
0000
0000
0010
,
0010
0000
0000
0010
,
0010
0000
0000
0010
,
0010
0000
0000
0010
,
0010
0000
0000
0000
,
0001
0000
0000
0000
,
1000
0000
0000
0100
,
0100
0000
0001
0000
,
0010
0000
0000
0001
,
0001
0000
0000
0000
,
1000
0000
0000
0100
,
0100
0000
0000
0000
,
0010
0000
0000
0000
,
0001
0000
0000
0000
,
1000
0000
0000
0100
,
0000
0100
0000
0010
,
0010
0000
1000
0000
,
0000
0001
0000
0100
,
0100
0000
0001
0000
,
0000
1000
0000
0010
,
0010
0000
1000
0000
,
0000
0001
0000
0100
,
0100
0000
0001
0000
,
0000
1000
0000
0100
,
0100
0000
0010
0000
,
0000
0000
0010
0000
,
0000
0000
0001
0000
,
0000
0000
0001
0000
,
0000
0000
1000
0000
,
0000
0000
1000
0000
,
0000
0000
0100
0000
,
0000
0000
0100
0000
,
0110
0000
0000
0000
;
