#TITLE:dear my sweetie...;
#SUBTITLE:(LIFE REMIX);
#ARTIST:prestissimo remixed.tpa;
#TITLETRANSLIT:;
#SUBTITLETRANSLIT:;
#ARTISTTRANSLIT:;
#CREDIT:;
#BANNER:dear my sweetie...(life remix).png;
#BACKGROUND:dear my sweetie...(life remix)-bg.png;
#LYRICSPATH:;
#CDTITLE:cdtitle.png;
#MUSIC:dear my sweetie...(life remix).mp3;
#OFFSET:-1.310;
#SAMPLESTART:22.460;
#SAMPLELENGTH:12.000;
#SELECTABLE:YES;
#BPMS:0.000=182.000;
#STOPS:;
#BGCHANGES:;

//---------------dance-single - BASIC----------------
#NOTES:
     dance-single:
     BASIC:
     Easy:
     4:
     0.376,0.560,0.491,0.000,0.000:
0000
0000
0000
0000
,
0000
0000
0000
0000
,
0000
0000
0000
0000
,
0000
0000
0000
0000
,
0000
1000
0000
1000
,
0000
0001
0000
0001
,
0000
1000
0000
1000
,
0001
0000
1000
0100
,
0001
0010
0001
0100
,
0010
0100
0001
1000
,
0100
1000
0010
1000
,
0100
1000
0001
0010
,
0001
0100
1000
0001
,
1000
0010
0001
1000
,
0001
0010
0001
0100
,
1000
0001
1000
0100
,
1001
0000
0110
0000
,
1010
0000
0101
0000
,
0011
0000
1100
0000
,
1001
0000
1010
0000
,
0101
0000
0011
0000
,
1100
0000
1001
0000
,
0110
0000
1001
0000
,
0011
0000
1100
0000
,
0001
0000
0000
0000
,
0000
0000
0000
0000
,
1000
0000
0000
0000
,
0000
0000
0000
0000
,
0100
1000
0010
0100
,
0001
0100
0010
1000
,
0100
1000
0010
0100
,
0001
0010
0001
0100
,
1000
1010
0001
0011
,
1000
1010
0001
0011
,
1000
1100
0001
0101
,
1000
1100
0001
0101
,
1000
1001
0001
1001
,
1000
1001
0001
1001
,
0100
0110
0010
0110
,
1001
0110
1001
0110
,
0001
0000
0000
0000
,
1000
0000
0000
0000
,
1001
0000
0000
0000
,
0001
0000
0000
0000
,
1001
0000
0000
0000
,
1000
0000
0000
0000
,
1001
0000
0000
0000
,
0001
0000
0000
0000
,
1001
0000
0000
0000
,
1001
0000
0000
0000
,
0110
0000
1001
0000
,
0110
1001
1001
0110
,
1001
0001
0100
0010
,
1000
0100
1000
0010
,
0100
0001
0010
0001
,
0100
0010
0100
0001
,
0100
0010
1000
0100
,
1000
0010
1000
0001
,
0010
0100
0010
0001
,
0100
0010
1000
0100
,
1000
0010
0100
1000
,
0100
0001
0010
0100
,
0001
0010
0100
1000
,
0010
1000
0100
0001
,
0010
0100
0001
0010
,
0100
1000
0010
1000
,
0100
0001
0010
0001
,
1001
0110
1001
1001
,
0000
0001
0000
0001
,
0000
0001
0000
0001
,
0000
1000
0000
1000
,
0000
1000
0000
1000
,
0000
0001
0000
0001
,
0000
0001
0000
0001
,
0000
1000
0000
1000
,
0000
1000
0000
1000
,
0001
0100
0010
1000
,
0100
1000
0010
0100
,
0001
0010
0001
0100
,
0010
0100
0001
0010
,
0001
1000
0100
1000
,
0010
1000
0001
0100
,
0001
0010
0001
1000
,
0010
1000
0001
0100
,
1001
0000
1010
0000
,
0101
0000
1001
0000
,
0110
0000
1010
0000
,
0101
0000
0011
0000
,
1100
0000
1001
0000
,
0110
0000
1001
0000
,
1010
0000
0101
0000
,
0110
0000
1001
0000
,
1000
0010
0100
0001
,
0010
0001
0100
0010
,
1000
0100
1000
0010
,
0100
0001
0010
0001
,
0100
0010
1000
0100
,
0010
0001
0100
0010
,
1000
0001
0100
0001
,
1001
0110
1001
1001
,
0110
0001
0000
1000
,
0000
0001
0000
0100
,
0000
0010
0000
1000
,
0000
0100
0000
0001
,
0010
1000
0100
0001
,
0010
1000
0100
0001
,
0010
1000
0100
0001
,
0010
0000
1000
0000
0100
0000
0001
1000
;

//---------------dance-single - TRICK----------------
#NOTES:
     dance-single:
     TRICK:
     Medium:
     7:
     0.585,0.635,0.263,0.097,0.000:
0000
0000
0000
0000
,
0000
0000
0000
0000
,
0000
0000
0000
0000
,
0000
0000
0000
0000
,
0000
1000
0100
1000
0000
1000
0100
1000
,
0000
0001
0100
0001
0000
0001
0100
0001
,
0000
1000
0100
1000
0000
0001
0100
0001
,
2002
0000
0000
3003
,
0001
0000
0010
0000
0001
0001
0100
0000
,
1000
0000
0100
0000
1000
1000
0100
0000
,
0001
0000
0100
0000
0001
0001
0100
0000
,
1000
0000
0100
0000
1000
1000
0100
0000
,
0001
0000
0010
0000
0001
0001
0010
0000
,
1000
0000
0010
0000
1000
1000
0010
0000
,
0001
0000
0010
0000
0001
0001
0010
0000
,
1000
0000
0010
0000
1000
1000
0010
0000
,
0001
0010
0001
0000
0100
0010
0100
0000
,
0001
0010
0100
1000
0100
0010
0001
0000
,
1000
0010
1000
0000
0100
0010
0100
0000
,
1000
0010
0100
0001
0100
0010
1000
0000
,
0001
0010
0001
0000
0100
0010
0100
0000
,
0001
0010
0100
1000
0100
0010
0001
0000
,
1000
0010
1000
0000
0100
0010
0100
0000
,
1000
0010
0100
0001
0100
0010
1000
0001
,
0000
0001
0000
0001
,
0000
0001
0000
1000
,
0000
1000
0000
1000
,
0000
0001
0000
1000
,
0001
0000
0100
0000
0010
0010
0100
0000
,
0001
0000
0100
0000
0010
0010
1000
0000
,
0100
0000
1000
0000
0010
0010
0100
0000
,
0001
0000
0100
0000
0001
0001
0100
0000
,
0001
1000
0010
0000
0001
0100
0010
0000
,
1000
0100
0010
0000
0001
1000
0010
0000
,
1000
0010
0100
0000
0001
0100
1000
0000
,
1000
0010
0100
0000
1000
0100
0001
0000
,
0001
0010
0100
0000
0010
1000
0001
0000
,
0010
0100
1000
0000
1000
0100
0001
0000
,
0010
0100
1000
0000
0010
0001
0100
0000
,
1001
0110
1001
0110
,
0002
0010
0000
0100
,
2003
0010
0000
0100
,
3002
0010
0000
0100
,
2003
0010
0000
0100
,
3002
0010
1000
0100
,
2003
0010
0001
0100
,
3002
0010
1000
0100
,
2003
0010
0001
0100
,
3002
0000
0010
0000
0100
0100
1000
0000
,
2003
0000
0010
0000
0100
0100
0001
0000
,
3002
0000
0010
0000
0100
0100
1000
0000
,
2003
0000
0010
0000
0100
0100
0001
0000
,
3001
0000
0100
0000
0001
0001
0100
0000
,
1000
0000
0100
0000
1000
1000
0100
0000
,
0001
0000
0010
0000
0001
0001
0010
0000
,
1000
0000
0010
0000
1000
1000
0010
0000
,
0001
0000
0100
0000
0001
0001
0100
0000
,
1000
0000
0100
0000
1000
1000
0100
0000
,
0001
0000
0100
0000
0001
0001
0100
0000
,
1010
0011
0101
1100
,
1000
1010
0010
0101
,
1000
1010
0001
0110
,
0100
0101
0010
1010
,
1000
0110
0001
0011
,
0100
1100
0010
0101
,
0010
1100
1000
1010
,
0001
0110
0100
1010
,
0001
1001
0110
1001
,
0000
0001
0000
0001
0000
0010
0000
0010
,
0000
0100
0000
0100
0000
1000
0000
1000
,
0000
0010
0000
0010
0000
0100
0000
0100
,
0000
0001
0000
0001
0000
1000
0000
1000
,
0001
0101
1000
1100
,
0001
0101
1000
1100
,
0001
0101
1000
1100
,
0001
0101
1000
1100
,
0001
0000
0100
0000
0010
1000
1000
0000
,
0001
0000
0100
0000
0001
0001
0100
0000
,
0001
0000
0100
0000
0001
0001
0100
0000
,
1000
0000
0100
0000
1000
1000
0010
0000
,
0001
0000
0100
0000
0001
0001
0100
0000
,
1000
0000
0100
0000
1000
1000
0100
0000
,
0010
0001
0100
1000
,
0110
0110
1010
0101
,
1000
0100
0010
0100
1000
0100
0001
0100
,
1000
0010
0100
1000
0100
0010
1000
1000
,
0001
0010
0100
0010
0001
0100
1000
0100
,
0001
0010
0100
0001
0100
0010
0001
0001
,
1000
0100
0010
0100
1000
0100
0001
0100
,
1000
0010
0100
1000
0100
0010
1000
1000
,
0001
0010
0100
0010
0001
0100
1000
0100
,
0001
0010
0100
0001
0100
0010
0001
0001
,
1000
0010
1000
0000
0100
0010
0100
0000
,
1000
0010
0100
0001
0100
0010
1000
0000
,
0001
0010
0001
0000
0100
0010
0100
0000
,
0001
0010
0100
1000
0100
0010
0001
0000
,
1000
0010
1000
0000
0100
0010
0100
0000
,
1000
0010
0100
0001
0100
0010
1000
0000
,
0001
0010
0001
0000
0100
0010
0100
0000
,
0001
0010
0100
1000
0100
0010
0001
1000
,
0001
0100
1000
0000
1000
0100
0001
0000
,
0001
0010
1000
0000
1000
0100
0001
0000
,
0001
0010
1000
0000
1000
0100
0001
0000
,
0001
0100
1000
0000
1000
0010
0001
0000
,
0000
1000
0000
0100
0000
0001
0000
0100
,
0000
1000
0000
0010
0000
0001
0000
1000
,
0010
0100
1000
0010
0100
0001
0100
0010
,
1000
1000
0100
0100
0001
0001
0010
1000
;

//---------------dance-single - HEAVY----------------
#NOTES:
     dance-single:
     HEAVY:
     Hard:
     9:
     0.754,0.784,0.401,0.277,0.066:
0000
0000
0000
0000
,
0000
0000
0000
0000
,
0000
0000
0000
0000
,
0000
0000
0000
0000
,
0000
0010
0100
1000
0000
0001
0100
1000
,
0000
0010
0100
1000
0000
1000
0100
0001
,
0000
0010
0100
0001
0000
1000
0100
0001
,
1001
0000
0000
0000
0000
0000
0000
0000
1000
0000
0000
0010
0100
0000
0001
0000
,
1001
0100
0000
0001
0000
0001
0100
1000
,
0000
0001
0010
0000
1000
1000
0100
0010
,
0001
0100
0000
1000
0000
1000
0100
0001
,
0000
1000
0010
0000
0001
0001
0100
0010
,
1000
0100
0000
0001
0000
0001
0100
1000
,
0000
0001
0010
0000
1000
1000
0100
0010
,
0001
0100
0000
1000
0000
1000
0100
0001
,
0000
1000
0010
0000
0001
0001
0100
0010
,
1000
0010
0100
1000
0100
0010
0100
0001
,
0100
0010
0100
1000
0100
0010
0100
0010
,
0100
0001
0100
0010
0100
1000
0100
0010
,
0100
0001
0100
0010
0100
1000
0100
0001
,
0100
0010
0100
1000
0100
0010
0100
0001
,
0100
0010
0100
1000
0100
0010
0100
0010
,
0100
0001
0100
0010
0100
1000
0100
0010
,
0100
0001
0100
0010
0100
1000
0100
0001
,
0100
0000
0010
0000
1000
0100
0001
0010
,
0000
0001
0000
0001
1000
0000
1000
0000
,
0100
0000
0100
0000
0010
0001
0100
1000
,
0000
0001
0000
0100
0100
0010
1000
0100
,
0001
0000
0100
0000
0010
1000
0100
0010
,
0000
0001
0000
0000
0010
0010
1000
0100
,
0001
0000
1000
0000
0010
0000
1000
0100
,
0000
0001
0000
0100
0001
0000
0010
0000
,
0001
0000
0010
0000
0010
0000
0001
0000
0101
0000
0000
0110
0000
0000
1010
0000
,
1000
0000
0010
0000
0010
0000
1000
0000
1100
0000
0000
0110
0000
0000
0011
0000
,
0001
0000
0010
0000
0010
0000
0001
0000
0101
0000
0000
0110
0000
0000
1010
0000
,
1000
0000
0010
0000
0010
0000
1000
0000
1100
0000
0000
0110
0000
0000
0011
0000
,
0001
0000
1000
0000
0010
0000
1000
0000
1010
0000
0000
1001
0000
0000
1100
0000
,
1000
0000
0010
0000
1000
0000
0001
0000
0011
0000
0000
1001
0000
0000
0101
0000
,
0001
0000
0010
0000
0001
0000
1000
0000
1010
0000
0000
1001
0000
0000
1100
0000
,
1000
0000
0010
0000
1000
0000
0001
0000
0011
0000
0000
1001
0000
0000
0101
0000
,
0002
0010
0013
0100
1000
0100
0001
0000
,
2000
0010
3010
0100
0001
0100
1000
0000
,
0002
0010
0013
0100
1000
0100
0001
0000
,
2000
0010
3010
0100
0001
0100
1000
0000
,
0002
0203
0320
2030
,
3200
0000
0320
0000
0031
0001
0002
0000
,
0203
0320
2030
3200
,
0320
0000
0000
0000
0032
0000
0000
0000
1003
0100
1000
0000
0200
0000
0000
0000
,
2300
3020
0230
0302
,
0023
0000
0032
0000
0103
0100
0200
0000
,
0302
2003
3200
2300
,
3020
0000
0000
0000
0230
0000
0000
0000
0301
0100
0001
0000
2000
0000
0000
0000
,
3001
0100
0000
0001
0000
0001
0100
1000
,
0000
0001
0010
0000
1000
1000
0100
0010
,
0001
0100
0000
1000
0000
1000
0100
0001
,
0000
1000
0010
0000
0001
0001
0100
0010
,
1000
0100
0000
0001
0000
0001
0100
1000
,
0000
1000
0010
0000
1000
1000
0100
0010
,
0001
0100
0000
1000
0000
1000
0100
0001
,
0000
1000
0010
0000
0001
0001
0100
0010
,
1000
1001
0000
1010
0000
0001
0100
1000
,
0000
0001
1001
0000
0001
0100
1000
0100
,
0001
1001
0000
0011
0000
1000
0100
0001
,
0000
1000
1001
0000
1000
0100
0001
0100
,
1000
1001
0000
0011
0000
0001
0100
1000
,
0000
0001
1001
0000
0001
0100
1000
0100
,
0001
1001
0000
1100
0000
1000
0100
0001
,
0000
1000
1001
0000
1000
0100
0001
0100
,
2000
0000
0010
0000
3010
0000
1000
0000
0001
0000
0000
0100
0000
0000
1000
0000
,
0002
0000
0010
0000
0013
0000
0001
0000
1000
0000
0000
0100
0000
0000
0001
0000
,
2000
0000
0010
0000
3010
0000
1000
0000
0001
0000
0000
0100
0000
0000
1000
0000
,
0002
0000
0010
0000
0013
0000
0001
0000
1000
0000
0000
0100
0000
0000
0001
0000
,
0001
0000
1000
0000
0010
0000
1000
0000
1010
0000
0000
1001
0000
0000
1100
0000
,
1000
0000
0010
0000
1000
0000
0001
0000
0011
0000
0000
1001
0000
0000
0101
0000
,
0001
0000
0010
0000
0001
0000
1000
0000
1010
0000
0000
1001
0000
0000
1100
0000
,
1000
0000
0010
0000
1000
0000
0001
0000
0011
0000
0000
1001
0000
0000
0101
0000
,
0100
0000
0010
0000
1000
0100
0001
0010
,
0000
0001
0000
0001
1000
0000
1000
0000
,
0100
0000
0100
0000
0010
0001
0100
1000
,
0000
0001
0000
0100
0100
0010
1000
0100
,
0001
0000
0100
0000
0010
1000
0100
0010
,
0000
0001
0000
0000
0010
0010
1000
0100
,
0001
0000
1000
0000
0010
0000
1000
0100
,
0000
0001
0000
0100
0001
0000
0010
0000
,
0001
0100
1000
0100
0010
0100
1000
0100
,
0001
0010
0001
1000
0010
0100
1000
0001
,
0100
0001
0010
1000
0010
0100
0001
0010
,
0001
0100
1000
0010
0100
1000
0100
0001
,
0010
0100
1000
0010
1000
0100
0001
0100
,
0010
1000
0001
0100
1000
0001
0100
0010
,
1000
0100
0001
0010
0001
0100
1000
0010
,
0001
0010
0100
0001
0100
0010
1000
0001
,
0010
0100
0010
0001
1000
0100
1000
0010
,
1000
0100
0010
1000
0010
0100
0001
0100
,
0001
1000
0010
0001
0010
0100
0010
1000
,
0010
0001
1000
0100
1000
0010
1000
0100
,
0010
1000
0010
0100
0010
0001
0010
1000
,
0001
0100
0010
0001
0010
0100
0010
0001
,
1000
0100
1000
0010
1000
0001
0010
0100
,
0010
0001
0010
1000
0010
0001
0010
1000
,
0001
0100
1001
0000
1000
0100
1001
0000
,
0001
0100
1001
0000
1000
0100
1001
0000
,
0001
0100
1001
0000
1000
0100
1001
0000
,
0001
0100
1001
0000
1000
0100
1001
0000
,
2000
0000
3020
0000
,
0032
0000
0203
0000
,
1300
0010
1000
0001
0100
1000
0001
0100
,
1000
0010
0001
0100
1000
0001
0100
1000
;

//---------------dance-single - ONI----------------
#NOTES:
     dance-single:
     ONI:
     Challenge:
     11:
     1.000,1.000,1.000,1.000,0.810: // measure 1
0000
0000
0000
0000
,  // measure 2
0000
0000
0000
0000
,  // measure 3
0000
0000
0000
0000
,  // measure 4
0000
0000
0000
0000
,  // measure 5
1000
0010
0000
0000
0100
0000
0001
1000
0000
0000
0001
0000
0100
0000
1000
0000
,  // measure 6
0001
0010
0000
0000
0100
0000
1000
0001
0000
0000
1000
0000
0100
0000
0001
0000
,  // measure 7
1000
0010
0000
0000
0100
0000
0001
1000
0000
0000
1000
0000
0100
0000
0001
0000
,  // measure 8
2002
0000
0000
0000
0000
0000
3000
0000
1003
0000
0000
0010
0100
0000
0001
0000
,  // measure 9
1001
1100
0000
0021
0000
0031
0100
2001
,  // measure 10
0000
3002
0010
0000
1003
1000
0100
1010
,  // measure 11
0001
0101
0000
1020
0000
1030
0100
1002
,  // measure 12
0000
2003
0010
0000
3001
0001
0100
0011
,  // measure 13
1000
1100
0000
0021
0000
0031
0100
2001
,  // measure 14
0000
3002
0010
0000
1003
1000
0100
0010
,  // measure 15
0001
0101
0000
1020
0000
1030
0100
1002
,  // measure 16
0000
2003
0010
0000
3001
0001
0100
0010
,  // measure 17
1000
0100
0010
0100
1000
0100
1000
0000
0001
0100
0010
0100
0001
0100
0001
0000
,  // measure 18
1000
0100
1000
0000
0001
0100
0001
0000
1000
0100
1000
0001
0100
0001
1000
0000
,  // measure 19
0001
0100
0010
0100
0001
0100
0001
0000
1000
0100
0010
0100
1000
0100
1000
0000
,  // measure 20
0001
0100
0001
0000
1000
0100
1000
0000
0001
0100
0001
1000
0100
1000
0001
0000
,  // measure 21
1000
0100
0010
0100
1000
0100
1000
0000
0001
0100
0010
0100
0001
0100
0001
0000
,  // measure 22
1000
0100
1000
0000
0001
0100
0001
0000
1000
0100
1000
0001
0100
0001
1000
0000
,  // measure 23
0001
0100
0010
0100
0001
0100
0001
0000
1000
0100
0010
0100
1000
0100
1000
0000
,  // measure 24
0001
0100
0001
0000
1000
0100
1000
0000
0001
0100
0001
1000
0100
1000
0001
0000
,  // measure 25
1001
0000
1020
0000
2030
0100
3001
0020
,  // measure 26
0000
0032
0000
0103
1000
0000
1010
0000
,  // measure 27
1001
0000
0012
0000
0023
0001
0130
2000
,  // measure 28
0000
3200
0000
0301
2000
0100
3001
0010
,  // measure 29
1001
0000
0102
0000
0013
2000
0001
3200
,  // measure 30
0000
2300
0000
0000
3010
0020
1000
0130
,  // measure 31
0001
0000
1001
0000
0120
0000
1030
0200
,  // measure 32
0000
0302
0000
0023
0100
0030
1001
0000
,  // measure 33
0002
0000
0010
0000
0013
0000
1000
0000
1001
0000
0000
1100
0000
0000
1001
0000
,  // measure 34
2000
0000
0010
0000
3010
0000
0001
0000
1001
0000
0000
0101
0000
0000
1001
0000
,  // measure 35
0002
0000
0010
0000
0013
0000
1000
0000
1001
0000
0000
1100
0000
0000
1001
0000
,  // measure 36
2000
0000
0010
0000
3010
0000
0001
0000
1001
0000
0000
0101
0000
0000
1001
0000
,  // measure 37
0002
0000
1000
0000
0013
0000
0001
0000
0011
0000
0000
0101
0000
0000
1010
0000
,  // measure 38
2000
0000
0001
0000
3010
0000
1000
0000
1010
0000
0000
1100
0000
0000
0011
0000
,  // measure 39
0002
0000
1000
0000
0013
0000
0001
0000
0011
0000
0000
1100
0000
0000
1010
0000
,  // measure 40
2000
0000
0001
0000
3010
0000
1000
0000
1010
0000
0000
1100
0000
0000
0011
0000
,  // measure 41
0001
0000
0010
0001
0000
0010
0001
0100
0010
0001
0010
0100
0001
0100
0010
0100
,  // measure 42
0001
0000
0100
0010
0000
0100
0010
1000
0100
0010
0100
1000
0010
0100
0010
0000
,  // measure 43
1000
0000
0010
0100
0000
0010
1000
0100
1000
0010
1000
0010
1000
0010
0100
0010
,  // measure 44
1000
0000
0001
0100
0000
0001
0010
0001
0100
0001
0100
0001
0100
0010
0100
0001
,  // measure 45
1000
0000
0100
1000
0000
0010
1000
0010
1000
0100
0010
0100
1000
0100
1000
0001
,  // measure 46
1000
0000
0001
0100
0000
0001
0010
0001
0010
0100
0010
0001
0010
0100
0010
0000
,  // measure 47
0001
0000
1000
0010
0000
1000
0010
1000
0010
1000
0100
0010
0100
1000
0001
0100
,  // measure 48
0001
0000
1000
0100
0000
1000
0010
1000
0100
0010
0100
1000
0010
1000
0100
1000
,  // measure 49
0001
0000
0100
0010
0000
0100
0001
0010
0100
0010
0001
1000
0100
0010
0100
1000
,  // measure 50
0001
0000
1000
0010
0000
1000
0100
0010
0100
1000
0001
0100
0010
0100
0001
0000
,  // measure 51
1000
0000
0100
1000
0000
0010
0100
0010
1000
0100
1000
0001
1000
0001
1000
0010
,  // measure 52
1000
0000
0001
0100
0000
0001
0010
0100
0010
0001
0100
0010
0100
0001
1000
0001
,  // measure 53
1000
1100
0000
0021
0000
0031
0100
2001
,  // measure 54
0000
3002
0010
0000
1003
1000
0100
1010
,  // measure 55
0001
0101
0000
1020
0000
1030
0100
1002
,  // measure 56
0000
2003
0010
0000
3001
0001
0100
0011
,  // measure 57
1000
1100
0000
0021
0000
0031
0100
2001
,  // measure 58
0000
3002
0010
0000
1003
1000
0100
0010
,  // measure 59
0001
0101
0000
1020
0000
1030
0100
1002
,  // measure 60
0000
2003
0010
0000
3001
1000
0100
0010
,  // measure 61
0002
0003
0022
0000
0033
0000
2200
0000
0000
3000
2300
0000
0020
3030
2002
0000
,  // measure 62
0000
3000
2003
0000
0200
0000
0000
0300
3002
0003
0002
0000
0023
0030
0202
0303
,  // measure 63
2000
3000
2020
0000
0000
3030
0202
0000
0000
0003
0302
0000
0020
0033
2002
0000
,  // measure 64
0000
0003
3002
0000
0200
0000
0000
0300
2003
3000
2000
0000
3020
0030
2200
0300
,  // measure 65
0002
3003
0022
0000
0000
0033
2200
0000
0000
3000
2300
0000
0020
3030
2002
0000
,  // measure 66
0000
0000
0000
3000
0000
0000
2003
0000
0000
0000
0000
0000
0200
0000
0000
0000
0000
0000
0000
0000
0000
0300
0000
0000
3002
0000
0000
0003
0000
0000
0002
0000
0000
0000
0000
0000
0020
0000
0000
0000
0030
0000
0203
0000
0000
0000
0000
0000
,  // measure 67
2000
3300
2020
0000
3030
0000
0202
0000
0000
0003
0302
0000
0020
0033
2002
0000
,  // measure 68
0000
0003
3002
0000
0200
0000
0000
0300
2003
3000
2002
0003
3020
0000
0230
0300
,  // measure 69
1002
0000
0100
0000
0103
0000
1000
0000
1001
0000
0000
1001
0000
0000
1001
0000
,  // measure 70
2000
0000
0010
0000
3010
0000
0001
0000
1001
0000
0000
1001
0000
0000
1001
0000
,  // measure 71
0002
0000
0010
0000
0013
0000
1000
0000
1001
0000
0000
1100
0000
0000
1001
0000
,  // measure 72
2000
0000
0010
0000
3010
0000
0001
0000
1001
0000
0000
0101
0000
0000
1001
0000
,  // measure 73
0002
0000
0010
0000
0013
0000
0001
0000
0011
0000
0000
0101
0000
0000
1010
0000
,  // measure 74
2000
0000
0010
0000
3010
0000
1000
0000
1010
0000
0000
1100
0000
0000
0011
0000
,  // measure 75
0002
0000
0010
0000
0013
0000
0001
0000
0011
0000
0000
1100
0000
0000
1010
0000
,  // measure 76
2000
0000
0010
0000
3010
0000
1000
0000
1010
0000
0000
1100
0000
0000
0011
0000
,  // measure 77
1001
0000
0021
0000
0032
0100
1003
0020
,  // measure 78
0000
2030
0000
3100
0001
0000
0011
0000
,  // measure 79
1001
0000
2010
0000
3020
1000
0130
0002
,  // measure 80
0000
0203
0000
1300
0002
0100
1003
0010
,  // measure 81
1001
0000
2100
0000
3010
0002
1000
0203
,  // measure 82
0000
0302
0000
0000
0013
0020
0001
0130
,  // measure 83
1000
0000
1001
0000
0120
0000
0031
0200
,  // measure 84
0000
2300
0000
3020
0100
0030
1001
0000
,  // measure 85
0001
1000
0000
0000
1001
0000
0000
0000
1000
0100
0000
0000
1001
0000
0000
0000
,  // measure 86
0001
0010
0000
0000
1001
0000
0000
0000
1000
0010
0000
0000
1001
0000
0000
0000
,  // measure 87
0001
0100
0000
0000
1001
0000
0000
0000
1000
0100
0000
0000
1001
0000
0000
0000
,  // measure 88
0001
1000
0000
0000
1001
0000
0000
0000
1000
0010
0000
0000
1001
0000
0000
0000
,  // measure 89
0001
0100
0000
0000
1001
0000
0000
0000
1000
0010
0000
0000
1001
0000
0000
0000
,  // measure 90
0001
0100
0000
0000
1001
0000
0000
0000
1000
0100
0000
0000
1001
0000
0000
0000
,  // measure 91
0001
0010
0000
0000
1001
0000
0000
0000
1000
0100
0000
0000
1001
0000
0000
0000
,  // measure 92
0002
0100
0000
0003
2000
0010
0000
3000
1001
0000
0000
0110
0000
0000
1001
0000
,  // measure 93
1000
0100
0010
0100
1000
0100
1000
0000
0001
0100
0010
0100
0001
0100
0001
0000
,  // measure 94
1000
0100
1000
0000
0001
0100
0001
0000
1000
0100
1000
0001
0100
0001
1000
0000
,  // measure 95
0001
0100
0010
0100
0001
0100
0001
0000
1000
0100
0010
0100
1000
0100
1000
0000
,  // measure 96
0001
0100
0001
0000
1000
0100
1000
0000
0001
0100
0001
1000
0100
1000
0001
0000
,  // measure 97
1000
0100
0010
0100
1000
0100
1000
0000
0001
0100
0010
0100
0001
0100
0001
0000
,  // measure 98
1000
0100
1000
0000
0001
0100
0001
0000
1000
0100
1000
0001
0100
0001
1000
0000
,  // measure 99
0001
0100
0010
0100
0001
0100
0001
0000
1000
0100
0010
0100
1000
0100
1000
0000
,  // measure 100
0001
0100
0001
0000
1000
0100
1000
0000
0001
0100
0001
1000
0100
1000
0001
0000
,  // measure 101
2002
0000
3003
2020
0000
3030
0101
0000
,  // measure 102
0011
0000
0110
1001
0110
0000
1010
0000
,  // measure 103
2002
0000
3003
0202
0000
0303
0011
0000
,  // measure 104
1001
0000
0110
1001
0110
0000
2100
0000
,  // measure 105
3001
0100
0010
0100
0001
0100
0002
0000
1000
0100
0013
0100
1000
0100
2000
0000
,  // measure 106
0001
0100
3010
0100
0001
0100
0002
0000
1000
0100
0013
0100
1000
0100
2000
0000
,  // measure 107
0001
0010
3001
0010
0001
0010
0001
0010
0001
1000
0100
1000
0100
1000
0100
1000
,  // measure 108
0100
1000
0001
0100
0001
0100
0001
1000
0100
0010
0002
0000
0200
0303
2002
0000
,  // measure 109
3003
0000
0000
0000
;
