#TITLE:cold planet;
#SUBTITLE:;
#ARTIST:knot;
#TITLETRANSLIT:;
#SUBTITLETRANSLIT:;
#ARTISTTRANSLIT:;
#CREDIT:;
#BANNER:cold planet.png;
#BACKGROUND:cold planet-bg.png;
#LYRICSPATH:;
#CDTITLE:cdtitle.png;
#MUSIC:cold planet.mp3;
#OFFSET:0.000;
#SAMPLESTART:46.540;
#SAMPLELENGTH:12.000;
#SELECTABLE:YES;
#BPMS:0.000=174.000;
#STOPS:;
#BGCHANGES:;

//---------------dance-single - BASIC----------------
#NOTES:
     dance-single:
     BASIC:
     Easy:
     4:
     0.252,0.407,0.068,0.015,0.000:
0000
0000
0000
0000
,
0000
0000
0000
0000
,
0000
0000
0000
0000
,
0000
0000
0000
0000
,
1000
1000
0001
0001
,
1000
1000
0001
0001
,
1000
1000
0001
0001
,
1000
1000
0001
0001
,
0000
0000
0000
0000
,
0000
0000
0000
0000
,
0001
0001
1000
1000
,
0001
0001
1000
1000
,
0001
0001
1000
1000
,
0001
0001
1000
1000
,
0001
0001
1000
1000
,
0001
0001
1000
1000
,
0001
0001
1000
1000
,
0001
1000
0001
0010
,
0100
0000
0000
0000
,
0000
0000
0000
0000
,
0000
0000
0000
0000
,
0000
0000
0000
0000
,
0000
0000
0000
0000
,
0000
0000
0000
0000
,
0000
0000
0000
0000
,
0000
0000
0000
0000
,
0001
0000
1000
0000
,
0001
0000
1000
0000
,
0001
0000
1000
0000
,
0001
0000
1000
0000
,
0001
0000
0001
0000
,
0001
0000
0001
0000
,
0100
0000
0100
0000
,
0200
0000
0000
0300
,
0001
0000
0001
0000
,
0010
0010
1000
1000
,
0001
0000
0001
0000
,
0100
0100
0010
0010
,
1000
0000
1000
0000
,
0001
0001
1000
1000
,
0010
0000
0010
0000
,
0001
0001
0100
0000
,
1000
0000
0010
0000
,
0100
0000
0001
0000
,
0010
0000
0100
0000
,
1000
0000
0001
0000
,
1000
1000
1000
1000
,
1000
1000
1000
1000
,
0001
0000
0000
0000
1000
0000
0000
0001
,
0000
0001
0000
0001
0000
0001
0000
0000
,
1000
0000
0100
0000
,
0010
0000
0001
0000
,
1000
0000
0100
0000
,
0010
0000
0001
0000
,
0001
0010
0100
1000
,
0001
0010
0100
1000
,
0001
0010
0100
1000
,
0001
0010
0100
1000
,
0001
0001
1000
0001
,
1000
1000
0001
1000
,
0001
0001
1000
0001
,
1000
1000
0001
1000
,
0001
0001
0010
0001
,
1000
1000
0010
1000
,
0001
0001
0010
0001
,
1000
1000
0010
1000
,
0001
0000
0010
0000
,
0001
0000
1000
0000
,
0100
0000
1000
0000
,
0001
0000
0100
0000
,
0010
0000
0010
0000
,
0010
0000
0010
0000
,
0010
0010
0010
0010
,
0020
0000
0000
0030
,
1000
0000
0000
0000
,
0000
0000
0000
0000
,
0001
0000
0000
0000
,
0000
0000
0000
0000
,
1000
0000
0000
0000
,
0000
0000
0000
0000
,
0001
0000
0000
0000
,
1000
0010
0100
0001
,
1001
0001
0010
0001
,
1001
1000
0100
1000
,
1001
0010
0100
0010
,
1001
0100
0010
0100
,
1001
0100
0010
0001
,
1001
0010
0100
1000
,
1001
1000
0100
0001
,
1001
0001
0010
1000
,
1001
0000
0000
0000
;

//---------------dance-single - TRICK----------------
#NOTES:
     dance-single:
     TRICK:
     Medium:
     6:
     0.417,0.611,0.505,0.015,0.000:
0000
0000
0000
0000
,
0000
0000
0000
0000
,
1000
0000
0001
0000
,
1000
0000
0001
0000
,
1001
1000
1001
0001
,
1001
1000
1001
0001
,
1001
1000
1001
0001
,
1001
1000
1001
0001
,
0000
1000
0000
0001
,
0000
1000
0000
0001
,
1001
0001
1001
1000
,
1001
0001
1001
1000
,
1001
0001
1001
1000
,
1001
0001
1001
0010
,
1001
0001
1001
1000
,
1001
0001
1001
1000
,
1001
0001
1001
1000
,
1000
0000
0100
0001
0000
0001
0010
0000
,
0100
0000
0000
0000
,
0100
0000
0000
0000
,
0100
0000
0000
0000
,
0100
0000
0000
0000
,
0100
0000
0000
0000
,
0100
0000
0000
0000
,
0100
0000
0000
0000
,
0100
0000
0000
0000
,
0001
0000
0100
0010
1000
0000
0000
0000
,
1000
0000
0100
0010
0001
0000
0000
0000
,
0001
0000
0100
0010
1000
0000
0000
0000
,
1000
0000
0100
0010
0001
0000
0000
0000
,
0001
0100
0001
0000
0001
0100
0001
0000
,
0001
0100
0001
0000
0001
0100
0001
0000
,
0100
0000
1000
0000
,
0020
0000
0000
0130
,
0001
0100
0001
0100
,
0010
0000
0010
0000
1000
0010
1000
0000
,
1000
0100
1000
0100
,
0010
0000
0010
0000
0001
0010
0001
0000
,
0001
0100
0001
0100
,
0010
0000
0010
0000
1000
0010
1000
0000
,
1000
0100
1000
0100
,
0010
0000
0010
0000
0001
0010
0001
0000
,
1000
1010
0010
0101
,
0010
0011
0100
1100
,
0010
1010
0100
1001
,
0010
0011
0100
1001
,
1000
1000
1000
1000
,
1000
1000
1000
1000
,
0001
0000
0000
0000
1000
0010
0000
0001
,
0000
0001
0000
0001
0000
0001
0000
0100
,
1000
0100
0100
0010
,
0010
0001
0001
1000
,
1000
0100
0100
0010
,
0010
0001
0001
1000
,
1000
0100
0001
0010
,
1000
0100
0001
0010
,
1000
0100
0001
0010
,
1000
0100
0001
0010
,
1000
0001
1000
1001
,
0001
1000
0001
1001
,
1000
0001
1000
1001
,
0001
1000
0001
1001
,
0001
0100
1000
1001
,
0001
0100
1000
1001
,
1000
0100
0001
1001
,
1000
0100
0001
1001
,
0001
0010
0010
1100
,
1000
1000
1000
0011
,
0100
1100
0001
1000
,
1001
0110
1001
0010
,
0010
1000
0010
0000
0010
0001
0010
0000
,
0010
1000
0010
0000
0010
0001
0010
0000
,
0010
0010
0010
0010
,
0020
0000
0000
0030
,
1000
0000
1000
0000
,
1000
0000
1000
1000
,
0001
0000
0001
0000
,
0001
0000
0001
0001
,
1000
0000
1000
0000
,
1000
0000
1000
1000
,
0001
0010
0100
1000
,
1001
0010
0110
0100
,
0100
0011
0100
1001
,
0010
1100
0001
1001
,
0100
1100
0010
1001
,
0010
1100
1000
1001
,
0100
0110
0001
1001
,
0100
1010
0100
1001
,
1100
1100
0011
0011
,
1100
1100
0011
0011
,
1001
0000
0000
0000
;

//---------------dance-single - HEAVY----------------
#NOTES:
     dance-single:
     HEAVY:
     Hard:
     8:
     0.591,0.747,0.505,0.008,0.000:
0000
0000
0000
0000
,
0000
0000
0000
0000
,
1000
0000
1000
1000
0001
0000
0001
1000
,
0001
0000
0001
0001
1000
0000
1000
0001
,
1000
0000
1000
0100
1000
0000
1000
0010
,
1000
0000
1000
0100
1000
0000
1000
0010
,
1000
0000
1000
0100
1000
0000
1000
0010
,
1000
0000
1000
0100
1000
0000
1000
0010
,
0001
0000
1001
0000
0001
0010
1000
0000
,
1000
0100
0001
0000
0001
0010
1000
0000
,
0001
0010
0001
0000
0001
0100
0001
0000
,
0001
0010
0001
0000
0001
0100
0001
0000
,
0001
0010
0001
0000
0001
0100
0001
0000
,
0001
0010
0001
0000
0001
0100
0001
0000
,
1000
0010
1000
0000
1000
0100
1000
0000
,
0001
0010
0001
0000
0001
0100
0001
0000
,
1000
0010
1000
0000
1000
0100
1000
0000
,
1000
0000
0100
0001
0010
0000
1000
0000
,
0100
0000
0000
0000
,
0000
0000
0000
0000
,
0000
0000
0000
0000
,
0000
0000
0000
0000
,
0000
0000
0000
0000
,
0000
0000
0000
0000
,
0000
0000
0000
0000
,
0000
0000
0000
0000
,
0001
0000
0100
0010
1000
0000
1000
0100
,
0010
0000
0100
0010
0001
0000
0001
0100
,
0010
0000
0100
0010
1000
0000
1000
0100
,
0010
0000
0100
0010
0001
0000
0001
0100
,
1010
0101
1010
0101
,
1010
0101
1010
0101
,
0100
0000
1100
0000
1000
0010
1000
0001
,
0000
0001
0000
0001
0000
0001
0100
0000
,
0001
0100
1000
0100
0001
0100
1000
0100
,
0001
0001
0010
0010
1100
0001
1000
0000
,
1000
0100
0001
0100
1000
0100
0001
0100
,
1000
1000
0100
0100
0011
1000
0001
0000
,
0001
0001
0100
0100
0001
0001
0100
0100
,
0001
0100
1000
0100
1001
0001
1000
0000
,
1000
1000
0100
0100
1000
1000
0100
0100
,
1000
0100
0001
0100
1001
1000
0001
0001
,
1000
0010
1000
0000
0010
0100
0001
0000
,
0011
0000
1001
0000
0100
1000
1010
0000
,
1000
0010
1000
0000
0100
0001
1001
0000
,
0011
0000
1010
0000
0100
1001
1001
0000
,
1000
0001
1000
0001
1000
0001
1000
0001
,
1000
0001
1000
0001
1000
0001
1000
0000
,
0001
0000
0000
0000
1000
0000
0000
0001
,
0000
0001
0000
0001
0000
0001
0000
0100
,
1000
0100
1000
0100
0010
0001
0010
0001
,
0100
0010
0100
0010
1000
0100
1000
0100
,
0001
0100
0001
0100
1000
0100
1000
0100
,
0010
0001
0010
0001
0100
1000
0100
1000
,
0001
0100
0001
0100
1000
0100
1000
0100
,
0010
0001
0010
0001
0100
0010
0100
0010
,
1000
0100
1000
0100
0001
0100
0001
0100
,
1000
0100
1000
0100
0010
0001
0010
0001
,
1000
1000
0001
1000
0001
0000
1001
0000
,
0001
0001
1000
0001
1000
0000
1001
0000
,
1000
1000
0001
1000
0001
0000
1001
0000
,
0001
0001
1000
0001
1000
0000
1001
0000
,
0001
0010
1000
1000
1000
0000
1001
0000
,
1000
0100
0001
0001
0001
0000
1001
0000
,
0001
0010
1000
1000
1000
0000
1001
0000
,
1000
0100
0001
0001
0001
0000
1001
0000
,
0001
0010
0100
0000
1100
1000
0100
0000
,
0011
0001
0010
0001
0011
0000
0011
0000
,
1000
0000
0001
0100
0010
0000
1000
0000
,
1001
0110
1001
0010
,
1001
0110
1001
0110
,
1001
0110
1001
0110
,
1000
0010
0100
0001
0010
0100
1000
0010
,
0002
0000
0000
0003
,
1000
0000
1000
0001
1000
0000
1000
0000
,
1000
0001
1000
0000
1000
0000
1001
0000
,
0001
0000
0001
1000
0001
0000
0001
0000
,
0001
1000
0001
0000
0001
0000
1001
0000
,
1000
0100
0010
0001
,
1000
0100
0010
0001
,
0001
0010
0001
0010
0100
1000
0100
1000
,
1001
0010
0110
1001
,
0100
0010
0001
0000
0010
0100
1001
0000
,
0010
0000
1100
0000
1000
0001
1001
0000
,
1000
0010
0100
0000
0011
0001
1001
0000
,
1000
0000
1100
0000
0100
1001
1001
0000
,
0100
0000
0110
0000
0001
1000
0100
0000
,
0001
0000
1010
0000
1000
0100
1001
0000
,
1000
0100
1100
0100
0010
0001
0011
0010
,
0100
1000
1100
0100
0001
0011
1100
0000
,
1001
0000
0000
0000
;

//---------------dance-single - ONI----------------
#NOTES:
     dance-single:
     ONI:
     Challenge:
     10:
     0.877,1.000,0.981,0.030,0.456: // measure 1
0000
0000
0000
0000
,  // measure 2
0000
0000
0000
0000
,  // measure 3
1001
0000
1000
0100
0011
0000
0001
0100
,  // measure 4
1010
0000
1000
0100
0011
0000
0001
0100
,  // measure 5
1010
0000
1000
0010
1001
0000
0001
0010
,  // measure 6
1001
0000
1000
0010
1001
0000
0001
0010
,  // measure 7
1001
0000
1000
0100
1001
0000
0001
0100
,  // measure 8
1001
0000
1000
0100
1001
0000
0001
0000
,  // measure 9
0110
0000
1001
0000
0001
0100
1010
0000
,  // measure 10
1000
0100
0011
0000
1000
0010
0101
0000
,  // measure 11
0001
1000
0110
0000
1000
0001
0110
0000
,  // measure 12
0001
1000
0110
0000
1000
0001
0110
0000
,  // measure 13
0010
0100
1001
0000
0100
0010
1001
0000
,  // measure 14
0010
0100
1001
0000
0100
0010
1001
0000
,  // measure 15
1000
0010
0101
0000
0001
0100
1010
0000
,  // measure 16
1000
0100
0011
0000
0001
0010
1100
0000
,  // measure 17
1100
0010
1001
0000
0101
0010
1001
0000
,  // measure 18
1000
0000
0100
0001
1010
0000
1000
0000
,  // measure 19
0100
0100
0100
0100
,  // measure 20
1001
0100
1001
1001
,  // measure 21
0100
0100
0100
0100
,  // measure 22
1001
0010
1001
0100
,  // measure 23
0100
0100
0100
0100
,  // measure 24
0011
1100
1010
0101
,  // measure 25
0100
0100
0100
0100
,  // measure 26
1001
0110
1001
0110
,  // measure 27
0001
0000
1100
0010
0001
0000
0101
0010
,  // measure 28
1000
0000
1010
0010
0001
0000
0001
0100
,  // measure 29
1100
0000
1010
1000
0100
0000
0100
0100
,  // measure 30
0011
0000
0010
0010
1100
0000
0010
1000
,  // measure 31
1010
1000
0100
0001
1010
1000
0100
0001
,  // measure 32
1010
1000
0100
0001
1010
1000
0100
0001
,  // measure 33
1010
1000
0100
1000
0010
0100
0001
0100
,  // measure 34
0010
1000
0010
1000
0010
1000
0010
1000
0010
1000
0010
0000
0100
0000
0000
0000
,  // measure 35
0001
0000
0100
0000
0010
1000
0100
0000
0001
0000
0100
0000
1000
0100
0010
0000
,  // measure 36
0001
0000
0010
0000
0100
1000
0010
0000
1000
0000
0100
0010
0001
0000
0000
0000
,  // measure 37
1000
0000
0100
0000
0010
0001
0100
0000
1000
0000
0100
0000
0010
1000
0001
0000
,  // measure 38
1000
0000
0100
0000
0010
0001
0100
0000
0010
0000
1000
0001
1000
0000
0000
0000
,  // measure 39
0001
0000
0100
0000
0010
1000
0001
0000
1000
0000
0100
0000
0010
0001
0100
0000
,  // measure 40
0010
0000
1000
0000
0100
0010
0001
0000
0010
0000
0100
1000
0001
0000
0000
0000
,  // measure 41
1000
0000
0010
0000
0100
0000
0001
0100
0010
0000
1000
0000
0100
0000
0010
0001
,  // measure 42
0100
0000
0110
0000
1001
0000
1001
1001
,  // measure 43
1000
0010
0101
0000
0001
1000
1001
0000
,  // measure 44
0001
0100
1010
0000
1000
0001
1001
0000
,  // measure 45
1000
0010
0101
0000
0001
0010
1100
0000
,  // measure 46
1001
0100
1001
0000
0100
1001
1001
0000
,  // measure 47
1000
0010
1000
0000
0001
0100
0001
0000
1000
0010
1000
0000
0001
0100
0001
0000
,  // measure 48
1000
0010
1000
0000
0001
0100
0001
0000
1000
0010
1000
0000
0001
0100
0001
0000
,  // measure 49
1000
0000
0100
0000
1000
0100
0010
0002
,  // measure 50
0000
0023
0000
0230
0000
2300
0000
3100
,  // measure 51
1000
0100
1000
0100
0010
0001
0010
0001
1000
0100
1000
0100
0010
0001
0010
0001
,  // measure 52
1000
0100
1000
0100
0010
0001
0010
0001
1000
0010
1000
0010
0100
0001
0100
0001
,  // measure 53
1000
0100
1000
0100
0010
0001
0010
0001
1000
0100
1000
0100
0010
0001
0010
0001
,  // measure 54
1000
0010
1000
0010
0100
0001
0100
0001
1000
0100
1000
0100
0010
0001
0010
0001
,  // measure 55
1000
0010
0100
0001
1000
0100
0010
0001
1000
0010
0100
0001
1000
0100
0010
0001
,  // measure 56
1000
0010
0100
0001
1000
0100
0010
0001
1000
0010
0100
0001
1000
0100
0010
0001
,  // measure 57
1000
0100
0010
0001
1000
0100
0010
0001
1000
0100
0010
0001
1000
0100
0010
0001
,  // measure 58
1000
0010
0100
0001
1000
0010
0100
0001
1000
0010
0100
0001
1000
0010
0100
0001
,  // measure 59
1000
1000
1100
1000
1001
0000
1001
0000
,  // measure 60
0001
0001
0101
0001
1001
0000
1001
0000
,  // measure 61
1000
1000
1010
1000
1001
0000
1001
0000
,  // measure 62
0001
0001
0011
0001
1001
0000
1001
0000
,  // measure 63
0001
0100
1001
0100
0001
0000
1001
0000
,  // measure 64
1000
0100
1001
0100
1000
0000
1001
0000
,  // measure 65
1001
0010
1100
0010
1001
0000
1001
0000
,  // measure 66
1001
0100
0011
0100
1001
0000
1001
0000
,  // measure 67
0001
0000
0010
0000
0100
0000
0000
0000
1000
0100
0000
0000
0001
0100
0000
0000
,  // measure 68
1000
0010
0000
0000
1000
0001
0000
0000
1000
0100
0000
0000
0001
0010
0000
0000
,  // measure 69
1000
0001
0100
0000
0100
0000
1001
0000
,  // measure 70
1000
0010
0000
0000
0001
0100
0000
0000
1001
0000
0000
0000
0110
0000
0000
0000
,  // measure 71
0011
1000
0100
0001
0011
1000
0100
0001
,  // measure 72
0011
1000
0100
0001
0011
1000
0100
0001
,  // measure 73
0011
0001
0010
0100
1000
0100
0001
0100
,  // measure 74
1000
0001
1000
0001
1000
0001
1000
0001
1000
0001
1000
0000
0010
0000
0000
0000
,  // measure 75
1000
0000
0010
0100
0001
0000
1000
0000
0010
0000
1000
0001
0010
0000
0100
0000
,  // measure 76
1000
0000
0100
0010
0001
0000
0010
0000
0001
0000
1000
0000
1001
0000
0000
0000
,  // measure 77
0001
0000
0010
0000
0100
1000
0001
0000
1000
0000
0010
0100
0001
0000
1000
0000
,  // measure 78
0010
0000
0100
0001
0010
0000
0100
0000
1000
0000
0001
0000
1001
0000
0000
0000
,  // measure 79
1000
0000
0010
1000
0001
0000
0100
0000
0010
0000
1000
0010
0100
0000
0001
0000
,  // measure 80
0100
0000
0010
1000
0001
0000
0100
0000
0010
0000
1000
0000
1001
0000
0000
0000
,  // measure 81
0001
0010
0001
0000
0100
0010
0100
0000
0010
0100
0010
0000
1000
0100
1000
0000
,  // measure 82
1001
0000
0110
0000
1001
0000
0110
1001
,  // measure 83
1000
0010
0101
0000
0010
0100
1001
0000
,  // measure 84
0001
0010
1100
0000
0100
0010
1001
0000
,  // measure 85
1000
0001
1001
0000
0100
0010
1001
0000
,  // measure 86
0001
1000
1001
0000
0110
1001
1001
0000
,  // measure 87
0001
1000
0110
0000
0010
0100
1001
0000
,  // measure 88
1000
0001
0110
0000
0100
0010
1001
0000
,  // measure 89
1000
0010
0001
0100
1000
0100
0001
0010
,  // measure 90
0100
1000
0100
0010
0001
0100
0010
1000
0001
0000
1001
0000
0110
0000
0000
0000
,  // measure 91
1001
0000
0000
0000
;
