#TITLE:chatnoir;
#SUBTITLE:;
#ARTIST:roop;
#TITLETRANSLIT:;
#SUBTITLETRANSLIT:;
#ARTISTTRANSLIT:;
#CREDIT:;
#BANNER:chatnoir.png;
#BACKGROUND:chatnoir-bg.png;
#LYRICSPATH:;
#CDTITLE:cdtitle.png;
#MUSIC:chatnoir.mp3;
#OFFSET:0.060;
#SAMPLESTART:67.940;
#SAMPLELENGTH:12.000;
#SELECTABLE:YES;
#BPMS:0.000=120.000;
#STOPS:;
#BGCHANGES:;

//---------------dance-single - BASIC----------------
#NOTES:
     dance-single:
     BASIC:
     Easy:
     2:
     0.098,0.147,0.010,0.000,0.000:
0000
0000
0000
0000
,
0000
0000
0000
0000
,
0010
0000
0000
0100
,
0000
0000
0000
0100
,
0000
0000
0000
0100
,
0000
0000
0100
0100
,
0010
0000
0000
0010
,
0000
0000
0000
0010
,
0000
0000
0000
0100
,
0010
0010
0010
0000
,
1000
0000
0000
0000
,
0001
0000
0000
0000
,
1000
0000
0000
0000
,
0001
0000
0000
0000
,
0001
0000
0000
0000
,
1000
0000
0000
0000
,
1000
0000
0000
0000
,
0000
0000
0000
0000
,
0010
0000
0000
0000
,
0000
0000
0000
0000
,
1000
0000
0000
0000
,
0001
1000
0001
1000
,
0010
0000
0000
0000
,
0000
0000
0000
0000
,
0100
0000
0000
0000
,
0000
0000
0000
0000
,
0010
0000
0000
0000
,
0100
0100
0100
0000
,
0001
0000
0000
0000
,
0010
0000
0000
0000
,
0001
0000
0000
0000
,
1000
0001
1000
0000
,
0010
0010
0010
0000
,
0000
0000
0000
0000
,
1001
0000
1000
0000
,
1000
0000
0001
0000
,
0010
0000
0001
0000
,
0001
0000
1000
0000
,
0010
0000
1000
0000
,
1000
0000
0001
0000
,
0010
0000
0100
0000
,
1000
0000
0000
0000
,
0001
0000
0000
0000
,
1000
0000
0100
0000
,
0100
0000
0000
0000
,
0001
0000
1000
0000
,
0100
0000
0000
0000
,
0100
0000
0010
0000
,
0001
0000
0000
0000
,
0100
0000
0001
0000
,
1000
0000
0000
0000
;

//---------------dance-single - TRICK----------------
#NOTES:
     dance-single:
     TRICK:
     Medium:
     4:
     0.284,0.319,0.333,0.010,0.000:
0000
0000
0000
0000
,
0000
0000
0000
0000
,
0011
0100
0000
1001
,
0000
0100
0000
1001
,
0000
0100
0000
1001
,
0000
0000
0100
0100
,
1010
0001
0000
1001
,
0000
0100
0000
1001
,
0000
0100
0000
1001
,
0001
0001
0100
1100
,
1000
0000
0100
0000
1000
0000
0000
0001
,
0001
0000
0100
0000
0001
0000
0000
1000
,
1000
0000
0100
0000
1000
0000
0000
0010
,
0010
0100
0010
0010
,
0001
0000
0010
0000
1000
0000
0000
1000
,
1000
0000
0100
0000
0001
0000
0000
0001
,
0001
0000
0010
0000
1000
0000
0010
0010
,
0000
0020
1000
0031
,
1001
0000
0000
0000
,
0000
0000
0100
0100
,
1010
1000
0100
1000
,
0100
1000
0011
1000
,
0101
0000
0000
0000
,
0000
0000
0010
0010
,
0101
0001
0100
0001
,
0100
0001
1010
0001
,
1100
1000
1000
0010
,
0100
0000
0100
0000
0100
0000
0010
0100
,
0001
0010
0010
0100
,
1000
0000
1000
1000
0000
0100
0100
0010
,
0001
0100
0001
0100
,
1000
1000
1000
0000
,
1001
0000
1001
0000
1001
0000
0010
0001
,
0000
0000
0000
0000
,
1001
0100
1000
0100
,
1000
1010
0001
0011
,
1001
0100
0001
0100
,
0001
0101
1000
1010
,
1001
0001
0100
0100
,
1010
0001
0001
0011
,
0010
0010
0100
0100
,
1000
0011
0000
1100
,
0001
0001
0100
0000
,
1010
0100
0100
0001
,
1000
1000
0100
0000
,
0101
1000
1000
0110
,
0001
0001
1000
0000
,
0100
0000
0010
0000
0010
1000
0100
0000
,
0001
0000
0010
0000
0010
0000
0000
1010
,
0000
0100
0010
0000
0001
0000
0001
0100
,
1000
0000
0000
0000
;

//---------------dance-single - HEAVY----------------
#NOTES:
     dance-single:
     HEAVY:
     Hard:
     6:
     0.412,0.420,0.392,0.020,0.000:
0000
0000
0000
0000
,
0000
0000
0020
0030
,
1001
0000
0100
0100
0000
0000
0100
0000
,
1001
0000
0100
0100
0000
0000
0100
0000
,
1001
0000
0100
0100
0000
0000
0100
0000
,
1001
0000
0100
0100
0100
0000
0001
0000
,
1001
0000
0001
1000
0000
0000
0010
0000
,
1001
0000
1000
0100
0000
0000
0001
0000
,
1001
0000
0010
0100
0000
0000
0100
0000
,
1001
0110
1001
1001
,
1000
0100
1000
0001
1000
0100
1000
0001
,
0001
0100
0100
0001
0001
0100
0010
1000
,
1000
0100
0100
1000
1000
0010
0100
0001
,
0001
1000
1000
0100
0100
0010
0100
0001
,
0100
1000
0010
0100
0001
0100
0010
1000
,
1000
0001
0001
0100
0100
0010
1000
0001
,
0001
0100
0100
0010
1000
0100
0001
0001
,
0000
0100
0010
0000
1001
0000
1000
0100
,
0001
0000
0000
0000
,
0000
0000
0000
0000
1000
0100
1000
0100
,
1010
0001
0101
0010
,
0101
0000
1000
0000
0011
1000
1000
0000
,
0101
0000
0000
0000
,
0000
0000
0000
0000
0001
0100
0001
0100
,
0011
0000
0001
0010
1000
0000
0001
0000
,
1100
0000
0001
0000
1010
0001
0001
0100
,
1000
0010
1000
0010
1000
0000
0010
0000
,
0101
0000
1010
0000
0101
0000
0001
0100
,
1000
0010
0010
0010
,
1001
0000
1000
0100
0000
0001
0010
0100
,
1001
0100
0001
0100
,
1010
0101
1010
0000
,
1001
0000
1001
0000
1001
0000
0001
1010
,
0000
0000
0000
0000
,
0001
0010
0100
0000
0100
0000
0100
0000
,
1000
0010
0001
0100
1000
0010
0001
0000
,
1000
0010
0100
0000
0100
0000
0100
0000
,
0001
0010
1000
0100
0001
0010
1000
0000
,
0001
0010
0100
0000
0100
0000
0100
0000
,
1000
0100
0001
0010
1000
0100
0001
0000
,
1000
0010
0100
0000
0100
0000
0100
0000
,
1000
0001
0100
1000
0010
0100
1000
0001
,
1001
0000
0001
0000
0100
0000
0000
0100
,
1000
0010
0100
1000
0100
0001
0010
0000
,
1000
0000
1000
0000
0100
0000
0000
0010
,
0001
0100
1100
0010
0001
0100
1001
0000
,
0001
0000
0001
0000
1000
0000
0000
0110
,
1001
1000
0110
0001
0001
1001
0110
0000
,
0001
0000
0010
0000
0010
0000
0000
0010
,
0000
0010
1000
0100
0001
0010
1000
0100
,
0002
0000
0000
0003
0000
0000
0000
0000
;

//---------------dance-single - ONI----------------
#NOTES:
     dance-single:
     ONI:
     Challenge:
     10:
     0.759,0.840,1.000,0.069,0.206:
0000
0000
0000
0000
,
0000
0000
0000
0000
0010
0000
0010
0110
,
1001
0000
0100
0000
0100
0010
0100
0010
0100
0010
0100
0010
0100
0000
0100
0000
,
1001
0000
0010
0000
0010
0100
0010
0100
0010
0100
0010
0100
0010
0000
0010
0000
,
1001
0000
0100
0000
0100
0010
0100
0010
0100
0010
0100
0010
0100
0000
0100
0000
,
1001
0000
0010
0000
0010
0100
0010
0100
0010
0100
0010
0100
0010
0000
1001
0000
,
0110
0000
1000
0000
1000
0001
1000
0001
1000
0001
1000
0001
1000
0000
1000
0000
,
0110
0000
0001
0000
0001
1000
0001
1000
0001
1000
0001
1000
0001
0000
0001
0000
,
0110
0000
1000
0000
1000
0001
1000
0001
1000
0001
1000
0001
1000
0000
1000
0000
,
1001
1000
0110
0010
1001
0100
1001
0000
,
1001
1100
1001
1100
1001
0101
1001
0101
,
1001
0110
1001
0110
1010
0101
1010
0101
,
0011
1100
0011
1100
0011
0110
0011
0110
,
1010
0110
1010
0110
1001
0110
1001
0110
,
1001
0000
1000
0100
0010
0000
0010
0100
1000
0000
1000
0010
0001
0000
0001
0010
,
1000
0000
1000
0100
0001
0000
0001
0100
1000
0000
1000
0010
0100
0000
0100
0010
,
1000
0000
1000
0001
0100
0000
0100
0001
0010
0000
0010
0100
1000
0000
1001
0000
,
0000
0100
1000
0010
1001
1001
0100
0001
,
0020
0000
0000
0000
0000
0000
0000
0030
,
0000
0000
0000
0000
1010
0100
1001
0100
,
1010
0000
1001
0010
0101
0000
1010
0001
,
0110
0000
1010
0100
0011
0100
1010
0100
,
2002
0000
0000
0000
0000
0000
0000
3003
,
0000
0000
0000
0000
0101
0010
1001
0010
,
0101
0000
0101
0010
1100
0000
1010
0100
,
0011
0000
0101
1010
0000
1010
0101
0010
,
1001
0010
1000
0010
1000
0100
0010
0001
,
0101
0010
1100
0010
0101
0010
1001
0110
,
1001
1000
0001
0100
0001
1000
0001
0100
,
1001
0100
1010
0110
0000
1001
0110
0100
,
1001
0001
0100
0010
1000
0001
0100
0001
,
1001
0010
1001
0100
2002
0000
3003
0000
,
1000
0100
0001
0000
0001
0010
1000
0000
1000
0100
0001
0000
0001
0000
1010
0000
,
0000
0000
0000
0100
0000
0100
0100
0010
,
1001
0010
0101
0010
1001
0010
0101
0010
,
1001
0010
0001
0100
1000
0010
1001
0000
,
1001
0010
1100
0010
1001
0010
1100
0010
,
1001
0010
1000
0100
0001
0010
1001
0000
,
0011
0100
1001
0100
0011
0100
1001
0100
,
0011
0100
0001
0010
1000
0100
1001
0000
,
1010
0100
1001
0100
1010
0100
1001
0100
,
1010
0100
1000
0010
0001
0100
1001
0110
,
1001
0100
1001
0010
1001
0100
1001
0100
,
1010
0100
0011
0100
1010
0100
1001
0000
,
1001
0010
1001
0100
1001
0010
1001
0010
,
0101
0010
1100
0010
0101
0010
1001
0000
,
1001
0010
1100
0010
0101
0010
1001
0110
,
1001
1001
0110
1001
0110
0110
1001
0000
,
0011
1000
0110
1000
0011
1000
0110
1001
,
0000
1010
1000
0101
0001
1010
1000
0101
,
2002
0000
0000
3003
0000
0000
0000
0000
;

//---------------dance-double - ----------------
#NOTES:
     dance-double:
     :
     Hard:
     6:
     0.374,0.370,0.255,0.137,0.000: // measure 1
00000000
00000000
00000000
00000000
,  // measure 2
00000000
00000000
02000000
03000000
,  // measure 3
11000000
00000000
01000000
00000000
00010000
00000000
00001000
00001000
,  // measure 4
00000100
00000000
00000010
00000000
00000100
00000010
00000100
00000000
,  // measure 5
00000101
00000001
00000010
00000100
,  // measure 6
00010000
00000100
00000010
00000000
00000010
00000100
00010000
00000000
,  // measure 7
00001000
00100000
01000000
10000000
,  // measure 8
10000000
01000000
00100000
00000000
00100000
01000000
00001000
00000000
,  // measure 9
00001000
00010000
00001000
00000000
00000100
00000000
00000110
00000000
,  // measure 10
00000002
00002003
00003002
00002003
,  // measure 11
00003100
00000010
00010000
00000000
00001000
00000000
00010000
00000000
,  // measure 12
00001000
00000000
00100000
01000000
10000000
00000000
00100000
00000000
,  // measure 13
11000000
01000000
00100000
00001000
,  // measure 14
00010000
00001000
00000000
00000000
00010000
00000010
00000000
00000000
,  // measure 15
00000101
00000010
00000100
00001000
,  // measure 16
00000001
00000100
00001000
00000000
00010000
00000000
00001000
00000000
,  // measure 17
00010000
00001000
01000000
00000000
00100000
00000000
11000000
00000000
,  // measure 18
00020000
00000000
00000000
00031000
,  // measure 19
00000120
00000000
00000031
00001000
,  // measure 20
00000200
00000000
00010000
00010300
,  // measure 21
00101000
00000000
00010000
00000000
10000000
01000000
00000000
00000000
,  // measure 22
00100000
00000000
01100000
00000000
00001000
00000000
00010000
00000010
,  // measure 23
00020000
00030000
00000100
00000010
,  // measure 24
00000002
00000003
00001100
00001100
,  // measure 25
00000010
00000000
00000100
00000100
00000010
00000000
00010000
00001000
,  // measure 26
00000000
00100000
00000000
00100000
01000000
00000000
11000000
01000000
,  // measure 27
00020000
00031000
01000000
00100000
,  // measure 28
00001000
00010000
00001000
00000000
00000110
00000000
00000100
00000100
,  // measure 29
00000001
00000010
00010000
00000010
,  // measure 30
00000100
00000000
00000010
00000010
00000000
00010000
00010000
00010000
,  // measure 31
00001000
01100000
00001000
00100000
,  // measure 32
01000000
01100000
10020000
01000000
,  // measure 33
00031000
00000000
00011000
00000000
00000010
00000000
00000100
00000120
,  // measure 34
00000000
00000000
00000000
00000001
00000000
00001000
00001030
00000000
,  // measure 35
00010000
00001000
00100000
00000000
01100000
00000000
00100000
00000000
,  // measure 36
01000000
10000000
00100000
00000000
00010000
00000000
00011000
00000000
,  // measure 37
00001000
00000100
00000001
00000000
00000010
00000000
00000100
00000000
,  // measure 38
00010000
00000000
00000010
00000100
00000001
00000000
00000010
00000000
,  // measure 39
00000001
00000100
00000010
00000000
00010000
00000000
00011000
00000000
,  // measure 40
00001000
00000000
00100000
01000000
10000000
00000000
00100000
00000000
,  // measure 41
01000000
10000000
00100000
00000000
00001000
00000000
00011000
00000000
,  // measure 42
00010000
00000000
00000010
00000000
00000100
00010000
00000010
00000000
,  // measure 43
00000001
00000000
00000101
00000000
00001000
00000000
00000100
00000010
,  // measure 44
00000000
00010000
00001000
00100000
01000000
00000000
11000000
00000000
,  // measure 45
00100000
00000000
00001000
00010000
00000010
00000000
00000110
00000000
,  // measure 46
00000001
00000010
00000100
00000000
00000010
00000100
00010000
00000000
,  // measure 47
00001000
00100000
00000000
01000000
10000000
00000000
00010000
00000000
,  // measure 48
00001000
00100000
00000000
01000000
10000000
00000000
00010000
00000000
,  // measure 49
00001000
00010000
00000010
00000000
00000100
00000010
00000000
00011000
,  // measure 50
00000000
01000000
00100000
00010000
10000000
00010000
01000000
01000000
,  // measure 51
00002000
00000000
00000000
00003000
00000000
00000000
00000000
00000000
;

//---------------dance-double - ----------------
#NOTES:
     dance-double:
     :
     Medium:
     4:
     0.318,0.321,0.324,0.059,0.000: // measure 1
00000000
00000000
00000000
00000000
,  // measure 2
00000000
00000000
00002000
00003000
,  // measure 3
01000000
00100000
10000000
00100000
,  // measure 4
01000000
00100000
00001000
00011000
,  // measure 5
00000100
00000010
00000001
00000010
,  // measure 6
00000100
00000010
00010000
00011000
,  // measure 7
00001000
00100000
01000000
00001000
,  // measure 8
00010000
00000010
00000100
00001000
,  // measure 9
00010000
01000000
10000000
01100000
,  // measure 10
00002000
00010000
00010000
00013000
,  // measure 11
00000010
00000000
00000100
00000000
00000001
00000010
00000100
00000000
,  // measure 12
00001000
00000010
00000100
00010000
,  // measure 13
00000010
00000001
00000010
00010000
,  // measure 14
00001000
00000100
00010000
00001000
,  // measure 15
00101000
00100000
00010000
10000000
,  // measure 16
01000000
00100000
01000000
00001000
,  // measure 17
00100000
10000000
00010000
01000000
,  // measure 18
12000000
00000000
00001000
03001000
,  // measure 19
00010000
00000000
00001000
00000000
,  // measure 20
00000100
00000000
00000010
00000010
,  // measure 21
00000110
00000001
00000001
00001000
,  // measure 22
00001000
00010000
00001000
00010000
,  // measure 23
01100000
00000000
10000000
00000000
,  // measure 24
00010000
00000000
01000000
01000000
,  // measure 25
01100000
10000000
10000000
00010000
,  // measure 26
00010000
00001000
00010000
00000010
,  // measure 27
00000110
00000001
00000010
00000100
,  // measure 28
00010000
00000010
00010000
00000100
,  // measure 29
00001000
00011000
00010000
01000000
,  // measure 30
00001000
00000000
00100000
00100000
00000000
10000000
10000000
00000000
,  // measure 31
01000000
01010000
00010000
00000100
,  // measure 32
00000010
00000100
00000020
00000000
,  // measure 33
00001030
00000000
00011000
00000000
00101000
00000000
00100000
02000000
,  // measure 34
00000000
00000000
00000000
10000000
00000000
10000000
13000000
00000000
,  // measure 35
00100000
01001000
00010000
00000010
,  // measure 36
00000100
00000011
00010000
00000100
,  // measure 37
00000010
00010100
00001000
00100000
,  // measure 38
01000000
00101000
00010000
00000100
,  // measure 39
00000001
00000110
00001000
00010000
,  // measure 40
10000000
01100000
00010000
00001000
,  // measure 41
00000010
00001001
00000100
00000010
,  // measure 42
00011000
00110000
01000000
10000000
,  // measure 43
01100000
00001000
00010000
00000110
,  // measure 44
00000001
00000010
00001100
00010000
,  // measure 45
00001000
00110000
01000000
10000000
,  // measure 46
00110000
01000000
00001000
00010000
,  // measure 47
00000010
00000101
00000010
00000100
,  // measure 48
00011000
00100000
01000000
10000000
,  // measure 49
00100000
01010000
00001000
00000110
,  // measure 50
00000001
00000011
00001100
00010000
,  // measure 51
20000000
00000000
00000000
30000000
00000000
00000000
00000000
00000000
;

//---------------dance-double - ----------------
#NOTES:
     dance-double:
     :
     Easy:
     3:
     0.207,0.222,0.078,0.059,0.000: // measure 1
00000000
00000000
00000000
00000000
,  // measure 2
00000000
00000000
00002000
00003000
,  // measure 3
00010000
00000000
00100000
01000000
,  // measure 4
10000000
00000000
00100000
00000000
,  // measure 5
01000000
00000000
00010000
00001000
,  // measure 6
00000010
00000000
00000100
00001001
,  // measure 7
00000010
00000000
00000001
00000000
,  // measure 8
00000100
00000010
00010000
00000000
,  // measure 9
00011000
00000000
00100000
01000000
,  // measure 10
00100000
00100000
00100000
00000000
,  // measure 11
10010000
00100000
01000000
00100000
,  // measure 12
00000000
01000000
00100000
01000000
,  // measure 13
00000000
00001000
00010000
00001000
,  // measure 14
00000000
00000100
00000010
00000100
,  // measure 15
00001001
00000010
00000100
00000010
,  // measure 16
00000000
00000100
00000010
00000100
,  // measure 17
00000000
00001000
00000001
00001000
,  // measure 18
00000000
00010000
00010000
00010000
,  // measure 19
01200000
00000000
00000000
00000000
,  // measure 20
00000000
00000000
10000000
10300000
,  // measure 21
00010000
01010000
00000000
00001000
,  // measure 22
00000000
00010000
00001000
00001000
,  // measure 23
00000020
00000000
00000000
00000000
,  // measure 24
00000000
00000000
00000100
00000130
,  // measure 25
00000001
00001001
00000000
00000010
,  // measure 26
00000000
00000100
00000010
00010000
,  // measure 27
00002000
00100000
00010000
00003000
,  // measure 28
00000000
00100000
01000000
00100000
,  // measure 29
00020000
00100000
00001000
00000000
,  // measure 30
00130000
00000000
00000000
00000000
,  // measure 31
10000000
01000000
00000000
00100000
,  // measure 32
00000000
00001000
00011000
00010000
,  // measure 33
00000100
00000000
00000100
00000000
00000100
00000000
00000000
00000100
,  // measure 34
00000000
00000000
00000001
00000001
,  // measure 35
00000001
00001000
00000010
00001000
,  // measure 36
00000000
00010000
00100000
00010000
,  // measure 37
00000000
01000000
00100000
10000000
,  // measure 38
00000000
00010000
00001000
00100000
,  // measure 39
00000000
01000000
00001000
00100000
,  // measure 40
00000000
00010000
00000010
00000100
,  // measure 41
00000000
00000010
00000000
00001000
,  // measure 42
00000000
00000100
00000001
00000100
,  // measure 43
00000001
00000010
00000000
00000100
,  // measure 44
00000000
00010000
00001000
00100000
,  // measure 45
00000000
01000000
00000000
00001000
,  // measure 46
00100000
00000000
00010000
10000000
,  // measure 47
00000000
01000000
00000000
00100000
,  // measure 48
00001000
00000000
00010000
00000100
,  // measure 49
00000000
00000010
00000000
00000001
,  // measure 50
00000000
00001000
00000000
00010000
,  // measure 51
02000000
00000000
00000000
03000000
00000000
00000000
00000000
00000000
;

//---------------dance-double - ----------------
#NOTES:
     dance-double:
     :
     Challenge:
     10:
     0.649,0.593,1.000,0.078,0.005: // measure 1
00000000
00000000
00000000
00000000
,  // measure 2
00000000
00000000
00200000
01300000
,  // measure 3
11000000
01000000
00100000
00010000
00001000
00010000
00001000
00010000
,  // measure 4
00000110
00000001
00000110
00001000
00000110
00000001
00000110
00000000
,  // measure 5
00011000
00001000
00100000
01000000
10000000
00010000
00100000
01000000
,  // measure 6
11000000
00100000
00010000
01000000
01100000
10000000
01100000
00000000
,  // measure 7
00011000
00000010
00000100
00000001
00001100
00000001
00000011
00000000
,  // measure 8
00001010
00000100
00000001
00000110
00001000
00000100
00010100
00000000
,  // measure 9
00101000
00000000
00110000
11000000
00000000
00100000
01100000
00000000
,  // measure 10
00012000
00000000
00000010
00000000
00000010
00000000
00000010
00003001
,  // measure 11
00000100
00000010
00010000
00001000
00100000
00010000
10000000
01000000
,  // measure 12
01100000
01000000
00010000
01100000
00001000
00010000
00000010
00000000
,  // measure 13
00000110
00001000
00000011
00000000
00001100
00000001
00000100
00000010
,  // measure 14
00011000
00001000
00011000
00001000
00010000
01000000
01100000
10000000
,  // measure 15
11000000
00000000
00110000
01000000
00100000
00001000
00010000
00010010
,  // measure 16
00000010
00000100
00000001
00000010
00001100
00000000
00001100
00000000
,  // measure 17
00000110
00010000
00001000
00100000
00010000
10000000
01000000
00100000
,  // measure 18
11000000
00000000
00000000
00000000
00100000
00010000
00100000
00010000
,  // measure 19
00012000
00000000
00000000
00000000
00000000
00000000
00003100
00000001
00000020
00000000
00000000
00000000
00000031
00000000
00002000
00000000
,  // measure 20
00000000
00000000
00000000
00003000
00000110
00001000
00000110
00000001
,  // measure 21
00000110
00000000
00011000
00000000
01100000
10000000
01010000
00100000
,  // measure 22
00000000
01000000
00001000
00010000
00000110
00000010
00000011
00000000
,  // measure 23
00000201
00000000
00001000
00010000
00001300
00000000
01000000
00100000
,  // measure 24
00000000
00100000
00000000
01000000
11000000
00100000
00110000
00000000
,  // measure 25
00011000
00000000
00000110
00000010
00000110
00000000
00000101
00000001
,  // measure 26
00000000
00000010
00000000
00000100
00010100
00000000
00010010
00010000
,  // measure 27
00011000
00000000
00101000
00100000
00010000
10000000
01000000
00100000
,  // measure 28
01000000
00001000
00010000
00000010
00001000
00000100
00000101
00001100
,  // measure 29
00000110
00000100
00001000
00000010
00000001
00000010
00001000
00010000
,  // measure 30
00000010
00010000
00001100
00110000
00100000
11000000
00110000
00001100
,  // measure 31
00000110
00000001
00000110
00010000
00001000
00100000
01000000
10000000
,  // measure 32
01100000
00010000
01100000
10000000
01100000
00010000
00000000
01000000
,  // measure 33
00110000
00000000
00011000
00000000
00001010
00000000
00000100
00000021
,  // measure 34
00000000
00000000
00000000
00001000
00000000
00001000
00001030
00000000
,  // measure 35
00010010
00010000
00001000
00100000
00010000
10000000
01100000
01000000
,  // measure 36
00011000
00000010
00000100
00001001
00000100
00000010
00000101
00000010
,  // measure 37
00001100
00010000
00001000
00110000
10000000
01000000
01100000
00001000
,  // measure 38
00010010
00001000
00010000
00000110
00000001
00001100
00000001
00000010
,  // measure 39
00001100
00000010
00010000
00001000
00101000
00010000
01100000
10000000
,  // measure 40
01100000
00001000
00010000
00010010
00001000
00000100
00000011
00000100
,  // measure 41
00001010
00000100
00000001
00000011
00000100
00010000
00010010
00010000
,  // measure 42
01010000
01000000
00100000
10100000
01000000
00100000
01100000
00001000
,  // measure 43
00011000
00000010
00000100
00001001
00000100
00000010
00000101
00000010
,  // measure 44
00001100
00000001
00000010
00010100
00000010
00000100
00011000
00001000
,  // measure 45
00110000
01000000
10000000
01100000
00001000
00010000
00010010
00000010
,  // measure 46
00000110
00000001
00000010
00001100
00000010
00000100
00011000
00001000
,  // measure 47
00110000
10000000
01000000
00100000
00101000
00000010
00010000
00011000
,  // measure 48
00000010
00000101
00000010
00000100
00001010
00000100
00000001
00000010
,  // measure 49
00000100
00010000
00000110
00001000
00010000
00101000
00010000
00110000
,  // measure 50
01000000
10000000
01100000
00001000
00010000
00000010
00000100
00000001
,  // measure 51
00000020
00000000
00000000
00000030
00000000
00000000
00000000
00000000
;

//---------------dance-single - ----------------
#NOTES:
     dance-single:
     :
     Beginner:
     1:
     0.133,0.172,0.000,0.000,0.000:
0000
0000
0000
0000
,
0000
0000
0000
0000
,
0010
0000
0000
0000
,
0000
0000
0000
0000
,
1000
0000
0000
0000
,
0001
0000
0010
0010
,
0010
0000
0000
0000
,
0000
0000
0000
0000
,
0001
0000
0000
0000
,
1000
0000
1000
1000
,
1000
0000
0001
0000
,
0000
0000
0000
0100
,
0100
0000
0000
0010
,
0000
0000
1000
1000
,
1000
0000
0000
0001
,
0000
0000
0010
0000
,
0100
0000
0000
0000
,
0000
0010
0000
0100
,
0100
0000
0000
0000
,
0000
0000
0001
0001
,
0001
0001
0000
1000
,
0000
0100
0000
0010
,
0010
0000
0000
0000
,
0000
0000
1000
1000
,
1000
1000
0000
0100
,
0000
0010
0010
0010
,
0010
0000
0001
0000
,
1000
1000
1000
1000
,
1000
0000
0100
0000
,
0010
0010
0000
0010
,
0010
0000
0001
0000
,
0000
1000
1000
0000
,
0001
0001
0001
0001
,
0000
0000
0000
0100
,
0100
0000
0010
0000
,
0100
0100
0100
0000
,
1000
0000
0001
0000
,
0100
0000
0010
0010
,
0010
0000
0001
0000
,
0010
0000
1000
0000
,
0000
0100
0000
1000
,
0000
0001
0000
0010
,
0010
0000
0100
0000
,
0001
0000
1000
0000
,
0100
0000
0010
0000
,
0001
0000
1000
0000
,
0000
0010
0000
0100
,
0100
0000
0001
0000
,
0000
1000
0000
0100
,
0000
0001
0000
0010
,
0010
0000
0000
0000
;
