#TITLE:舞姫;
#SUBTITLE:;
#ARTIST:HOUJIROU;
#TITLETRANSLIT:buki;
#SUBTITLETRANSLIT:;
#ARTISTTRANSLIT:HOUJIROU;
#CREDIT:;
#BANNER:buki.png;
#BACKGROUND:buki-bg.png;
#LYRICSPATH:;
#CDTITLE:cdtitle.png;
#MUSIC:buki.mp3;
#OFFSET:-2.820;
#SAMPLESTART:18.360;
#SAMPLELENGTH:12.500;
#SELECTABLE:YES;
#BPMS:0.000=170.000;
#STOPS:338.000=4.191
;
#BGCHANGES:;

//---------------dance-single - BASIC----------------
#NOTES:
     dance-single:
     BASIC:
     Easy:
     4:
     0.312,0.461,0.257,0.132,0.000:
0000
0000
0000
0000
,
0000
0000
0000
0000
,
0000
0000
0000
0000
,
0000
0000
0000
0000
,
1001
0000
0000
0000
,
0010
0000
0000
0000
,
0100
0000
0000
0000
,
0010
0000
0000
0000
,
1001
0000
1000
0000
,
0100
0000
0010
0000
,
0001
0000
0100
0000
,
0010
1000
0001
1000
,
1001
0001
0100
0100
,
1000
1000
0010
0010
,
1000
1000
0100
0100
,
0001
0001
0010
0010
,
1000
1000
0001
0001
,
1000
1000
0001
0001
,
0010
0010
0100
0100
,
1000
0001
1000
0001
,
2001
0000
3001
0100
,
0020
0000
0130
1000
,
0002
0000
0103
1000
,
0020
0000
0130
0001
,
1000
1010
0001
0011
,
0020
0001
0100
1030
,
0001
0011
1000
1010
,
0020
1000
0100
0031
,
1000
1100
0001
0101
,
0100
0100
0001
1010
,
1000
1100
0001
0101
,
0100
0100
1000
0011
,
1001
0100
0100
1001
,
0010
0010
0010
1001
,
0100
0100
0100
1001
,
0110
1001
0110
1001
,
1000
0000
0000
0000
,
0001
0000
0000
0000
,
0001
0000
0000
0000
,
1000
0000
0000
0000
,
0010
0000
0000
0000
,
0100
0000
0000
0000
,
0001
0000
0000
0000
,
0010
0000
0000
0000
,
1000
0010
1000
0010
,
1000
0100
1000
0100
,
0001
0100
0001
0100
,
0001
0010
0001
0010
,
1000
0000
0010
0000
,
1000
0000
0001
0000
,
0010
0000
0001
0000
,
1000
0001
1000
0001
,
1001
1000
0010
0100
,
0010
1000
0001
0100
,
0010
0100
0001
1000
,
0001
1000
0010
0100
,
0010
1000
0100
0001
,
1000
0100
0001
1000
,
0010
0001
1000
0010
,
0001
1000
0100
0001
,
0010
1000
0001
0020
,
0001
0130
1000
0011
,
0100
1000
0100
0020
,
1000
0031
0100
0101
,
1000
0000
0000
0000
,
0100
0000
0002
0003
,
1000
0000
0000
0000
,
1000
0000
2002
3003
,
0001
0000
0000
0000
,
0200
0300
0020
0030
,
1000
0000
0000
0000
,
0001
0000
0110
0000
,
2002
0000
0000
3003
,
1001
0000
0100
0000
,
0100
0000
0100
0000
,
1001
0000
0010
0000
,
0010
0000
0010
0000
,
0100
0100
1000
1000
,
0010
0010
1000
1000
,
0100
0100
0001
0001
,
0010
0010
1000
1000
,
1001
0000
0000
0000
,
0010
0000
0000
0000
,
0110
0000
0000
0000
,
0100
0000
0000
0000
0000
0000
0000
0000
0000
0000
0000
0000
0000
0000
0000
0000
2002
3003
0000
0000
0000
0000
0000
0000
0000
0000
0000
0000
0000
0000
0000
0000
;

//---------------dance-single - TRICK----------------
#NOTES:
     dance-single:
     TRICK:
     Medium:
     6:
     0.456,0.527,0.335,0.062,0.043:
0000
0000
0000
0000
,
0000
0000
0000
0000
,
0000
0000
0000
0000
,
0000
0000
0000
0000
,
0010
0000
0010
0000
0010
0000
0100
0100
,
0100
0000
0100
0000
0100
0000
0010
0010
,
0010
0000
0010
0000
0010
0000
0100
0100
,
0100
0100
0100
0000
,
0010
1000
0100
1000
,
0010
0100
0001
0000
,
0200
0000
0000
0310
,
0110
1001
0110
1001
,
0001
0100
0001
0000
0100
0000
0100
0000
,
1000
0010
1000
0000
0010
0000
0010
0000
,
0001
0010
0001
0000
0100
0000
0100
0000
,
1000
0010
1000
0000
0001
0010
0001
0000
,
1000
0100
1000
0000
0010
0000
0010
0000
,
0001
0100
0001
0000
0100
0000
0100
0000
,
1000
0010
1000
0000
0010
0000
0010
0000
,
0001
0100
0001
0000
1000
0000
0001
0000
,
1001
0000
0100
0010
0001
0000
0100
0000
,
1010
0100
0100
1000
,
0020
1000
0100
0001
,
0100
1030
0101
1010
,
1000
1010
0001
0011
,
1000
1100
0001
0101
,
0001
1001
1000
1001
,
0010
1010
0100
0101
,
1000
1100
0001
0101
,
0100
1001
0010
1001
,
0100
1010
0100
0011
,
0100
0100
0010
0010
,
1001
0000
0100
0010
0100
0000
1001
0000
,
0001
0100
1000
1001
,
0100
0010
0100
0010
0100
0000
1001
0000
,
1000
0100
0010
0001
1000
0100
0010
0001
,
1000
0000
0000
0010
0000
0000
0100
0000
0000
0000
0000
0000
0100
0000
0000
0000
,
0001
0000
0010
0010
,
0001
0000
0000
0100
0000
0000
1000
0000
0000
0000
0000
0000
0100
0000
0000
0000
,
1000
0010
0100
0101
,
0010
0000
0000
0100
0000
0000
0100
0000
0000
0000
0000
0000
1000
0000
0000
0000
,
0100
0000
0010
0100
,
0001
0000
0000
0010
0000
0000
0100
0000
0000
0000
0000
0000
1000
0000
0000
0000
,
0010
0000
0010
1001
,
1000
1000
0100
0100
,
0001
0001
0100
0100
,
1000
1000
0010
0010
,
0001
0001
0010
0010
,
1000
0100
1000
0000
0010
0001
0010
0000
,
1000
0100
1000
0000
0010
0001
0010
0000
,
0001
0100
0001
0000
0010
1000
0010
0000
,
0001
0100
0001
0000
0010
1000
0010
0000
,
1001
0010
0100
1000
,
0100
0010
0001
0100
,
0010
0001
0010
0100
,
0001
0010
0100
1000
,
0001
0100
0001
0000
0100
1000
0100
0000
,
0001
0100
0001
0000
0010
1000
0010
0000
,
1000
0100
1000
0000
0100
0001
0100
0000
,
1000
0100
1000
0000
0010
0001
0010
0000
,
1010
1000
0001
0011
,
0100
0001
0100
0000
0100
0000
1010
0000
,
0011
0001
1000
1010
,
0100
1000
0100
0000
0100
0000
0011
0000
,
1000
0000
0000
0001
0000
0000
1000
0000
0000
0000
0010
0000
0010
0000
0000
0000
,
0100
0000
0000
0100
0000
0000
0100
0000
0200
0000
0000
0000
0300
0000
0000
0000
,
0010
0000
0000
0010
0000
0000
1000
0000
0000
0000
0100
0000
0010
0000
0000
0000
,
1010
0011
2200
3300
,
1000
0000
0000
0100
0000
0000
0001
0000
0000
0000
0010
0000
0100
0000
0000
0000
,
1000
0010
0001
0000
0001
0100
1000
0000
,
1000
0000
0000
0010
0000
0000
0001
0000
0000
0000
0100
0000
1000
0000
0000
0000
,
0001
0010
0100
1000
,
2002
0000
0000
3003
,
1000
0100
1000
0100
,
0001
0100
0001
0100
,
0010
1000
0010
1000
,
0010
0001
0010
0001
,
0100
1000
0100
0000
0010
0000
0010
0000
,
0001
0100
0001
0000
0010
0000
0010
0000
,
0100
1000
0100
0000
0100
0001
0100
0000
,
0010
0001
0010
0000
0010
1000
0010
0000
,
1001
0000
0000
0110
0000
0000
0000
0000
,
0010
0000
0000
0010
0000
0000
0010
0000
0100
0000
0000
0000
0000
0000
0000
0000
,
0110
0000
0000
1001
0000
0000
0000
0000
,
0100
0000
0000
0000
0000
0000
1000
0000
0000
0000
0000
0000
0010
0000
0000
0000
0002
0003
0000
0000
0000
0000
0000
0000
0000
0000
0000
0000
0000
0000
0000
0000
;

//---------------dance-single - HEAVY----------------
#NOTES:
     dance-single:
     HEAVY:
     Hard:
     8:
     0.584,0.593,0.288,0.078,0.199: // measure 1
0000
0000
0000
0000
,  // measure 2
0000
0000
0000
0000
,  // measure 3
0000
0000
0000
0000
,  // measure 4
0000
0000
0000
0000
,  // measure 5
0001
0000
0000
0000
0000
0100
0000
0010
,  // measure 6
0000
1000
0000
0000
0100
0010
0000
0000
,  // measure 7
0100
0000
0000
0000
0000
1000
0000
0010
,  // measure 8
0000
0100
0000
0000
0001
0010
1000
0010
,  // measure 9
0001
0000
0000
0010
0100
0000
0000
0100
1000
0000
0000
1000
0100
0000
0000
0100
,  // measure 10
0010
0000
0000
0010
0001
0000
0000
0001
0010
0000
0000
0010
0100
0000
0000
0100
,  // measure 11
1000
0000
0000
1000
0001
0000
0000
0001
1000
0000
0000
1000
0010
0000
0000
0010
,  // measure 12
1000
0000
0000
0100
0001
0000
0000
0010
1000
0000
0000
1000
0001
0000
0000
0000
,  // measure 13
0001
0100
1000
0100
0001
0010
0100
1000
,  // measure 14
1000
0000
1000
0100
0001
0010
0100
1000
,  // measure 15
0001
0000
0001
0100
1000
0100
0010
1000
,  // measure 16
0100
0010
0100
1000
0001
0010
1000
0000
,  // measure 17
0001
0000
0010
0100
0010
0000
1000
0000
,  // measure 18
0100
0000
0010
0100
0001
0100
1000
0000
,  // measure 19
1000
0000
1000
0010
0001
0000
0010
0000
,  // measure 20
1000
0100
0001
1000
0100
0001
0010
0000
,  // measure 21
1001
0000
0100
0010
0001
0000
0100
0000
,  // measure 22
1010
1000
0100
0000
0011
0001
0100
0000
,  // measure 23
0001
0000
0001
0100
1000
0100
0001
0100
,  // measure 24
1000
0100
0010
0001
0100
1000
0010
0001
,  // measure 25
1000
0000
0010
0100
0001
0000
0011
0000
,  // measure 26
1000
0100
1000
0010
0000
1100
1100
0000
,  // measure 27
0001
0010
0100
0000
0100
0010
1000
0000
,  // measure 28
0010
0000
0101
0000
0001
0100
1100
0000
,  // measure 29
1000
0100
1100
0000
0001
0100
0101
0000
,  // measure 30
1010
0100
0011
0100
,  // measure 31
0010
1000
0100
0000
0010
0001
0100
0000
,  // measure 32
1100
1010
0011
0101
,  // measure 33
1001
0000
0110
0000
0100
0000
0001
0010
,  // measure 34
0001
0000
1001
0000
1000
0000
0010
1000
,  // measure 35
0100
0001
1001
0000
0010
0000
1001
0000
,  // measure 36
1000
0010
0001
0100
0001
0010
1000
0100
,  // measure 37
0001
0000
0000
0100
0000
0000
1000
0000
0000
0000
0100
0000
0100
0000
0010
0000
,  // measure 38
0002
0000
0013
0000
0010
1000
0010
0001
,  // measure 39
0100
0000
0000
1000
0000
0000
0010
0000
0000
0000
0100
0000
0001
0000
0100
0000
,  // measure 40
1000
1010
0001
0101
,  // measure 41
0001
0000
0000
0010
0000
0000
1000
0000
0000
0000
0010
0000
0100
0000
1000
0000
,  // measure 42
0200
0000
0310
0000
0010
0001
0100
0010
,  // measure 43
1000
0000
0000
0100
0000
0000
0001
0000
0000
0000
0100
0000
1000
0000
0010
0000
,  // measure 44
0200
0310
0110
1001
,  // measure 45
1000
0100
1000
0000
0100
0001
0100
0000
,  // measure 46
0001
0010
0001
0000
0010
1000
0010
0000
,  // measure 47
1000
0100
1000
0000
0100
0001
0100
0000
,  // measure 48
0001
0010
0001
0000
0010
1000
0010
0000
,  // measure 49
1000
0100
0001
0000
1000
0100
0001
0000
,  // measure 50
1000
0100
0001
0000
1000
0100
0001
0000
,  // measure 51
0001
0010
1000
0000
0001
0010
1000
0000
,  // measure 52
0001
0010
1000
0000
0001
0010
1000
0000
,  // measure 53
1000
0000
0000
0001
0000
0000
0100
0000
0000
0000
0100
0000
1000
0000
0100
0000
,  // measure 54
0010
0000
0000
1000
0000
0000
0001
0000
0000
0000
0010
0000
0100
0000
0001
0000
,  // measure 55
0100
0000
0000
1000
0000
0000
0001
0000
0000
0000
0010
0000
0100
0000
1000
0000
,  // measure 56
0001
0000
0000
0010
0000
0000
0100
0000
0000
0000
1000
0000
0010
0000
0100
0000
,  // measure 57
0001
0000
0000
0001
0010
0000
0000
0100
1000
0000
0000
0100
0010
0000
0000
0010
,  // measure 58
0001
0000
0000
0001
0100
0000
0000
0100
0010
0000
0000
0010
1000
0000
0000
1000
,  // measure 59
0100
0000
0000
0100
0001
0000
0000
0001
0100
0000
0000
0100
1000
0000
0000
1000
,  // measure 60
0010
0000
0000
0010
1000
0000
0000
1000
0100
0000
0000
0010
0001
0000
0000
0001
,  // measure 61
1000
0100
0001
0000
0001
0010
0100
0000
,  // measure 62
0100
0001
0100
1000
0010
0000
0011
0000
,  // measure 63
1100
0100
1000
0000
0010
0100
1000
0000
,  // measure 64
1000
0100
0001
0010
0100
1000
0010
0100
,  // measure 65
0001
0000
0000
0001
0000
0000
1000
0000
0000
0000
0010
0000
0100
0000
0100
0000
,  // measure 66
0100
0000
0000
0100
0000
0000
0100
0000
0200
0000
0000
0000
0310
0000
0000
0000
,  // measure 67
0010
0000
0000
0010
0000
0000
1000
0000
0000
0000
0100
0000
0010
0000
0001
0000
,  // measure 68
0010
0001
0010
0000
0100
1000
0100
0000
2200
0000
0000
0000
3300
0000
0000
0000
,  // measure 69
1000
0000
0000
0100
0000
0000
0011
0000
0000
0000
0010
0000
0100
0000
1000
0000
,  // measure 70
1000
0010
1000
0000
0020
0000
0000
0000
0031
0100
0001
0000
0200
0000
0000
0000
,  // measure 71
1300
0000
0000
0010
0000
0000
1001
0000
0000
0000
1000
0000
0100
0000
0010
0000
,  // measure 72
0001
0001
0010
0010
0100
0100
1000
1000
,  // measure 73
2002
0000
0000
3003
,  // measure 74
0100
0000
0100
0010
0100
0000
0100
0000
,  // measure 75
0010
0000
0010
0100
0010
0000
0010
0000
,  // measure 76
0001
0000
0001
1000
0001
0000
0001
0000
,  // measure 77
1000
0000
1000
0001
1000
0000
1000
0000
,  // measure 78
0100
0000
0100
0010
0001
0100
1000
0000
,  // measure 79
0001
0100
0001
0000
0010
1000
0100
0000
,  // measure 80
0100
1000
0100
0001
0100
1000
0010
0100
,  // measure 81
0001
0010
0100
1000
0010
0001
0100
0010
,  // measure 82
1001
0000
0000
0110
0000
0100
0000
0000
,  // measure 83
0010
0000
0000
0010
0000
0000
0010
0000
1001
0000
0000
0000
0000
0000
0000
0000
,  // measure 84
0110
0000
0000
0110
0000
1001
0000
0000
,  // measure 85
0010
0000
0000
0000
0000
0000
0001
0000
0000
0000
0000
0000
0100
0000
0000
0000
1000
0001
0000
0000
0000
0000
0000
0000
0000
0000
0000
0000
0000
0000
0000
0000
;

//---------------dance-single - ONI----------------
#NOTES:
     dance-single:
     ONI:
     Challenge:
     10:
     0.842,0.988,0.771,0.132,0.483:
0000
0000
0000
0000
,
0000
0000
0000
0000
,
0000
0000
0000
0000
,
0000
0000
0000
0000
,
0001
0010
0100
1000
0010
0100
1000
0100
,
0010
1000
0100
0010
0001
0010
0100
0010
,
0001
0100
0010
0100
0001
1000
0100
0010
,
0100
1000
0010
0100
0001
1000
1001
0000
,
0001
0100
0010
0100
0001
1000
0100
0010
,
0100
1000
0010
0100
0001
0010
0100
1000
,
0100
0010
0001
0100
0010
1000
0001
0100
,
1000
0010
0000
0000
0001
0100
0000
0000
1000
0010
0000
0000
0001
1000
0000
0000
,
0001
0000
0100
0000
1000
0000
0010
0000
0001
0000
0000
0000
0100
0010
0001
0000
,
1000
0000
1000
0100
0001
0010
0100
1000
,
1001
0000
0000
0000
0001
0000
0100
0000
0010
0000
1000
0000
0010
0001
0010
0000
,
1000
0000
0100
0010
0100
1000
0100
0010
0001
0000
0010
0000
1000
0000
0000
0000
,
1001
0000
0000
0000
0010
0000
0100
0000
0010
0000
0000
0000
1000
0100
0001
0000
,
0010
0000
0010
1000
0001
0100
1000
0010
,
0011
0000
0000
0000
0010
0000
1000
0000
0100
0000
0000
0000
0010
0001
1000
0000
,
1000
0000
0010
0100
1000
0001
1000
0100
1000
0000
0010
0000
0001
0000
0000
0000
,
1001
0000
0000
0000
0100
0000
0010
0000
0001
0000
0000
0000
0100
0010
1000
0000
,
0001
0000
1000
0001
1000
0001
0010
0100
0010
0000
0001
0000
0100
0000
0000
0000
,
1100
0000
1000
0100
0001
0010
0100
1000
,
1001
0000
0001
0000
0100
0000
0001
0000
1000
0100
0010
0001
0010
0100
1000
0001
,
1001
0000
0000
1000
0000
0000
0100
0000
0000
0000
0001
0000
0011
0000
0010
0000
,
1000
0000
0000
0001
0000
0000
0010
0000
0000
0000
0011
0000
1100
0000
0001
0000
,
1010
0000
0000
0100
0000
0000
0001
0000
0000
0000
0010
0000
1000
0000
0100
0000
,
0010
0000
0000
0001
0000
0000
1100
0000
0001
0000
0100
0000
1100
0000
0000
0000
,
1010
0000
0000
0010
0000
0000
0001
0000
0000
0000
0100
0000
0001
0000
0010
0000
,
1000
0000
0000
0100
0000
0000
0010
0000
0000
0000
0001
0000
0101
0000
0100
0000
,
1010
0000
0000
1000
0000
0000
0100
0000
0000
0000
0001
0000
0100
0000
0010
0000
,
1000
0000
0000
1000
0000
0000
0010
0000
0000
0000
0001
0000
0100
0000
1000
0000
,
1001
0000
0001
0100
0001
0000
1000
0100
1000
0000
0010
0100
0010
0000
1000
0100
,
1000
0000
0001
0010
0001
0000
1000
0100
1000
0000
0100
0010
0100
0000
0010
0001
,
0010
0000
0001
0100
0001
0000
1000
0010
0100
0000
0001
0010
0100
0000
1000
0010
,
0100
0000
0001
1000
0001
0000
1000
0001
1000
0000
0001
0010
0100
0000
1000
0001
,
1001
0000
0000
0011
0000
0000
1100
0000
0000
0000
0010
0000
0100
0000
1000
0000
,
0010
0100
0010
0000
1000
0000
0100
0000
0001
0010
0000
0010
0001
0000
0100
0000
,
1100
0000
0000
0011
0000
0000
1100
0000
0000
0000
0100
0000
0001
0000
0010
0000
,
0100
1000
0100
0000
0100
0001
0000
0000
0100
0000
1100
0000
1001
0000
1000
0001
,
1001
0000
0000
0101
0000
0000
1010
0000
0000
0000
1000
0000
0001
0000
0010
0000
,
1000
0100
1000
0000
0010
0000
0001
0000
0100
1000
0000
1000
0100
0000
0001
1000
,
1001
0000
0000
0110
0000
0000
1001
0000
0000
0000
0001
0000
0100
0000
1000
0000
,
0100
0001
0010
0100
0000
0100
0010
0000
0110
0000
0000
0000
1001
0000
0000
0000
,
1000
0010
0001
0010
1000
0010
0001
0010
,
1000
0010
0001
0010
1000
0010
0001
0010
,
1000
0100
0001
0100
1000
0100
0001
0100
,
1000
0100
0001
0100
1000
0100
0001
0100
,
1001
0010
1000
0010
0001
0010
1000
0010
,
0001
0010
1000
0010
0001
0010
1000
0010
,
0001
0100
1000
0100
0001
0100
1000
0100
,
0001
0100
1000
0100
0001
0100
1000
0100
,
1001
0000
0000
0101
0000
0000
1010
0000
0000
0000
0100
0000
1000
0000
0100
0000
,
0101
0000
0000
0011
0000
0000
1100
0000
0000
0000
1000
0000
0010
0000
0001
0000
,
1001
0000
0000
1100
0000
0000
0101
0000
0000
0000
0001
0000
0010
0000
0100
0000
,
1100
0000
0000
0011
0000
0000
1001
0000
1000
0010
1000
0000
0001
0100
0001
0000
,
1000
0000
0010
0100
0010
0000
1000
0100
1000
0000
0001
0100
0001
0000
0100
0010
,
0100
0000
0001
0100
0001
0000
1000
0100
1000
0000
0010
0100
0010
0000
1000
0001
,
1000
0000
0010
0100
0001
0000
0001
1000
0100
0000
0100
1000
0001
0000
0001
1000
,
0010
0000
0010
1000
0100
0000
0100
1000
0010
0000
0010
0100
0001
0000
0001
1000
,
0002
0000
0000
0203
0000
0000
0320
0000
0000
0000
0130
0000
0001
0000
0010
0000
,
2000
0000
0000
3200
0000
0000
0301
0000
0001
0010
0001
0000
1000
0100
1000
0000
,
2100
0000
0000
3020
0000
0000
0032
0000
0000
0000
0203
0000
1000
0000
1000
0000
,
1300
0100
0001
0010
0100
1000
0010
0100
,
0011
0000
0000
0110
0000
0000
1100
0000
0010
0100
0010
0000
0110
0000
1001
0000
,
0110
0000
0000
1001
0000
0000
0110
0000
0010
0100
0010
0000
0010
0000
0100
0010
,
0100
0000
0000
1010
0000
0000
0101
0000
0000
0000
0110
0000
1010
0000
0101
0000
,
0010
1000
0100
0000
0010
0001
0100
0000
2002
0000
0000
0000
3003
0000
0000
0000
,
1010
0000
0000
0110
0000
0000
0101
0000
0000
0000
0011
0000
0110
0000
1100
0000
,
1000
0010
1000
0000
0100
0001
0100
0001
0010
0001
0010
0000
1000
0100
1000
0100
,
1100
0000
0000
0110
0000
0000
1001
0000
0000
0000
1001
0000
1010
0000
0101
0000
,
1001
1001
0110
0110
1001
0110
1001
0110
,
2002
0000
0000
3003
,
0001
0010
0100
1000
0100
0000
1001
0000
,
0010
0000
0010
0100
1000
0010
0001
0000
,
1000
0000
0001
1000
0001
0000
1100
0000
,
1000
0000
0010
0100
0010
0100
0001
0100
0001
0000
1000
0000
0100
0000
0000
0000
,
1100
0000
0010
0100
0001
0000
0010
0001
,
0100
0010
0001
0010
1000
0001
1000
0000
0100
0000
0001
0000
0010
0000
0000
0000
,
1000
0100
0010
0001
0010
0100
1000
0010
,
0100
0001
0010
0100
1000
0010
0100
0001
0010
0100
0010
0001
1000
0100
0010
0002
,
2000
3003
0000
0000
0000
0000
0000
0000
0000
0000
0000
0000
0000
0000
0000
0000
0000
0000
0000
0000
0000
0000
0000
0000
1001
0000
0000
0000
0000
0000
0000
0000
0000
0000
0000
0000
0000
0000
0000
0000
0110
0000
0000
0000
0000
0000
0000
0000
0000
0000
0000
0000
0000
0000
0000
0000
0000
0000
0000
0000
0000
0000
0000
0000
,
1001
0000
0000
0110
0000
0000
1001
0000
1001
0000
0010
0000
0100
0010
0100
0000
,
0110
0000
0000
1001
0000
0110
0000
0000
,
1010
0000
0000
0000
0000
0000
0000
0000
0000
0000
0000
0000
0011
0000
0000
0000
0000
0000
0000
0000
0000
0000
0000
0000
1100
0000
0000
0000
0000
0000
0000
0000
2002
3003
0010
0000
0000
0000
0000
0000
0000
0000
0000
0000
0000
0000
0000
0000
0000
0000
0000
0000
0000
0000
0000
0000
0000
0000
0000
0000
0000
0000
0000
0000
;

//---------------dance-single - HELL----------------
#NOTES:
     dance-single:
     HELL:
     Edit:
     12:
     1.000,1.000,1.000,1.000,1.000:
0220
0330
0220
0330
0220
0330
1001
0001
,
0220
0330
0220
0330
0220
0330
1001
1000
,
0220
0330
0220
0330
0220
0330
0110
1000
,
0100
0001
0010
0100
2002
3003
1001
0000
,
0220
0330
0220
0330
0220
0330
1001
1000
,
0220
0330
0220
0330
0220
0330
1001
0001
,
0220
0330
0220
0330
0220
0330
0110
0001
,
0100
1000
0010
0100
2002
3003
1001
0000
,
0110
0101
1010
0110
,
1010
0011
0110
1010
,
0011
0110
1001
0110
,
2020
3030
0202
0303
2020
3030
1001
0000
,
0001
0000
0100
0000
1000
0000
0010
0000
0001
0000
0000
0000
0100
0010
0001
0000
,
1001
0000
1100
0100
0001
0010
0100
1000
,
1001
0000
0000
0000
0001
0000
0100
0000
0010
0000
1000
0000
0010
0001
0010
0000
,
1000
0000
0100
0010
0100
1000
0100
0010
0001
0000
0010
0000
1010
0000
0000
0000
,
1001
0000
0000
0000
0110
0000
1001
0000
0110
0000
0000
0000
1000
0100
0001
0000
,
0010
0000
1010
1000
0001
0100
1000
0010
,
0011
0000
0000
0000
0010
0000
1000
0000
0100
0000
0000
0000
0010
0001
1000
0000
,
1000
0000
0010
0100
1000
0001
1000
0100
1000
0000
0010
0000
0001
0000
0000
0000
,
1001
0000
0000
0000
0100
0000
0010
0000
0001
0000
0000
0000
0100
0010
1000
0000
,
0001
0000
1000
0001
1000
0001
0010
0100
0010
0000
0001
0000
0100
0000
0000
0000
,
1100
0000
1000
0100
0001
0010
0100
1000
,
1001
0000
0001
0000
0100
0000
0001
0000
1000
0100
0010
0001
0010
0100
1000
0001
,
1001
0000
0000
1010
0000
0000
0101
0000
0000
0000
0001
0000
0011
0000
0010
0000
,
1000
0000
0000
0001
0000
0000
0010
0000
0000
0000
0011
0000
1100
0000
0001
0000
,
1010
0000
0000
0110
0000
0000
0101
0000
0000
0000
0010
0000
1000
0000
0100
0000
,
0010
0000
0000
0001
0000
0000
1100
0000
0001
0000
0100
0000
1100
0000
0000
0000
,
1010
0000
0000
0110
0000
0000
0101
0000
0000
0000
0100
0000
0001
0000
0010
0000
,
1000
0000
0000
0100
0000
0000
0010
0000
0000
0000
0001
0000
0101
0000
0110
0000
,
1010
0000
0000
1000
0000
0000
0100
0000
0000
0000
0001
0000
0100
0000
0010
0000
,
1001
0000
0000
1000
0000
0000
0010
0000
0000
0000
0001
0000
0100
0000
1000
0000
,
1001
0000
0001
0100
0001
0000
1000
0100
1000
0000
0010
0100
0010
0000
1000
0100
,
1000
0000
0001
0010
0001
0000
1000
0100
1000
0000
0100
0010
0100
0000
0010
0001
,
0010
0000
0001
0100
0001
0000
1000
0010
0100
0000
0001
0010
0100
0000
1000
0010
,
0100
0000
0001
1000
0001
0000
1000
0001
1000
0000
0001
0010
0100
0000
1000
0001
,
1000
0100
0010
0100
1000
0001
0100
0010
0100
0001
1000
0100
0010
0100
1000
0001
,
0100
0001
1000
0100
1000
0001
0010
0100
1000
0100
0010
0001
0100
0010
1000
0100
,
0010
0001
0010
0100
1000
0001
1000
0001
1000
0010
0100
0010
0100
0010
1000
0001
,
0100
0010
0100
0001
1000
0100
0010
0001
0010
0100
1000
0001
0010
0100
1000
0100
,
0010
0001
0010
0100
0010
0001
0010
0100
1000
0001
0100
0001
1000
0001
1000
0100
,
1000
0001
0100
0010
0100
0001
1000
0100
0010
0100
1000
0001
1000
0100
1000
0010
,
0100
0001
0010
0001
0100
0010
1000
0001
1000
0100
0010
0100
1000
0010
0100
0001
,
0010
0001
0100
0010
0100
0001
0010
0100
1000
0100
0010
0001
0010
0100
1000
0100
,
0010
0100
1000
0100
0010
0001
0010
0100
1000
0100
0010
0001
0010
0100
1000
0001
,
0010
0100
1000
0100
0010
0001
1000
0100
0010
0001
0010
0100
1000
0001
0010
0100
,
1000
0100
0010
0001
1000
0100
0010
0001
0010
0100
1000
0100
0010
0001
0010
0100
,
1000
0100
0010
0001
0010
0100
1000
0100
0010
0001
0010
0100
1000
0100
0010
0001
,
1000
0010
1000
0001
1000
0010
1000
0001
1000
0010
1000
0001
1000
0010
1000
0001
,
1000
0010
1000
0001
1000
0010
1000
0001
1000
0010
1000
0001
1000
0010
1000
0001
,
1000
0001
0010
0001
1000
0001
0010
0001
1000
0001
0010
0001
1000
0001
0010
0001
,
1000
0001
0010
0001
1000
0001
0010
0001
1000
0001
0010
0001
1000
0001
0010
0001
,
1001
0000
0000
0101
0000
0000
1010
0000
0000
0000
0100
0000
1000
0000
0100
0000
,
0101
0000
0000
0011
0000
0000
1100
0000
0000
0000
1000
0000
0010
0000
0001
0000
,
1001
0000
0000
1100
0000
0000
0101
0000
0000
0000
0001
0000
0010
0000
0100
0000
,
1100
0000
0000
0011
0000
0000
1001
0000
1000
0010
1000
0000
0001
0100
0001
0000
,
1000
0000
0010
0100
0010
0000
1000
0100
1000
0000
0001
0100
0001
0000
0100
0010
,
0100
0000
0001
0100
0001
0000
1000
0100
1000
0000
0010
0100
0010
0000
1000
0001
,
1000
0000
0010
0100
0001
0000
0001
1000
0100
0000
0100
1000
0001
0000
0001
1000
,
0010
0000
0010
1000
0100
0000
0100
1000
0010
0000
0010
0100
0001
0000
0001
1000
,
0002
0000
0000
0203
0000
0000
0320
0000
0000
0000
0130
0000
0001
0000
0010
0000
,
2000
0000
0000
3200
0000
0000
0301
0000
0001
0010
0001
0000
1000
0100
1000
0000
,
2100
0000
0000
3020
0000
0000
0032
0000
0000
0000
0203
0000
1000
0000
1000
0000
,
1300
0100
0001
0010
0100
1000
0010
0100
,
0011
0000
0000
0110
0000
0000
1100
0000
0010
0100
0010
0000
0110
0000
1001
0000
,
0110
0000
0000
0110
0000
0000
1001
0000
0010
0100
0010
0000
0010
0000
0100
0010
,
0110
0000
0000
1010
0000
0000
0101
0000
0001
0100
0110
0000
1010
0000
0101
0000
,
0010
1000
0100
0000
0010
0001
0100
0000
1000
0100
0010
0001
1000
0010
0100
0001
,
0101
0000
0000
1010
0000
0000
1001
0000
0000
0000
0011
0000
0110
0000
1100
0000
,
1000
0010
1000
0010
0100
0001
0100
0001
0010
0001
0010
0001
1000
0100
1000
0100
,
1100
0000
0000
0110
0000
0000
1001
0000
0000
0000
1001
0000
1010
0000
0101
0000
,
1001
0000
0000
0000
0000
0000
0000
0000
1001
0000
0000
0000
0000
0000
0000
0000
0110
0000
0000
0000
0000
0000
0000
0000
0110
0000
0000
0000
0000
0000
0000
0000
1000
0000
0000
0000
0001
0000
0000
0000
0000
0000
0000
0000
0010
0000
0000
0000
0000
0000
0000
0000
0110
0000
0000
0000
0000
0000
0000
0000
0200
0300
0000
0000
,
0020
0030
0000
0000
0200
0300
0000
0000
0020
0030
0000
0000
0200
0300
0000
0000
0020
0030
0000
0000
0200
0300
0000
0000
0020
0030
0000
0000
0200
0300
0000
0000
0020
0030
0000
0000
0200
0300
0000
0000
0020
0030
0000
0000
0200
0300
0000
0000
0020
0030
0000
0000
0200
0300
0000
0000
0020
0030
0000
0000
0200
0300
0000
0000
,
0001
0010
0100
1000
0100
0000
1001
0000
,
0110
0000
0010
0100
1000
0010
0011
0000
,
1001
0000
0001
1000
0001
0000
1100
0000
,
1000
0000
0010
0100
0010
0100
0001
0100
0001
0000
1000
0000
1100
0000
0000
0000
,
1100
0000
1000
0100
1000
0000
0001
0100
0001
0000
1000
0100
1000
0000
0001
0010
,
0100
0000
1000
0010
0100
0000
0001
1000
0100
0000
1000
0001
0100
0000
1000
0010
,
0100
0000
0001
0010
0100
0000
1000
0100
0001
0000
0001
0100
1000
0000
1000
0010
,
0100
0001
0010
0100
1000
0100
0010
0001
1000
0100
0010
0001
0010
0100
1000
0001
,
2000
3000
0000
0000
0200
0300
0000
0000
0020
0030
0000
0000
0002
0003
0000
0000
2000
3000
0000
0000
0200
0300
0000
0000
0020
0030
0000
0000
0002
0003
0000
0000
2000
3000
0000
0000
0200
0300
0000
0000
0020
0030
0000
0000
0002
0003
0000
0000
2000
3000
0000
0000
0200
0300
0000
0000
0020
0030
0000
0000
0002
0003
0000
0000
,
2000
3000
0000
0000
0002
0003
0000
0000
0020
0030
0000
0000
0200
0300
0000
0000
2000
3000
0000
0000
0002
0003
0000
0000
0020
0030
0000
0000
0200
0300
0000
0000
2002
3003
0000
0000
0000
0000
0000
0000
0020
0030
0000
0000
0000
0000
0000
0000
0200
0300
0000
0000
0020
0030
0000
0000
0200
0300
0000
0000
0000
0000
0000
0000
,
2000
3000
0000
0000
0200
0300
0000
0000
0020
0030
0000
0000
0002
0003
0000
0000
2000
3000
0000
0000
0200
0300
0000
0000
0020
0030
0000
0000
0002
0003
0000
0000
2000
3000
0000
0000
0200
0300
0000
0000
0020
0030
0000
0000
0002
0003
0000
0000
2000
3000
0000
0000
0200
0300
0000
0000
0020
0030
0000
0000
0002
0003
0000
0000
,
0020
0030
0000
0000
0200
0300
0000
0000
2000
3000
0000
0000
0020
0030
0000
0000
0200
0300
0000
0000
0002
0003
0000
0000
0020
0030
0000
0000
0200
0300
0000
0000
2002
3003
0220
0330
0000
0000
0000
0000
0000
0000
0000
0000
0000
0000
0000
0000
0000
0000
0000
0000
0000
0000
0000
0000
0000
0000
0000
0000
0000
0000
0000
0000
;

//---------------dance-single - BEGINNER----------------
#NOTES:
     dance-single:
     BEGINNER:
     Beginner:
     2:
     0.111,0.197,0.171,0.000,0.000:
0000
0000
0000
0000
,
0000
0000
0000
0000
,
0000
0000
0000
0000
,
0000
0000
0000
0000
,
1001
0000
0000
0000
,
0010
0000
0000
0000
,
0100
0000
0000
0000
,
0010
0000
0000
0000
,
1001
0000
0000
0000
,
0100
0000
0000
0000
,
0010
0000
0000
0000
,
0100
0000
0000
0000
,
1001
0000
0000
0000
,
1000
0000
0000
0000
,
0100
0000
0000
0000
,
0010
0000
0000
0000
,
0001
0000
0000
0000
,
0010
0000
0000
0000
,
0100
0000
0000
0000
,
1000
0000
0000
0000
,
1001
0000
0000
0000
,
0110
0000
0000
0000
,
1001
0000
0000
0000
,
0110
0000
0000
0000
,
1001
0000
0000
0000
,
0010
0000
0000
0000
,
0100
0000
0000
0000
,
0010
0000
0000
0000
,
1001
0000
0000
0000
,
0100
0000
0000
0000
,
0010
0000
0000
0000
,
0100
0000
0000
0000
,
1001
0000
0000
0000
,
1000
0000
0000
0000
,
0001
0000
0000
0000
,
0100
0000
0000
0000
,
1001
0000
0000
0000
,
0010
0000
0000
0000
,
0100
0000
0000
0000
,
0100
0000
0000
0000
,
0010
0000
0000
0000
,
0100
0000
0000
0000
,
0100
0000
0000
0000
,
0010
0000
0000
0000
,
1000
0000
0000
0000
,
1000
0000
0000
0000
,
0001
0000
0000
0000
,
0001
0000
0000
0000
,
1000
0000
0000
0000
,
1000
0000
0000
0000
,
0001
0000
0000
0000
,
0001
0000
0000
0000
,
1001
0000
0000
0000
,
1000
0000
0000
0000
,
0001
0000
0000
0000
,
1000
0000
0000
0000
,
1001
0000
0000
0000
,
0001
0000
0000
0000
,
1000
0000
0000
0000
,
0001
0000
0000
0000
,
1001
0000
0000
0000
,
0001
0000
0000
0000
,
1001
0000
0000
0000
,
1000
0000
0000
0000
,
1001
0000
0000
0000
,
0000
0000
0000
0000
,
0100
0000
0000
0000
,
0000
0000
0000
0000
,
1001
0000
0000
0000
,
0000
0000
0000
0000
,
0010
0000
0000
0000
,
0000
0000
0000
0000
,
0100
0000
0000
0000
,
1001
0000
0000
0000
,
0100
0000
0000
0000
,
1001
0000
0000
0000
,
0010
0000
0000
0000
,
1001
0000
0000
0000
,
0010
0000
0000
0000
,
0100
0000
0000
0000
,
0010
0000
0000
0000
,
1001
0000
0000
0000
,
0010
0000
0000
0000
,
0110
0000
0000
0000
,
0010
0000
0010
0000
;

//---------------dance-double - ----------------
#NOTES:
     dance-double:
     :
     Hard:
     9:
     0.613,0.691,0.210,0.125,0.304:
00000000
00000000
00000000
00000000
,
00000000
00000000
00000000
00000000
,
00000000
00000000
00000000
00000000
,
00000000
00000000
00000000
00000000
,
00010000
00000000
00000000
00000000
00000000
00000010
00000000
00000100
,
00000000
00000001
00000000
00000000
00000100
00001000
00000000
00000000
,
01000000
00000000
00000000
00000000
00000000
00010000
00000000
10000000
,
00000000
00100000
00000000
00000000
01000000
00010000
00001000
00000100
,
00000010
00000000
00000000
00000010
00000100
00000000
00000000
00000100
00001000
00000000
00000000
00001000
00010000
00000000
00000000
00010000
,
01000000
00000000
00000000
01000000
00100000
00000000
00000000
00100000
00010000
00000000
00000000
00010000
10000000
00000000
00000000
10000000
,
01000000
00000000
00000000
01000000
00010000
00000000
00000000
00010000
00001000
00000000
00000000
00001000
00000100
00000000
00000000
00000100
,
00000020
00000000
00000000
00000100
00002030
00000000
00000000
00010000
02003000
00000000
00000000
00100000
23000000
00000000
00000000
00100000
,
30010000
00000000
00100000
00000000
01000000
00000000
10000000
00000000
01000000
00000000
00010000
00000000
00001000
00000010
00000000
00000000
,
00010000
00000010
00000100
00001000
00000001
00001000
00000100
00000000
,
00000100
00000000
00001000
00000000
00000001
00000000
00000010
00000000
00000100
00000000
00010000
00000000
00001000
00100000
00000000
00000000
,
00001000
00000000
00010000
01000000
00010000
00000000
00100000
00000000
10000000
00000000
00010000
00000000
01000000
00000000
00000000
00000000
,
00100000
00000000
00000000
00000000
00010000
00000000
00001000
00000000
00000100
00000000
00000000
00000000
00000010
00001000
00000000
00000000
,
00000001
00000000
00000010
00000100
00001000
00000010
00010000
00000000
,
00001000
00000000
00000000
00000000
00100000
00000000
00010000
00000000
10000000
00000000
00000000
00000000
01000000
00100000
00000000
00000000
,
00001000
00000000
00100000
01000000
00100000
00000000
00010000
00000000
00001000
00000000
00000100
00000000
00000010
00000000
00000000
00000000
,
00001000
00000000
00000000
00000000
00000001
00000000
00000100
00000000
00000010
00000000
00000000
00000000
00001000
00000100
00000000
00000000
,
00000010
00000000
00001000
00010000
00001000
00000000
01000000
00000000
00010000
00000000
01000000
00000000
00100000
00000000
00000000
00000000
,
01000000
00000000
10000000
00010000
00100000
01000000
00100000
00001000
,
00010000
00000010
00000100
00000001
00001000
00000000
00000100
00000010
,
00000001
00000000
00000000
00000100
00000000
00000000
00000010
00000000
00000000
00000000
00010000
00000000
00001000
00000000
01000000
00000000
,
00100000
00000000
00000000
00010000
00000000
00000000
01000000
00000000
00000000
00000000
10000000
00000000
01000000
00000000
00010000
00000000
,
00100000
00000000
00000000
01000000
00000000
00000000
00001000
00000000
00000000
00000000
00010000
00000000
00000010
00000000
00000100
00000000
,
00000001
00000010
00000000
00000100
00000000
00001010
00000011
00000000
,
00000100
00000000
00000000
00001000
00000000
00000000
00000010
00000000
00000000
00000000
00010000
00000000
00001000
00000000
00100000
00000000
,
01000000
00000000
00000000
10000000
00000000
00000000
00010000
00000000
00000000
00000000
01000000
00000000
00100000
00000000
00001000
00000000
,
00010000
00000000
00000000
00000010
00000000
00000000
00000100
00000000
00000000
00000000
00000001
00000000
00001000
00000000
00000100
00000000
,
00000010
00000001
00000000
00000100
00010000
00001010
00101000
00000000
,
10000000
00000000
00000000
10000000
01000000
00000000
00000000
01000000
00010000
00000000
00000000
00010000
00001000
00000000
00000100
00000000
,
00000010
00000000
00000000
00000010
00001000
00000000
00000000
00001000
00000001
00000000
00000000
00000001
00000010
00000000
00000100
00000000
,
00001000
00000000
00000000
00001000
00010000
00000000
00000000
00010000
00100000
00000000
00000000
00100000
01000000
00000000
10000000
00000000
,
00100000
00000000
00000000
00100000
01000000
00000000
00000000
01000000
00001000
00000000
00010000
00001000
00010000
00000000
00000100
00000000
,
00000010
00000000
00000000
00000001
00000000
00000000
00001000
00000000
00000000
00000000
00000100
00000000
00000100
00000000
00001000
00000000
,
00020000
00000000
00130000
00000000
00100000
10000000
00100000
00010000
,
00000100
00000000
00000000
00000001
00000000
00000000
00000010
00000000
00000000
00000000
00001000
00000000
00000100
00000000
00001000
00000000
,
00010000
00110000
10000000
11000000
,
01000000
00000000
00000000
00010000
00000000
00000000
00001000
00000000
00000000
00000000
00000010
00000000
00000001
00000000
00000100
00000000
,
00002000
00000000
00013000
00000000
01000000
10000000
00010000
01000000
,
00100000
00000000
00000000
01100000
00000000
00000000
00011000
00000000
00000000
00000000
00001000
00000000
00000100
00000000
00010000
00000000
,
00000020
00000130
00000101
00001100
,
00000001
00000100
00000001
00000000
00000100
00001000
00000100
00000000
,
00001000
00010000
00001000
00000000
00010000
00100000
00010000
00000000
,
00100000
10000000
00100000
00000000
10000000
01000000
10000000
00000000
,
01000000
00010000
01000000
00000000
00010000
00001000
00010000
00000000
,
00001000
00000100
00000001
00000000
00000001
00000010
00001000
00000000
,
00010000
01000000
10000000
00000000
10000000
00100000
00010000
00000000
,
00001000
00000010
00000001
00000000
00000001
00000100
00001000
00000000
,
00010000
00100000
10000000
00000000
10000000
01000000
00010000
00000000
,
00001000
00000000
00000000
00000110
00000000
00000000
00000001
00000000
00000000
00000000
00000010
00000000
00000100
00000000
00001000
00000000
,
00010000
00000000
00000000
00101000
00000000
00000000
00010000
00000000
00000000
00000000
10000000
00000000
01000000
00000000
00100000
00000000
,
00001000
00000000
00000000
00011000
00000000
00000000
00000010
00000000
00000000
00000000
00000100
00000000
00000001
00000000
00000010
00000000
,
00000100
00000000
00000000
00010100
00000000
00000000
00001000
00000000
00100000
01000000
00100000
00000000
10000000
00010000
10000000
00000000
,
01000000
00000000
00000000
01000000
10000000
00000000
00000000
10000000
01000000
00000000
00000000
01000000
00100000
00000000
00000000
00100000
,
00001000
00000000
00000000
00001000
00010000
00000000
00000000
00010000
00001000
00000000
00000000
00001000
00000010
00000000
00000000
00000010
,
00000001
00000000
00000000
00000001
00001000
00000000
00000000
00001000
00000001
00000000
00000000
00000001
00000010
00000000
00000000
00000010
,
00000100
00000000
00000000
00000100
00010000
00000000
00000000
00010000
00001000
00000000
00000010
00000000
00000100
00000000
00001000
00000000
,
00010000
01000000
10000000
00000000
00100000
00010000
00001000
00000000
,
00000010
00000100
00000001
00000010
00001000
00000000
00001010
00000000
,
01010000
01000000
10000000
00000000
00100000
00010000
00001000
00000000
,
00000010
00000100
00000001
00000010
00001000
00000100
00001000
00010000
,
00100000
00000000
00000000
00100000
00000000
00000000
00200000
00000000
00000000
00000000
10300000
00000000
01000000
00000000
00100000
00000000
,
00010000
00000000
00000000
00010000
00000000
00000000
00020000
00000000
00000000
00000000
00031000
00000000
00010000
00000000
00000110
00000000
,
00000100
00000000
00000000
00000100
00000000
00000000
00000100
00000000
00000001
00000000
00000100
00000000
00001000
00000000
00010000
00000000
,
00100000
00010000
00100000
00000000
01000000
10000000
01000000
00000000
22000000
00000000
00000000
00000000
33000000
00000000
00000000
00000000
,
10000000
00000000
00000000
01000000
00000000
00000000
01010000
00000000
00000000
00000000
01000000
00000000
00010000
00000000
00001000
00000000
,
00000010
00000100
00000010
00000000
00000200
00000000
00000000
00000000
00001300
00000001
00001000
00000000
00000002
00000000
00000000
00000000
,
00000013
00000000
00000000
00000100
00000000
00000000
00001001
00000000
00000000
00000000
00000001
00000000
00000100
00000000
00000010
00000000
,
00001000
00001000
00000100
00000100
00010000
00010000
00001000
00001000
,
02200000
00000000
00000000
03300000
,
10000000
00000000
10000000
00010000
10000000
00000000
10000000
00000000
,
01000000
00000000
01000000
00100000
01000000
00000000
01000000
00000000
,
00010000
00000000
00010000
00001000
00010000
00000000
00010000
00000000
,
00000010
00000100
00000000
00000010
00000000
00000100
00000110
00000000
,
00000001
00000000
00001000
00000010
00000100
00001000
00000100
00000010
,
00001000
00000001
00000010
00000100
00001000
00010000
00001000
00000000
,
00010000
00001000
00100000
00010000
00100000
01000000
00100000
00010000
,
10000000
01000000
00100000
01000000
00010000
00001000
00000100
00000010
,
00001010
00000000
00000000
00000101
00000000
00000100
00000000
00000000
,
00001000
00000000
00000000
00001000
00000000
00000000
00001000
00000000
01001000
00000000
00000000
00000000
00000000
00000000
00000000
00000000
,
11000000
00000000
00000000
01020000
00000000
00031000
00000000
00000000
,
00000100
00000000
00000000
00000000
00000000
00000000
00000100
00000000
00000000
00000000
00000000
00000000
00000100
00000000
00000000
00000000
00000010
00010000
00000000
00000000
00000000
00000000
00000000
00000000
00000000
00000000
00000000
00000000
00000000
00000000
00000000
00000000
;

//---------------dance-double - ----------------
#NOTES:
     dance-double:
     :
     Medium:
     7:
     0.396,0.494,0.101,0.140,0.070:
00000000
00000000
00000000
00000000
,
00000000
00000000
00000000
00000000
,
00000000
00000000
00000000
00000000
,
00000000
00000000
00000000
00000000
,
00100000
00000000
00000000
00000000
00000000
01000000
00000000
10000000
,
00000000
00100000
00000000
00000000
00010000
00010000
00000000
00000000
,
00001000
00000000
00000000
00000000
00000000
00000100
00000000
00000100
,
00000000
00000010
00000000
00000001
00001000
00000000
00001001
00000000
,
00000010
00000200
00002300
00023000
,
02030000
00000000
03100000
00000000
10000000
01000000
00010000
00000000
,
00100000
02000000
03020000
00032000
,
00003100
00000101
00001001
00001010
,
00000100
00000010
00000000
00010000
00000000
00000010
00000000
00000100
,
00001000
00100000
00000000
00001000
00000000
01000000
00000000
00100000
,
00010000
00001000
00000000
00000100
00000000
00000010
00000000
00000100
,
00001000
00000000
01000000
00100000
01000000
00000000
10000000
00010000
,
10000000
01000000
00100000
00001000
,
00010000
00000010
00000100
00000001
,
00000001
00000000
00000010
00000001
00000010
00000000
00000100
00010000
,
00000100
00000000
00000000
00000010
00000000
00010000
00001000
00000000
,
00100000
00000000
00000000
11000000
00000000
01000000
00000000
01010000
,
00000000
00010000
00000000
00011000
00000000
00001000
00000000
00001100
,
00000000
00000010
00000000
00000110
00000000
00000100
00000000
00000101
,
00000000
00000001
00000000
00000011
00000000
00000010
00001000
00010000
,
00001000
00000000
00000000
00100000
00000000
00000000
00001000
00000000
00000000
00000000
00001000
00000000
00001000
00000000
00000000
00000000
,
00010000
00000000
00000000
00000100
00000000
00000000
00010000
00000000
00000000
00000000
00001000
00000000
00001000
00000000
00000000
00000000
,
00100000
00000000
00000000
00001000
00000000
00000000
00100000
00000000
00000000
00000000
01000000
00000000
01000000
00000000
00000000
00000000
,
10000000
01000000
00000000
10000000
00000000
00100000
00100000
00000000
,
01000000
00000000
00000000
00001000
00000000
00000000
01000000
00000000
00000000
00000000
00010000
00000000
00010000
00000000
00000000
00000000
,
00000010
00000000
00000000
00000100
00000000
00000000
00000010
00000000
00000000
00000000
00001000
00000000
00001000
00000000
00000000
00000000
,
00000001
00000000
00000000
00000001
00000000
00000000
00000001
00000000
00000000
00000000
00000010
00000000
00000100
00000000
00000000
00000000
,
00001000
00000010
00000000
00010000
00000000
00001000
00100000
00000000
,
00100000
00000000
10000000
00000000
01000000
00000000
00010000
00001000
,
00010000
00000000
00000100
00000000
00000010
00000000
00001000
00000001
,
00001000
00000010
00000100
00001000
,
00010000
00000000
01000000
00000000
00100000
01000000
10000000
00000000
,
00100000
00000000
00001000
00000000
,
00010000
00000010
00000100
00000001
,
00000010
00000000
00000100
00000000
,
00010000
00001000
01000000
00100000
,
00010000
00000000
10000000
00000000
,
01000000
00100000
00001000
00010000
,
00000010
00000000
00000100
00000000
,
00000001
00000100
00001000
00000010
,
00010000
00000000
00001000
00000000
,
00010000
00000010
00000100
00000001
,
00000010
00000000
00000100
00000000
,
00001000
00010000
01000000
00100000
,
00010000
00110000
10000000
11000000
,
00100000
01000000
00001000
00100000
,
00010000
00000010
00000100
00000001
,
00000020
00000000
00000100
00000130
,
00001000
00000000
00000000
00010000
00000000
00000000
00001000
00000000
00000000
00000000
00100000
00000000
01000000
00000000
00000000
00000000
,
10000000
00000000
00000000
00010000
00000000
00000000
10000000
00000000
00000000
00000000
01000000
00000000
00100000
00000000
00000000
00000000
,
00100000
00000000
00000000
00001000
00000000
00000000
00010000
00000000
00000000
00000000
00000010
00000000
00000100
00000000
00000000
00000000
,
00000001
00000000
00000000
00000010
00000000
00000000
00000100
00000000
00001000
00000000
00010000
00000000
00000000
00000000
01000000
00000000
,
00100000
00000000
00000000
00010000
00000000
00000000
10000000
00000000
00000000
00000000
01000000
00000000
00100000
00000000
00000000
00000000
,
00001000
00000000
00000000
00010000
00000000
00000000
00000010
00000000
00000000
00000000
00000100
00000000
00000001
00000000
00000000
00000000
,
00000010
00000000
00000000
00000100
00000000
00000000
00010000
00000000
00000000
00000000
00000010
00000000
00000100
00000000
00000000
00000000
,
00000010
00000000
00000000
00010000
00000000
00000000
00001000
00000000
00000000
00000000
01000000
00000000
01000000
00000000
01000000
00000000
,
00100000
00000000
00000000
00100000
00000000
00000000
00100000
00000000
00000000
00000000
00000000
00000000
10000000
00000000
00000000
00000000
,
10000000
00000000
00000000
10000000
00000000
00000000
10000000
00000000
00000000
00000000
00000000
00000000
01000000
00000000
00000000
00000000
,
01000000
00000000
00000000
01000000
00000000
00000000
01000000
00000000
00000000
00000000
00000000
00000000
00010000
00000000
00000000
00000000
,
00010000
00000000
00000000
00010000
00000000
00000000
00010000
00000000
00000000
00000000
00000000
00000000
00001000
00000000
00000000
00000000
,
00000010
00000000
00000100
00000001
,
00000010
00000000
00000100
00010000
,
00001000
00000000
00001000
00000100
,
00000010
00000000
00001000
01000000
,
00100000
00000000
00010000
00100000
,
20000000
30000000
00020000
00030000
,
00000010
00000000
00000100
00000001
,
00000010
00000000
00000100
00000000
,
00001000
00000010
00000100
00001000
,
00010000
01000000
00000000
10000000
00000000
00100000
00000000
01000000
,
00000000
00010000
00000000
00001000
00000000
00000100
00000000
00000001
,
00000000
00000010
00000000
00000100
00000000
00000010
00000000
00010000
,
00000000
00001000
00000000
00000100
00000000
00001000
00010000
00000000
,
01000000
00100000
00000000
01000000
00000000
10000000
00000000
01000000
,
00000000
00010000
00000000
00001000
00000000
00010000
00000000
00000010
,
00000000
00000100
00000000
00000001
00000000
00000010
00000001
00001000
,
00000000
00000100
00000010
00010000
00000000
00001000
00100000
00010000
,
20000000
00000000
02000000
30000000
,
00020000
03000000
00002000
00030000
,
00000200
00003000
00000020
00000300
,
00000002
00000000
00000000
00000000
00000000
00000000
00000000
00000000
00000030
00000000
00000000
00000000
00000000
00000000
00000000
00000000
00002000
00003003
00000000
00000000
00000000
00000000
00000000
00000000
00000000
00000000
00000000
00000000
00000000
00000000
00000000
00000000
;

//---------------dance-double - ----------------
#NOTES:
     dance-double:
     :
     Easy:
     5:
     0.306,0.395,0.047,0.078,0.047:
00000000
00000000
00000000
00000000
,
00000000
00000000
00000000
00000000
,
00000000
00000000
00000000
00000000
,
00000000
00000000
00000000
00000000
,
00100000
00000000
00000000
00000000
00000000
01000000
00000000
01000000
,
00000000
01000000
00000000
00000000
00010000
00000000
00000000
00000000
,
00001000
00000000
00000000
00000000
00000000
00000100
00000000
00000100
,
00000000
00000100
00000000
00000000
00000001
00000000
00000000
00000000
,
00000020
00010000
00000000
00010000
,
00000000
00010000
00000000
00010030
,
00200000
00001000
00000000
00301000
,
00020000
00032000
00003200
00000310
,
00000001
00000101
00001000
00010000
,
00001000
00010000
01000000
00000000
,
10000000
11000000
00010000
01000000
,
00010000
00001000
00000100
00000000
,
00000020
00000000
00001000
00000031
,
00000020
00000000
00001000
00000031
,
00002000
00000000
00010000
00103000
,
00002000
00000000
00010000
00103000
,
00010000
01000000
00100000
00000000
,
10000000
01000000
00100000
00000000
,
00001000
00010000
00000010
00000000
,
00000100
00000100
00000001
00000001
,
00000010
00000000
00000000
00000010
00000000
00000000
00000010
00000000
00000000
00000000
00000000
00000000
00010000
00000000
00000000
00000000
,
00001000
00000000
00000000
00001000
00000000
00000000
00001000
00000000
00000000
00000000
00000000
00000000
00100000
00000000
00000000
00000000
,
01000000
00000000
00000000
01000000
00000000
00000000
01000000
00000000
00000000
00000000
00000000
00000000
10000000
00000000
00000000
00000000
,
00000000
00010000
00000000
00010000
00000000
00001000
00001000
00000000
,
00000100
00000000
00000000
00000100
00000000
00000000
00000100
00000000
00000000
00000000
00000000
00000000
00000010
00000000
00000000
00000000
,
00000001
00000000
00000000
00000001
00000000
00000000
00000001
00000000
00000000
00000000
00000000
00000000
00001000
00000000
00000000
00000000
,
00000100
00000000
00000000
00000100
00000000
00000000
00000100
00000000
00000000
00000000
00000000
00000000
00010000
00000000
00000000
00000000
,
00000000
00001000
00000000
00001000
00000000
00100000
00100000
00000000
,
00010000
01000000
10000000
00100000
,
00010000
01000000
10000000
00000000
,
00001000
00000100
00000001
00000010
,
00001000
00000100
00000001
00000010
,
00001000
00000000
00010000
00000000
,
01000000
00100000
01000000
00100000
,
01000000
00000000
00001000
00000000
,
00010000
00000100
00000010
00000100
,
00010000
00000000
00001000
00000000
,
01000000
10000000
01000000
00100000
,
00010000
00000000
00001000
00000000
,
00000010
00000100
00000001
00000010
,
00001000
00001100
00000001
00000000
,
00000001
00000101
00001000
00000000
,
00010000
00011000
00100000
01000000
,
00100000
01100000
10000000
00000000
,
00010000
00000000
10000000
00000000
,
00010000
10000000
01000000
00000000
,
00001000
00010000
00000010
00000100
,
00000002
00000000
00000010
00000013
,
00000100
00000000
00000000
00000100
00000000
00000000
00000100
00000000
00000000
00000000
00000000
00000000
00010000
00000000
00000000
00000000
,
00001000
00000000
00000000
00001000
00000000
00000000
00001000
00000000
00000000
00000000
00000000
00000000
00100000
00000000
00000000
00000000
,
01000000
00000000
00000000
01000000
00000000
00000000
01000000
00000000
00000000
00000000
00000000
00000000
10000000
00000000
00000000
00000000
,
01000000
01000000
00100000
00100000
,
00001000
00000000
00000000
00001000
00000000
00000000
00001000
00000000
00000000
00000000
00000000
00000000
00010000
00000000
00000000
00000000
,
00000010
00000000
00000000
00000010
00000000
00000000
00000010
00000000
00000000
00000000
00000000
00000000
00000100
00000000
00000000
00000000
,
00000001
00000000
00000000
00000001
00000000
00000000
00000001
00000000
00000000
00000000
00000000
00000000
00001000
00000000
00000000
00000000
,
00000100
00000100
00000010
00000010
,
00001000
00010000
00000000
00001000
,
00010000
01000000
00000000
00010000
,
00001000
00000100
00000000
00001000
,
00010000
00100000
10000000
01000000
,
00100000
00100000
00000000
00000000
,
00001000
00001000
00000000
00000000
,
00010000
00010000
00000000
00000000
,
00000100
00000100
00000000
00000000
,
00000001
00000001
00000000
00000000
,
00001000
00001000
00000000
00000000
,
00000100
00000100
00000000
00000000
,
00000010
00000010
00010000
00010000
,
00001000
00000000
01000000
00000000
,
00100000
00100000
10000000
10000000
,
00010000
01000000
00010000
00000000
,
00001000
00001000
00010000
00010000
,
00000100
00000010
00000100
00000001
,
00000010
00000000
00010000
00001000
,
00000010
00000000
00001000
00010000
,
00100000
01000000
00100000
10000000
,
00010000
00100000
10000000
01000000
,
00001000
00000000
00010000
00000000
,
00000100
00000000
00010000
00000000
,
00000100
00000000
00000001
00000000
,
00000100
00000000
00010000
00000000
;

//---------------dance-double - ----------------
#NOTES:
     dance-double:
     :
     Challenge:
     11:
     0.985,1.000,0.647,0.600,0.787:
00000000
00000000
00000000
00000000
,
00000000
00000000
00000000
00000000
,
00000000
00000000
00000000
00000000
,
00000000
00000000
00000000
00000000
,
00010000
00000000
00000000
00001000
00000100
00000000
00000000
00000010
00001000
00000000
00000011
00000000
00000010
00000000
00001100
00000000
,
00001000
00000000
00001010
00000000
00010000
00000000
00000000
01000000
01100000
00000000
01100000
00000000
10000000
00000000
00000000
01000000
,
01010000
00000000
00000000
00010000
00001000
00000000
00000000
00000010
00000100
00000000
00001001
00000000
00000100
00000000
00000011
00000000
,
00001000
00000000
00001100
00000000
00010000
00000000
00001000
00000000
01001000
00000000
01000000
00100000
00010000
10000000
01000000
00100000
,
00020000
00000000
00000000
00001000
00030020
00000000
00000000
00000001
00000230
00000000
00000000
00000010
00002300
00000000
00000000
00000100
,
00003020
00000000
00000000
00001000
00000230
00000000
00000000
00010000
00002300
00000000
00000000
00100000
00013000
01000000
10000000
00100000
,
02000000
00000000
00000000
10000000
03200000
00000000
00000000
01000000
00320000
00000000
00000000
00001000
00030020
00000000
00000000
00000100
,
00000032
00000000
00000010
00001003
00000020
00000000
00001000
00010030
00002000
00000000
01000000
00013000
02000000
00000000
10000000
03100000
,
10000000
00000000
00000000
01000000
00100000
00000000
00010000
00000000
00001000
00000000
00000010
00000000
00000100
00000001
00000000
00000000
,
00000100
00000010
00000101
00000010
00001000
00000100
00010000
00011000
,
00100000
00000000
10010000
00000000
01000000
00000000
00100000
00000000
00001000
00000000
00010000
00000000
00000010
00000100
00000000
00000000
,
00000001
00000000
00001000
00000100
00000010
00000000
00000001
00000100
00000010
00000000
00001000
00000100
00010000
00000000
00000000
00000000
,
00001000
00000000
00000000
00100000
00010000
00000000
10000000
00000000
01000000
00000000
00100000
00000000
00001000
00010000
00000000
00000000
,
00000010
00000100
00001001
00000100
00000010
00000001
00000100
00000000
,
00000010
00000000
00000000
00010000
00000100
00000000
00010000
00000000
00001000
00000000
00100000
00000000
00010000
10000000
00000000
00000000
,
01000000
00000000
00100000
01000000
00100000
01000000
00001000
00010000
00001000
00010000
00001000
00000000
00000100
00000010
00000000
00000000
,
00000001
00000000
00000100
00001000
00000100
00000000
00001000
00000000
00010000
01000000
00010000
00000000
10000000
01000000
00000000
00000000
,
00100000
00000000
00010000
00001000
00010000
00001000
00010000
00000000
00000010
00000000
00000100
00000000
00000001
00001000
00000000
00000000
,
00000100
00000000
00000010
00000001
00000010
00000000
00000100
00000000
00001000
00000000
00000100
00000000
00010000
00001000
00000000
00000000
,
00010000
00000000
01000000
00000000
10000000
00000000
00100000
00000000
00010000
00000000
01000000
10000000
00100000
00010000
00100000
10000000
,
00100000
00000000
00000000
01001000
00000000
00000000
00102000
00000000
00000000
00000000
00013000
00000000
00000100
00000000
00000010
00000000
,
00000001
00000000
00000000
00000110
00000000
00000000
00001200
00000000
00000000
00000000
00000310
00000000
00000001
00000000
00000100
00000000
,
00000010
00000000
00000000
00010100
00000000
00000000
00102000
00000000
00000000
00000000
00013000
00000000
10000000
00000000
01000000
00000000
,
00100000
00000000
01100000
00000000
00001000
00000000
00011000
00000000
00000100
00000010
00000100
00000000
00001000
00000001
00001000
00000100
,
00001000
00000000
00000000
00010100
00000000
00000000
00102000
00000000
00000000
00000000
01003000
00000000
00010000
00000000
10000000
00000000
,
01000000
00000000
00000000
01100000
00000000
00000000
00201000
00000000
00000000
00000000
00310000
00000000
00000010
00000000
00000100
00000000
,
00000001
00000000
00000000
00000110
00000000
00000000
00001200
00000000
00000000
00000000
00010300
00000000
00001000
00000000
00100000
00000000
,
00010000
00000000
11000000
00000000
10000000
00000000
01010000
00000000
00010000
00100000
00010000
00000000
00001000
00010000
00001000
00000010
,
00000100
00000000
00000000
00000101
00000000
00000000
00000021
00000000
00000000
00000000
00000130
00000000
00001000
00000000
00000010
00000000
,
00010000
00000000
00000000
00011000
00000000
00000000
00201000
00000000
00000000
00000000
00310000
00000000
10000000
00000000
01000000
00000000
,
00100000
00000000
00000000
00011000
00000000
00000000
01200000
00000000
00000000
00000000
00301000
00000000
00010000
00000000
00000010
00000000
,
00000100
00000000
00001001
00000000
00000100
00000010
00000100
00000010
00001000
00000000
00001001
00000000
00001000
00000100
00001000
00000000
,
00010000
00000000
00001000
01000000
00001000
00000000
00100000
00010000
00100000
00000000
01000000
10000000
00100000
00000000
00010000
00000000
,
00001000
00010000
00001000
00010000
00000010
00000100
00000010
00000100
00001000
00000100
00001000
00000100
00000010
00000001
00000010
00000001
,
00001000
00000100
00000010
00000001
00001000
00000100
00000010
00000001
00001000
00000100
00010000
00000010
00001000
00000100
00010000
00000100
,
00001000
00010000
00100000
00010000
10000000
01000000
10000000
00010000
01000000
00001000
00010000
00000010
00001000
00010000
00000010
00010000
,
00001000
00000010
00000001
00000010
00000001
00000010
00001000
00000010
00001000
00000100
00000001
00000100
00000001
00000100
00001000
00010000
,
00100000
00010000
10000000
01000000
00010000
01000000
00010000
00001000
00000010
00000100
00001000
00000100
00000001
00000010
00001000
00000100
,
00000010
00010000
00001000
00000100
00000010
00010000
00001000
00000100
00001000
00010000
00100000
01000000
00001000
00010000
00100000
01000000
,
00100000
10000000
00010000
01000000
00100000
10000000
00010000
01000000
10000000
00010000
00100000
01000000
10000000
00010000
00100000
01000000
,
10000000
20000000
01000000
30000000
00010000
00020000
00001000
00030000
,
00000100
00000200
00000010
00000320
00000001
00000032
00001000
00000003
,
00000100
00000200
00001000
00000300
00010000
00020000
00100000
00030000
,
10000000
20000000
01000000
32000000
00100000
03200000
00001000
00300000
,
00010000
00020000
00000010
00030020
00000100
00000230
00000001
00000302
,
00000010
00000023
00000100
00000230
00001000
00002300
00010000
00023000
,
00100000
00230000
01000000
02300000
10000000
23000000
01000000
32000000
,
00100000
03200000
00001000
00302000
00010000
00023000
00000010
00030010
,
00000100
00000000
00000000
00000011
00000000
00000000
00001200
00000000
00000000
00000000
00010300
00000000
00000010
00000000
00000100
00000000
,
00001000
00000000
00000000
00011000
00000000
00000000
01020000
00000000
00000000
00000000
10030000
00000000
00010000
00000000
01000000
00000000
,
00100000
00000000
00000000
01001000
00000000
00000000
00010020
00000000
00000000
00000000
00010030
00000000
00001000
00000000
00000100
00000000
,
00000001
00000000
00000000
00000011
00000000
00000000
00001100
00000000
00010000
00000010
00010000
00000000
00001000
00000100
00001000
00000100
,
00001000
00000000
00000000
00011000
00000000
00000000
00020010
00000000
00000000
00000000
00031000
00000000
00010000
00000000
01000000
00000000
,
00100000
00000000
00000000
11000000
00000000
00000000
02100000
00000000
00000000
00000000
03010000
00000000
00100000
00000000
00001000
00000000
,
00010000
00000000
00000000
00010010
00000000
00000000
00000120
00000000
00000000
00000000
00000031
00000000
00000100
00000000
00000010
00000000
,
00001000
00000000
00000000
00010010
00000000
00000000
01001000
00000000
00100000
01000000
00100000
00000000
10000000
00010000
10000000
00010000
,
10000000
00000000
00000000
11000000
00000000
00000000
00201000
00000000
00000000
00000000
00310000
00000000
00001000
00000000
00000100
00000000
,
00000010
00000000
00000000
00001001
00000000
00000000
00000110
00000000
00001000
00000100
00001000
00000000
00010000
00000010
00010000
00000010
,
00010000
00000000
00000000
00011000
00000000
00000000
01020000
00000000
00000000
00000000
10030000
00000000
01000000
00000000
00100000
00000000
,
00001000
00000000
00011000
00000000
00000100
00000010
00000100
00000010
00000100
00000000
00001001
00000000
00001000
00000000
00011000
00000000
,
00000010
00000000
00000100
00000001
00000000
00001000
00000100
00000000
00000010
00000000
00000100
00000000
00010000
00001000
00010000
00001000
,
00100000
00000000
01000000
10000000
00000000
00010000
01000000
00000000
00010000
00000000
00100000
00000000
00001000
00010000
00001000
00010000
,
00001000
00000000
00000100
00000010
00000100
00000000
00001000
00000000
00000001
00000000
00000100
00000000
00000010
00001000
00000010
00001000
,
00000010
00000100
00000010
00000000
00000100
00001000
00000100
00000000
00010000
00001000
00010000
00000000
02001000
00000000
00001000
00000000
,
03100000
00000000
10000000
01000000
00000000
00100000
00010000
00000000
00001000
00000000
00000100
00000000
00010000
00000010
00010000
00000010
,
00010000
00000100
00010000
00000000
00001000
01000000
00001000
00000000
00010000
00000010
00010000
00000000
00001000
00100000
00001000
00000000
,
00100000
00000000
00010000
10000000
00000000
01000000
00100000
00000000
00001000
00000000
00010000
00000000
00000010
00000100
00000010
00000100
,
00001000
00000000
00011000
00000000
00000100
00000010
00000100
00000000
00010000
00000000
00011000
00000000
01000000
00100000
01000000
00000000
,
10000000
01000000
10000000
01000000
00100000
00010000
00100000
00010000
00001000
00000010
00001000
00000010
00000100
00000001
00000100
00000001
,
00000010
00000000
00000000
00001000
00000100
00000000
00010000
00000000
00001000
00000000
00100000
00000000
00010000
10000000
00000000
00000000
,
01000000
00000000
00100000
00000000
01010000
00000000
00100000
00000000
00001000
00000000
00010000
00000000
00000010
00000100
00000000
00000000
,
00001000
00000000
00000010
00000000
00001100
00000000
00000001
00000000
00000010
00000000
00000100
00000000
00001000
00010000
00000000
00000000
,
00100000
00000000
00010000
00100000
00010000
00000000
10000000
01000000
10000000
00000000
01000000
00000000
00010000
00001000
00000000
00000000
,
00000100
00000000
00000010
00000000
00000001
00000000
00001000
00000000
00000100
00000000
00000010
00000000
00000001
00000100
00000000
00000000
,
00000010
00000000
00001000
00000100
00001000
00000000
00010000
00000010
00010000
00000000
00100000
00000000
00010000
01000000
00000000
00000000
,
10000000
00000000
11000000
00000000
00010000
00000000
00110000
00000000
00001000
00000000
00000100
00000000
00000001
00000010
00000000
00000000
,
00000200
00001000
00020300
00100000
20030000
01000000
30002000
00100000
,
00023000
00000000
00030000
02200000
03300000
00022000
00000000
00033000
,
00000110
00000000
00000000
00000110
00000000
00000000
00000110
00000000
00002002
00000000
00000000
00000000
00000000
00000000
00003003
00000000
,
00000220
00000000
00000330
00000202
00000303
00000220
00000000
00000330
,
00011000
00000000
00000000
00000000
00000000
00000000
00000000
00000000
00000000
00000000
00000000
00000000
00000000
00000000
00000000
00000000
00000000
00000000
00000000
00000000
00000000
00000000
00000000
00000000
00000000
00000000
00000000
00000000
00000000
00000000
00000000
00000000
00000000
00000000
00000000
00000000
00011000
00000000
00000000
00000000
00000000
00000000
00000000
00000000
00000000
00000000
00000000
00000000
00000000
00000000
00000000
00000000
00000000
00000000
00000000
00000000
00000000
00000000
00000000
00000000
00000000
00000000
00000000
00000000
00000000
00000000
00000000
00000000
00000000
00000000
00000000
00000000
00011000
00000000
00000000
00000000
00000000
00000000
00000000
00000000
00000000
00000000
00000000
00000000
00000000
00000000
00000000
00000000
00000000
00000000
00000000
00000000
00000000
00000000
00000000
00000000
02200000
00000000
00000000
00000000
03300000
00000000
00010000
00000000
00000000
00000000
00000000
00000000
00000000
00000000
00000000
00000000
00000000
00000000
00000000
00000000
00000000
00000000
00000000
00000000
00000000
00000000
00000000
00000000
00000000
00000000
00000000
00000000
00000000
00000000
00000000
00000000
00000000
00000000
00000000
00000000
00000000
00000000
00000000
00000000
00000000
00000000
00000000
00000000
00000000
00000000
00000000
00000000
00000000
00000000
00000000
00000000
00000000
00000000
00000000
00000000
00000000
00000000
00000000
00000000
00000000
00000000
00000000
00000000
00000000
00000000
00000000
00000000
00000000
00000000
00000000
00000000
00000000
00000000
00000000
00000000
00000000
00000000
00000000
00000000
00000000
00000000
00000000
00000000
00000000
00000000
00000000
00000000
00000000
00000000
00000000
00000000
;
