#TITLE:beyond the limit;
#SUBTITLE:;
#ARTIST:Syatten;
#TITLETRANSLIT:;
#SUBTITLETRANSLIT:;
#ARTISTTRANSLIT:;
#CREDIT:;
#BANNER:beyond the limit.png;
#BACKGROUND:beyond the limit-bg.png;
#LYRICSPATH:;
#CDTITLE:cdtitle.png;
#MUSIC:beyond the limit.mp3;
#OFFSET:-1.600;
#SAMPLESTART:78.800;
#SAMPLELENGTH:12.000;
#SELECTABLE:YES;
#BPMS:0.000=148.000,126.000=74.000,158.000=148.000;
#STOPS:;
#BGCHANGES:-4.000=beyond the limit.avi=1.000=1=1=0,
322.000=beyond the limit-bg.png=1.000=1=0=1,
99999=-nosongbg-=1.000=0=0=0 // don't automatically add -songbackground-
;

//---------------dance-single - BASIC----------------
#NOTES:
     dance-single:
     BASIC:
     Easy:
     4:
     0.281,0.377,0.276,0.162,0.000: // measure 1
0000
0000
0000
0000
,  // measure 2
0000
0000
0000
0000
,  // measure 3
0000
0000
0000
0000
,  // measure 4
0000
0000
0000
0000
,  // measure 5
1000
0000
0000
0000
,  // measure 6
0001
0000
0000
0000
,  // measure 7
1000
0000
0000
0000
,  // measure 8
0001
0000
0000
0000
,  // measure 9
1000
0010
0010
1000
,  // measure 10
0001
0100
0100
0001
,  // measure 11
1000
0010
0010
1000
,  // measure 12
0001
0100
0100
0001
,  // measure 13
1000
0001
0001
1000
,  // measure 14
0001
1000
1000
0001
,  // measure 15
1000
0100
0100
1000
,  // measure 16
0001
0100
0100
0001
,  // measure 17
2000
3010
0002
0013
,  // measure 18
2000
3010
0002
0013
,  // measure 19
2000
3100
0002
0103
,  // measure 20
2000
3100
0002
0103
,  // measure 21
0020
1030
0200
1300
,  // measure 22
0020
1030
0200
1300
,  // measure 23
0020
0031
0200
0301
,  // measure 24
0020
0031
0200
0301
,  // measure 25
2000
3010
0002
0103
,  // measure 26
2000
3010
0002
0103
,  // measure 27
2000
3100
0002
0013
,  // measure 28
2000
3100
0002
0013
,  // measure 29
0000
1000
0000
1000
,  // measure 30
0000
0001
0000
0001
,  // measure 31
0000
1000
0000
1000
,  // measure 32
0000
0001
0000
0001
,  // measure 33
1000
0000
0010
0000
,  // measure 34
0001
0000
0000
0000
,  // measure 35
0001
0000
0010
0000
,  // measure 36
1000
0000
0000
0000
,  // measure 37
1000
0000
0100
0000
,  // measure 38
0001
0000
0010
0000
,  // measure 39
0001
0000
1000
0000
,  // measure 40
0100
0000
0001
0000
,  // measure 41
1001
0000
1000
0000
,  // measure 42
1010
0000
0001
0000
,  // measure 43
0011
0000
1010
0000
,  // measure 44
0011
0000
1010
0000
,  // measure 45
1001
0000
0001
0000
,  // measure 46
0011
0000
1000
0000
,  // measure 47
1010
0000
0011
0000
,  // measure 48
1010
0000
0011
0000
,  // measure 49
1001
0000
1000
0000
,  // measure 50
1100
0000
0001
0000
,  // measure 51
0101
0000
1100
0000
,  // measure 52
0101
0000
1100
0000
,  // measure 53
1001
0000
0001
0000
,  // measure 54
0101
0000
1000
0000
,  // measure 55
1100
0000
0101
0000
,  // measure 56
1100
0000
0101
0000
,  // measure 57
1000
1000
0010
1000
,  // measure 58
0001
0001
0010
0001
,  // measure 59
1000
0010
1000
0001
,  // measure 60
0100
0001
0100
0100
,  // measure 61
0001
0001
0010
0001
,  // measure 62
1000
1000
0010
1000
,  // measure 63
0001
0010
0001
1000
,  // measure 64
0100
1000
0100
0100
,  // measure 65
1000
1000
0010
1000
,  // measure 66
0001
0001
0010
0001
,  // measure 67
1000
0010
1000
0001
,  // measure 68
0100
0001
0100
0100
,  // measure 69
0001
0001
0010
0001
,  // measure 70
1000
1000
0010
1000
,  // measure 71
0001
0010
0001
1000
,  // measure 72
0100
1000
0100
0100
,  // measure 73
1000
1010
0001
0011
,  // measure 74
1000
1010
0001
0011
,  // measure 75
1000
1100
0001
0101
,  // measure 76
1000
1100
0001
0101
,  // measure 77
1001
0000
1001
0000
,  // measure 78
1001
0000
0011
0000
,  // measure 79
1100
0000
1001
0000
,  // measure 80
1010
0000
0101
0000
,  // measure 81
1001
0000
0000
0000
;

//---------------dance-single - TRICK----------------
#NOTES:
     dance-single:
     TRICK:
     Medium:
     6:
     0.389,0.404,0.229,0.135,0.010: // measure 1
0000
0000
0000
0000
,  // measure 2
0000
0000
0000
0000
,  // measure 3
0000
0000
0000
0000
,  // measure 4
0000
0000
0000
0000
,  // measure 5
2000
0000
3000
0000
,  // measure 6
0002
0000
0003
0000
,  // measure 7
2000
0000
3000
0000
,  // measure 8
0002
0000
0003
0000
,  // measure 9
1010
1000
0010
1000
,  // measure 10
0002
0100
0013
0001
,  // measure 11
2000
0010
3100
1000
,  // measure 12
0002
0010
0103
0001
,  // measure 13
2000
0010
3100
1000
,  // measure 14
0001
1000
0010
0100
,  // measure 15
0001
0100
1000
0010
,  // measure 16
0001
0100
0010
1000
,  // measure 17
1000
0100
0001
0000
0010
0100
1000
0000
,  // measure 18
1000
0010
0001
0000
0100
0001
0010
0000
,  // measure 19
1000
0010
0100
0000
0001
0100
1000
0000
,  // measure 20
1000
0010
0100
0000
0001
0100
1000
0000
,  // measure 21
0010
0100
1000
0000
0010
0100
0001
0000
,  // measure 22
0001
0100
1000
0000
0100
1000
0010
0000
,  // measure 23
0001
0100
1000
0000
0100
0010
1000
0000
,  // measure 24
0010
0001
0100
0000
0100
1000
0010
0000
,  // measure 25
1000
0100
0001
0000
0001
0010
1000
0000
,  // measure 26
0100
0001
0010
0000
0010
1000
0100
0000
,  // measure 27
1000
0100
0001
0000
0100
0001
0010
0000
,  // measure 28
0010
0001
0100
0000
1000
0100
0001
0000
,  // measure 29
2000
3100
0002
0103
,  // measure 30
2000
3100
0002
0103
,  // measure 31
2000
3001
0002
1003
,  // measure 32
1000
0100
0010
0001
0100
0010
1000
0001
,  // measure 33
1000
0000
0100
0000
0010
0100
0001
0010
,  // measure 34
1000
0001
0100
1000
,  // measure 35
0001
0000
0010
0000
1000
0100
0010
1000
,  // measure 36
0001
0000
0100
0000
0010
0000
1000
0001
,  // measure 37
1000
0000
0100
0010
,  // measure 38
0001
0000
0000
0010
0000
0000
0100
0000
1000
0000
0000
0000
0000
0000
0100
0000
,  // measure 39
0001
0010
1000
0001
,  // measure 40
0100
0010
0001
1000
,  // measure 41
1000
0010
0100
0000
1000
0100
0001
0000
,  // measure 42
1000
0000
0010
0100
0001
0000
0010
0000
,  // measure 43
0100
1000
0010
0000
0010
0000
0001
0100
,  // measure 44
1000
0000
1000
0000
0010
0001
0100
0000
,  // measure 45
0001
0010
0100
0000
0001
0100
1000
0000
,  // measure 46
0001
0000
0010
0100
1000
0000
0010
0000
,  // measure 47
0100
0001
0010
0000
0010
0000
1000
0100
,  // measure 48
0001
0000
0001
0000
0010
1000
0100
0000
,  // measure 49
1000
0010
0100
1000
0100
0001
0010
1000
,  // measure 50
0001
0000
0001
0000
,  // measure 51
1000
0000
1000
0000
,  // measure 52
1000
0100
0010
0001
0100
0010
0001
1000
,  // measure 53
0001
0010
0100
0001
0010
1000
0100
0001
,  // measure 54
1000
0000
1000
0000
,  // measure 55
0001
0000
0001
0000
,  // measure 56
1000
0010
0100
0001
0100
1000
0010
0001
,  // measure 57
1000
1010
1000
1010
,  // measure 58
1000
1100
1000
1100
,  // measure 59
1000
0011
0001
1010
,  // measure 60
1000
0011
0001
1010
,  // measure 61
0001
0011
0001
0011
,  // measure 62
0001
0101
0001
0101
,  // measure 63
0001
1010
1000
0011
,  // measure 64
0001
1010
1000
0011
,  // measure 65
1000
1010
1000
1010
,  // measure 66
1000
1100
1000
1100
,  // measure 67
1000
0011
0001
1010
,  // measure 68
1000
0011
0001
1010
,  // measure 69
0001
0011
0001
0011
,  // measure 70
0001
0101
0001
0101
,  // measure 71
0001
1010
1000
0011
,  // measure 72
0001
1010
1000
0011
,  // measure 73
1000
0100
0001
0000
0001
0010
0100
0000
,  // measure 74
0010
1000
0100
0000
1000
0100
0001
0000
,  // measure 75
0001
0010
0100
0000
0010
1000
0100
0000
,  // measure 76
1000
0010
0001
0000
0010
0100
1000
0000
,  // measure 77
2000
0000
3020
0000
,  // measure 78
0032
0000
0203
0000
,  // measure 79
0320
0000
2030
0000
,  // measure 80
3001
0000
0010
0000
0000
1000
0000
0000
0100
0000
0000
0001
0000
0000
1000
0000
,  // measure 81
1001
0000
0000
0000
;

//---------------dance-single - HEAVY----------------
#NOTES:
     dance-single:
     HEAVY:
     Hard:
     9:
     0.571,0.647,0.323,0.337,0.216: // measure 1
0000
0000
0000
0000
,  // measure 2
0000
0000
0000
0000
,  // measure 3
0000
0000
0000
0000
,  // measure 4
0000
0000
0000
0000
,  // measure 5
0000
0000
0000
0000
,  // measure 6
0000
0000
0000
0000
,  // measure 7
0000
0000
0000
0000
,  // measure 8
0000
0000
0000
0000
,  // measure 9
1001
0010
0001
0100
0010
1000
0100
0001
,  // measure 10
1000
0010
0001
0100
0001
0010
1000
0010
,  // measure 11
0001
0100
1000
0010
0001
0010
1000
0100
,  // measure 12
1000
0010
0001
1000
0100
1000
0010
1000
,  // measure 13
0100
1000
0001
0010
0001
0100
1000
0001
,  // measure 14
0100
1000
0010
0100
1000
0010
0100
1000
,  // measure 15
0001
1000
0100
0001
0100
1000
0010
1000
,  // measure 16
0010
1000
0100
0010
0001
0100
0010
1000
,  // measure 17
0001
0100
0101
0000
1000
0100
1100
0000
,  // measure 18
0001
0100
0101
0000
1000
0100
1100
0000
,  // measure 19
0001
0100
0101
0000
1000
0100
1100
0000
,  // measure 20
0001
0100
0101
0000
1000
0100
1100
0000
,  // measure 21
1000
0100
0011
0000
0001
0100
1010
0000
,  // measure 22
1000
0100
0011
0000
0001
0100
1010
0000
,  // measure 23
1000
0100
0011
0000
0001
0100
1010
0000
,  // measure 24
0010
0001
0100
1000
0010
0001
1000
0010
,  // measure 25
0001
0100
0001
0010
0001
0010
1000
0000
,  // measure 26
0100
0001
0010
0100
0010
1000
0100
0000
,  // measure 27
1000
0100
0001
0010
0100
0001
1000
0000
,  // measure 28
0010
0001
1000
0100
0001
0010
1000
0000
,  // measure 29
1020
0130
0021
0130
,  // measure 30
1020
0130
0021
0130
,  // measure 31
1020
0130
0021
0130
,  // measure 32
1000
0010
0001
1000
0010
0101
0010
1010
,  // measure 33
1001
0000
0000
0100
0000
0000
0010
0000
0001
0000
0100
0000
0001
0000
0010
0000
,  // measure 34
1000
0000
0000
0001
0000
0000
0000
0000
0000
0000
0000
0000
0000
0000
0001
0100
,  // measure 35
1000
0000
0000
0010
0000
0000
1000
0000
0100
0000
0000
0010
0000
0000
0001
0000
,  // measure 36
0100
0000
0000
1000
0000
0000
0010
0000
0000
0000
0000
0000
0000
0010
0001
0100
,  // measure 37
1000
0000
1000
0100
,  // measure 38
0001
0000
0000
0010
0000
0000
0100
0000
1000
0000
0000
0000
0000
0100
0001
0010
,  // measure 39
1000
0000
0000
0000
0000
0000
0000
0000
0010
0000
0000
0001
0000
0000
0100
0000
,  // measure 40
1000
0000
0010
1002
,  // measure 41
1003
0100
0000
0100
0000
0000
0001
0000
1000
0000
0000
0100
0000
0000
0001
0000
,  // measure 42
1000
0000
0000
0010
0000
0000
0100
0000
0001
0000
0000
0001
0000
0000
0001
0000
,  // measure 43
1000
0000
0000
1000
0000
0000
1000
0000
0001
0000
0000
0001
0000
0000
0001
0000
,  // measure 44
1000
0000
0000
1000
0000
0000
1000
0000
0001
0000
0000
0100
0000
0000
1000
0000
,  // measure 45
0001
0100
0000
0100
0000
0000
1000
0000
0001
0000
0000
0100
0000
0000
1000
0000
,  // measure 46
0001
0000
0000
0010
0000
0000
0100
0000
1000
0000
0000
1000
0000
0000
1000
0000
,  // measure 47
0001
0000
0000
0001
0000
0000
0001
0000
1000
0000
0000
1000
0000
0000
1000
0000
,  // measure 48
0001
0000
0000
0001
0000
0000
0001
0000
1000
0000
0000
1000
0000
0000
1000
0000
,  // measure 49
0001
0011
1000
1100
0100
0001
0010
1000
,  // measure 50
0001
0000
0000
0001
0000
0000
0001
0000
1000
0000
0000
1000
0000
0000
1000
0000
,  // measure 51
0001
0000
0000
0001
0000
0000
0001
0000
1000
0000
0000
1000
0000
0000
1000
0000
,  // measure 52
0001
0000
0000
0001
0000
0000
0001
0000
1000
0000
0000
1000
0000
0000
1000
0000
,  // measure 53
0001
0011
1000
1010
0010
1000
0100
0001
,  // measure 54
1100
0000
0000
1000
0000
0000
0100
0000
0001
0000
0000
0001
0000
0000
0100
0000
,  // measure 55
0101
0000
0000
0001
0000
0000
0100
0000
1100
0000
0000
1000
0000
0000
0100
0000
,  // measure 56
1001
0000
0001
0000
0100
0000
1000
0000
0110
0000
0000
1001
0000
0000
0110
0000
,  // measure 57
0002
0010
0013
0100
2000
0001
3100
1000
,  // measure 58
0020
0100
0031
0010
2000
0001
3100
0010
,  // measure 59
0200
0010
1300
0001
0020
0100
0130
1000
,  // measure 60
0002
0010
0013
0001
2000
0100
3001
0010
,  // measure 61
0002
1000
0103
0010
2000
0001
3100
0010
,  // measure 62
0200
0010
1300
0001
2000
0100
3001
0010
,  // measure 63
0200
0010
1300
0001
2000
0100
3100
1000
,  // measure 64
0002
0010
0013
0001
0020
0100
0031
1000
,  // measure 65
0002
0010
0013
0100
2000
0100
3001
1000
,  // measure 66
0020
0100
0031
1000
0020
0100
1030
0001
,  // measure 67
0200
0010
1300
0100
0020
0100
0130
0010
,  // measure 68
2000
0001
3010
0100
2000
0100
3001
1000
,  // measure 69
0200
0010
0301
0100
0020
1000
0130
0010
,  // measure 70
0200
0010
1300
0100
0002
0010
1003
0010
,  // measure 71
0200
0010
1300
0100
0020
0001
0130
1000
,  // measure 72
0200
0000
0001
0000
0310
0000
1000
0000
0110
0000
0000
1001
0000
0000
0110
0000
,  // measure 73
1000
0100
0010
0000
0001
0010
0000
0010
0100
0000
0100
1000
0000
1000
0001
0000
,  // measure 74
0001
0010
0100
0000
1000
0100
0000
0100
0010
0000
0010
0001
0000
0001
1000
0000
,  // measure 75
1000
0010
0100
0000
0001
0010
0000
0010
0100
0000
0100
1000
0000
1000
0001
0000
,  // measure 76
0001
0100
0010
0000
1000
0010
0000
0010
0100
0000
0100
0001
0000
0001
1000
0000
,  // measure 77
2100
0000
3002
0000
0023
0030
0102
0000
,  // measure 78
2003
0000
3020
0030
0002
0000
0023
0000
,  // measure 79
2030
0000
3002
0000
0203
0000
2300
3000
,  // measure 80
1001
0000
0110
0000
0000
1100
0000
0000
0101
0000
0000
0011
0000
0000
1010
0000
,  // measure 81
1001
0000
0000
0000
;

//---------------dance-single - ONI----------------
#NOTES:
     dance-single:
     ONI:
     Challenge:
     11:
     0.910,1.000,1.000,1.000,1.000: // measure 1
0000
0000
0000
0000
,  // measure 2
0000
0000
0000
0000
,  // measure 3
0000
0000
0000
0000
,  // measure 4
0000
0000
0000
0000
,  // measure 5
0000
0000
0000
0000
,  // measure 6
0000
0000
0000
0000
,  // measure 7
0000
0000
0000
0000
,  // measure 8
0000
0000
0000
0000
,  // measure 9
1000
0100
0010
0000
0001
0010
0000
0010
0100
0000
0100
1000
0000
1000
0001
0000
,  // measure 10
0001
0010
0100
0000
1000
0100
0000
0100
0010
0000
0010
0001
0000
0001
1000
0000
,  // measure 11
1000
0010
0100
0000
0001
0010
0000
0010
0100
0000
0100
1000
0000
1000
0001
0000
,  // measure 12
0001
0100
0010
0000
1000
0010
0000
0010
0100
0000
0100
0001
0000
0001
1000
0000
,  // measure 13
0001
0010
0100
0000
1000
0100
0000
0100
0010
0000
0010
0001
0000
0001
1000
0000
,  // measure 14
1000
0100
0010
0000
0001
0010
0000
0010
0100
0000
0100
1000
0000
1000
0001
0000
,  // measure 15
0001
0100
0010
0000
1000
0100
0000
0100
0010
0000
0010
0001
0000
0001
1000
0000
,  // measure 16
1000
0010
0100
0000
0001
0100
0000
0100
0010
0000
0010
1000
0000
1000
0001
0000
,  // measure 17
1000
0100
0101
0001
1000
0100
1100
1000
,  // measure 18
0001
0100
0101
0010
1000
0100
1100
0010
,  // measure 19
0001
0100
0101
0100
1000
0100
1100
0100
,  // measure 20
0001
0100
0101
0001
1000
0100
1100
0001
,  // measure 21
1000
0100
0011
0010
0001
0100
1010
0010
,  // measure 22
1000
0100
0011
0100
0001
0100
1010
0100
,  // measure 23
1000
0100
0011
1000
0001
0100
1010
1000
,  // measure 24
0010
0001
0101
1000
0010
0001
1001
0110
,  // measure 25
0001
1000
0011
0010
0001
0010
1001
1000
,  // measure 26
0100
1000
1001
0010
0001
0010
1001
0100
,  // measure 27
1000
0100
1001
0010
0100
0001
1001
0010
,  // measure 28
0100
1000
1001
0010
0110
0100
1001
0001
,  // measure 29
1000
0100
0010
0000
0001
0010
0000
0010
0100
0000
0100
1000
0000
1000
0001
0000
,  // measure 30
0001
0010
0100
0000
1000
0100
0000
0100
0010
0000
0001
1000
0000
1000
0100
1000
,  // measure 31
0100
0010
0001
0010
0001
0010
0001
0010
0100
1000
0100
1000
0100
1000
0001
0010
,  // measure 32
0001
0100
0010
1000
0100
0010
0100
1000
0010
0100
0001
0010
0001
1000
0001
1000
,  // measure 33
2MM2
0MM0
0MM0
0MM0
0MM0
0MM0
0MM0
0MM0
0MM3
00M0
00M0
00M0
02MM
00MM
00MM
00MM
00MM
00MM
00MM
00MM
30MM
000M
000M
000M
M02M
M00M
M00M
M00M
M30M
M000
M000
M000
MM02
MM00
MM00
MM00
MM30
0M00
0M00
0M00
2MM0
0MM0
0MM0
0MM0
0MM3
00M0
00M0
00M0
02MM
00MM
00MM
00MM
30MM
00M0
00M0
00M0
M0M2
M0M0
M0M0
M0M0
M3M0
00M0
00M0
00M0
,  // measure 34
2MM0
0MM0
0MM0
0MM0
0MM3
0MM0
0MM0
0MM0
0MMM
0MM0
0MM0
0MM0
0MM2
0MM0
0MM0
0MM0
0MM0
0MM0
0MM0
0MM0
0MM0
0MM0
0MM0
0MM0
0MM0
0MM0
0MM0
0MM0
0MM0
0MM0
0MM0
0MM0
0MM0
0MM0
0MM0
0MM0
0MM0
0MM0
0MM0
0MM0
0MM0
0MM0
0MM0
0MM0
0MM0
0MM0
0MM0
0MM0
0MM3
0MM0
0MM0
0MM0
0MMM
0MM0
0MM0
0MM0
3MM2
00M0
00M0
00M0
M2M3
00M0
00M0
00M0
,  // measure 35
20MM
00MM
00MM
00MM
03MM
00MM
00MM
00MM
0MMM
0M0M
0M0M
0M0M
0M2M
0M0M
0M0M
0M0M
0M0M
0M0M
0M0M
0M0M
3M0M
0M00
0M00
0M00
MM02
MM00
MM00
MM00
MM30
M000
M000
M000
M2M0
M0M0
M0M0
M0M0
M0M0
M0M0
M0M0
M0M0
M0M3
00M0
00M0
00M0
20MM
00MM
00MM
00MM
00MM
00MM
00MM
00MM
03MM
00M0
00M0
00M0
3MM2
0MM0
0MM0
0MM0
MMM0
M0M0
M0M0
M0M0
,  // measure 36
M2M0
M0M0
M0M0
M0M0
M0M3
M0M0
M0M0
M0M0
M0MM
00MM
00MM
00MM
20MM
00MM
00MM
00MM
00MM
00MM
00MM
00MM
03MM
000M
000M
000M
0M2M
0M0M
0M0M
0M0M
0M0M
0M0M
0M0M
0M0M
0M0M
0M0M
0M0M
0M0M
0M0M
0M0M
0M0M
0M0M
0M0M
0M0M
0M0M
0M0M
0M3M
0M0M
0M0M
0M0M
0MMM
0M0M
0M0M
0M0M
3M2M
0M00
0M00
0M00
MM02
M000
M030
M000
M200
0000
00M3
00M0
,  // measure 37
20M0
00MM
00MM
00MM
00MM
00MM
00MM
00MM
00MM
00MM
00MM
00MM
00MM
00MM
00MM
00MM
00MM
00MM
00MM
00MM
00MM
00MM
00MM
00MM
30MM
00MM
00MM
00MM
M0MM
00MM
00MM
00MM
20MM
00MM
00MM
00MM
00MM
00MM
00MM
00MM
03MM
00MM
00MM
00MM
0MMM
00MM
00MM
00MM
02MM
00MM
00MM
00MM
00MM
00MM
00MM
00MM
00MM
00MM
00MM
00MM
30MM
00M0
00M0
00M0
,  // measure 38
M0M2
M0M0
M0M0
M0M0
M0M0
M0M0
M0M0
M0M0
M3M0
M000
M000
M000
MM20
MM00
MM00
MM00
MM00
MM00
MM00
MM00
MM03
M000
M000
M000
M20M
M00M
M00M
M00M
M03M
000M
000M
000M
20MM
00MM
00MM
00MM
00MM
00MM
00MM
00MM
00MM
00MM
00MM
00MM
03MM
00MM
00MM
00MM
0MMM
00MM
00MM
00MM
32MM
00M0
00M0
00M0
M0M2
M000
M300
M000
M020
0000
0003
0M00
,  // measure 39
2M00
0M00
0M00
0M0M
0M0M
0M0M
0M0M
0M0M
0M0M
0M0M
0M0M
0M0M
0M0M
0M0M
0M0M
0M0M
0M0M
0M0M
0M0M
0M0M
0M0M
0M0M
0M0M
0M0M
0M3M
0M0M
0M0M
0M0M
0MMM
0M0M
0M0M
0M0M
0M2M
0M0M
0M0M
0M0M
0M0M
0M0M
0M0M
0M0M
3M0M
0M00
0M00
0M00
MM02
MM00
MM00
MM00
MM00
MM00
MM00
MM00
MM30
M000
M000
M000
M2M0
M0M0
M0M0
M0M0
M0M3
00M0
00M0
00M0
,  // measure 40
20MM
00MM
00MM
00MM
00MM
00MM
00MM
00MM
00MM
00MM
00MM
00MM
00MM
00MM
00MM
00MM
00MM
00MM
00MM
00MM
00MM
00MM
00MM
00MM
00MM
00MM
00MM
00MM
03MM
000M
0M0M
0M0M
0M2M
0M0M
0M0M
0M0M
0M0M
0M0M
0M0M
0M0M
0M0M
0M0M
0M0M
0M0M
3M3M
0000
0000
0000
2MM2
0MM0
0MM0
0MM0
0MM0
0MM0
0M00
0M00
3M00
0M00
0M00
0M00
MM00
0M00
0000
0000
,  // measure 41
1003
0010
0000
0100
0000
0000
1010
0000
0011
0000
0000
0101
0000
0000
0011
0000
,  // measure 42
1100
0000
0000
1010
0000
0000
0101
0000
1001
0000
0000
0011
0000
0000
1100
0000
,  // measure 43
1001
0000
0000
1010
0000
0000
0101
0000
1001
0000
0000
0011
0000
0000
1100
0000
,  // measure 44
1001
0000
0000
1010
0000
0000
0101
0000
1001
0000
0000
0011
0000
0000
1100
0000
,  // measure 45
1000
0010
0000
0100
0000
0000
1010
0000
0011
0000
0000
1100
0000
0000
1010
0000
,  // measure 46
0101
0000
0000
0011
0000
0000
0101
0000
1001
0000
0000
0011
0000
0000
0101
0000
,  // measure 47
1001
0000
0000
1010
0000
0000
1100
0000
1001
0000
0000
1010
0000
0000
0101
0000
,  // measure 48
1001
0000
0000
0011
0000
0000
1100
0000
1001
0000
0000
0110
0000
0000
1001
0000
,  // measure 49
0001
0010
0000
0100
0000
0000
0011
0000
1010
0000
0100
0001
0000
0000
0011
0000
,  // measure 50
1100
0000
1000
0010
0000
0000
0101
0000
1001
0000
0001
0010
0000
0000
1100
0000
,  // measure 51
1001
0000
1000
0010
0000
0000
0101
0000
1001
0000
0001
0010
0000
0000
1100
0000
,  // measure 52
1001
0000
1000
0010
0000
0000
0101
0000
1001
0000
0010
0100
0000
0000
1001
0000
,  // measure 53
0001
0010
0000
0100
0000
0100
1000
0000
1000
0100
0000
0010
0001
0000
0101
0000
,  // measure 54
0001
0100
0000
0010
1000
0000
1100
0000
1001
0000
1000
0010
0000
0000
0101
0000
,  // measure 55
1001
0000
0001
0010
0000
0100
1000
0000
1001
0000
1000
0010
0000
0100
0001
0000
,  // measure 56
1001
0000
0001
0010
0000
0100
1000
0000
2002
0000
3003
0220
0000
0330
2002
3003
,  // measure 57
2001
0010
3020
0100
0230
0010
2300
0100
,  // measure 58
3020
0001
2030
0010
3200
0001
0320
0001
,  // measure 59
0230
0000
0010
0000
0320
0000
0001
0030
2000
0000
0100
3000
0002
0000
1000
0003
,  // measure 60
0020
0000
0001
0030
2000
0000
0100
3000
0002
0000
1000
0003
0020
0000
0001
0030
,  // measure 61
2000
0000
0100
3000
0200
0000
0010
0300
2000
0000
0001
0000
3200
0000
0010
0000
,  // measure 62
2300
0000
0100
0000
3002
0000
0010
0003
2000
0000
0001
3000
0002
0000
0010
0003
,  // measure 63
2000
0000
0001
3000
0200
0000
1000
0300
0002
0000
0010
0003
2000
0000
0001
3000
,  // measure 64
0200
0000
1000
0300
0002
0000
0010
0003
2000
0000
0001
3000
0002
0000
0100
0003
,  // measure 65
2000
0010
0000
3200
0000
0300
0011
0000
2020
0000
3030
0202
0000
0303
0011
0000
,  // measure 66
2200
0000
3300
2020
0000
3030
0101
0000
2002
0000
3003
0022
0000
0033
1100
0000
,  // measure 67
2002
0000
3003
2020
0000
3030
0101
0000
2002
0000
3003
0022
0000
0033
1100
0000
,  // measure 68
2002
0000
3003
2020
0000
3030
0101
0000
2002
0000
3003
0220
0000
0330
2002
0003
,  // measure 69
3002
0010
0000
0203
0000
0300
1010
0000
0022
0000
0033
2200
0000
3300
1010
0000
,  // measure 70
0202
0000
0303
0022
0000
0033
1100
0000
2002
0000
3003
2020
0000
3030
0101
0000
,  // measure 71
2002
0000
3003
0022
0000
0033
1100
0000
2002
0000
3003
2020
0000
3030
0101
0000
,  // measure 72
2002
0000
3003
0022
0000
0033
1100
0000
2002
0000
3003
0220
0000
0330
2002
3000
,  // measure 73
2003
0100
3020
0000
0032
0010
0000
0023
0100
0000
0230
1000
0000
2300
0001
0000
,  // measure 74
3002
0010
0200
0003
2300
0100
0000
3200
0010
0000
0320
0001
0000
0032
1000
0000
,  // measure 75
2003
0010
3200
0000
0302
0010
0000
0023
0100
0000
0230
1000
0000
2300
0001
0000
,  // measure 76
3002
0100
0020
0003
2030
0010
0000
3020
0100
0000
0230
0001
0000
0302
2000
0003
,  // measure 77
3002
0010
0203
0000
2300
0100
0000
3200
0010
0000
0320
0001
0000
0032
1000
0000
,  // measure 78
2003
0100
3020
0000
0032
0010
0000
0023
0100
0000
0130
1000
0000
2000
0001
0000
,  // measure 79
3002
0100
0023
0000
2030
0100
0000
3200
0010
0000
0320
0001
0000
0032
1000
0003
,  // measure 80
2002
3003
2020
0000
3030
0022
0000
0033
0202
0000
0303
2200
0000
3300
0220
0330
,  // measure 81
2002
0000
3003
0000
;

//---------------dance-double - ----------------
#NOTES:
     dance-double:
     :
     Hard:
     8:
     0.478,0.485,0.202,0.115,0.148:
00000000
00000000
00000000
00000000
,
00000000
00000000
00000000
00000000
,
00000000
00000000
00000000
00000000
,
00000000
00000000
00000000
00000000
,
00000000
00000000
00000000
00000000
,
00000000
00000000
00000000
00000000
,
00000000
00000000
00000000
00000000
,
00000000
00000000
00000000
00000000
,
00010000
00001000
00000100
00000010
00001000
00000100
00000010
00000001
,
00000000
00000010
00001000
00000001
00000010
00000100
00010000
00001000
,
00010000
01000000
00100000
00010000
10000000
01000000
00100000
00010000
,
00001000
00010000
00001000
00100000
01000000
10000000
01000000
00100000
,
00001000
00010000
00000010
00010000
00001000
00100000
01000000
00010000
,
00001000
00000100
00000010
00001000
00000001
00000010
00000100
00000010
,
00000101
00000000
00000010
00010000
00000100
00001000
00000010
00001000
,
00000100
00010000
00001000
00100000
00010000
00100000
00001000
00010000
,
01000000
10000000
01000000
00100000
00010000
00100000
00001000
00010000
,
00000010
00010000
00001000
00000100
00000001
00000010
00000100
00001000
,
00000010
00000100
00000001
00000010
00000100
00010000
00000010
00000100
,
00001000
00010000
00001000
00100000
01000000
00010000
00001000
00010000
,
01000000
10000000
01000000
00100000
00001000
00100000
01000000
00010000
,
00001000
00010000
00000010
00000100
00001000
00000100
00000001
00000010
,
00000100
00010000
00000010
00000100
00001000
00010000
01000000
00100000
,
00001000
00010000
01000000
10000000
00010000
00100000
01000000
00100000
,
00001000
00010000
00000010
00010000
00000010
00000100
00000001
00000010
,
00000001
00000010
00000100
00001000
00000010
00000100
00000001
00000010
,
00000100
00010000
00000010
00000100
00001000
00010000
01000000
00100000
,
00001000
00100000
01000000
10000000
00010000
00100000
01000000
00100000
,
00001000
00010000
00000010
00010000
00001000
00000100
00000001
00000000
,
00000010
00000100
00001000
00000010
00010000
00001000
00100000
00000000
,
01000000
10000000
00010000
00100000
01000000
00001000
00010000
00000010
,
00000100
00000001
00000010
00000100
00001000
00000001
00000100
00000010
,
00020000
00000000
00000000
00000100
00000000
00000000
00000010
00000000
00032000
00000000
00000100
00000000
00000001
00000000
00003100
00000000
,
00020000
00000000
00000000
00200000
00000000
00000000
00000000
00000000
00000000
00000000
00000000
00000000
00330000
00000000
10000000
01000000
,
00020000
00000000
00000000
00001000
00000000
00000000
00030010
00000000
00000200
00000000
00000000
00001000
00000000
00000000
00000310
00000000
,
00002000
00000000
00000000
00010000
00000000
00000000
00203000
00000000
00000000
00000000
00000000
00000000
00300000
01000000
10000000
00010000
,
02000000
00000000
03200000
00302000
,
00003200
00000000
00000000
00000001
00000000
00000000
00000310
00000000
00000200
00000000
00000000
00000000
00000300
00010000
00001000
01000000
,
00200000
00000000
00000000
00000000
00000000
00000000
00000000
00000000
20300000
00000000
00000000
01000000
00000000
00000000
30100000
00000000
,
00020000
00000000
00030200
00000301
,
00000001
00000000
00000000
00000100
00000000
00000000
00001000
00000000
00000100
00000000
00000000
00001000
00000000
00000000
00000010
00000000
,
00010000
00000000
00000000
00000010
00000000
00000000
00001000
00000000
00010000
00000000
00000000
00001000
00000000
00000000
00010000
00000000
,
01000000
00000000
00000000
00100000
00000000
00000000
01000000
00000000
00100000
00000000
00000000
01000000
00000000
00000000
00100000
00000000
,
00010000
00000000
00000000
10000000
00000000
00000000
01000000
00000000
00100000
00000000
00000000
00001000
00000000
00000000
00010000
00000000
,
00000010
00000000
00000000
00000100
00000000
00000000
00000001
00000000
00000010
00000000
00000000
00000100
00000000
00000000
00001000
00000000
,
00000010
00000000
00000000
00010000
00000000
00000000
00001000
00000000
00100000
00000000
00000000
00010000
00000000
00000000
10000000
00000000
,
01000000
00000000
00000000
00100000
00000000
00000000
01000000
00000000
00100000
00000000
00000000
00001000
00000000
00000000
00010000
00000000
,
00000010
00000000
00000000
00000100
00000000
00000000
00000010
00000000
00001000
00000000
00000000
00000001
00000000
00000000
00000010
00000000
,
00000100
00000000
00010000
00000000
00000010
00000000
00000000
00000000
00000100
00000000
00000000
00001000
00000000
00000000
00010000
00000000
,
00100000
00000000
00000000
10000000
00000000
00000000
01000000
00000000
00010000
00000000
00000000
00001000
00000000
00000000
00000100
00000000
,
00000001
00000000
00000000
00000010
00000000
00000000
00000001
00000000
00000010
00000000
00000000
00001000
00000000
00000000
00000010
00000000
,
00001000
00000000
00000000
00010000
00000000
00000000
00001000
00000000
00010000
00000000
00000000
00100000
00000000
00000000
10000000
00000000
,
01000000
00000000
00000000
00100000
00000000
00000000
00001000
00000000
00010000
00000000
00000000
00000010
00000000
00000000
00000100
00000000
,
00000001
00000000
00000000
00000010
00000000
00000000
00000100
00000000
00010000
00000000
00000000
00000010
00000000
00000000
00000100
00000000
,
00001000
00000000
00000000
00010000
00000000
00000000
00001000
00000000
00010000
00000000
00000000
00100000
00000000
00000000
00010000
00000000
,
00100000
00000000
00000000
10000000
00000000
00000000
01000000
00000000
00010000
00000000
00000000
00001000
00000000
00000000
00000100
00000000
,
00000010
00000000
00000101
00000000
00001000
00000001
00000100
00000000
,
00000010
00010000
00001000
00000000
00100000
00010000
00100000
00000000
,
10000000
00000000
01100000
00000000
00100000
00001000
00010000
00000000
,
00000010
00000100
00000010
00000000
00001001
00000000
00000110
00000000
,
00001000
00000100
00000110
00000000
00000001
00000000
00000101
00000000
,
00000010
00010000
00011000
00000000
00100000
00000000
00110000
00000000
,
10000000
01000000
01100000
00000000
00100000
00000000
00011000
00000000
,
00000010
00000000
00011000
00000000
00000010
00000100
00000011
00000000
,
00000100
00000000
00001010
00000000
00000100
00000000
00000001
00000010
,
00001100
00010000
00001000
00101000
,
00010000
10000000
11000000
00000000
00100000
00000000
00011000
00000000
,
00010010
00000000
00000100
00000000
00000001
00000000
00001000
00000100
,
00000010
00000000
00000101
00000000
00000010
00000000
00000101
00000010
,
00000100
00000000
00001100
00000000
00010000
00001000
00101000
00000000
,
00010000
00001000
01000000
00000000
00100000
00010000
10000000
00000000
,
01000000
00100000
00001000
00010000
00000010
00000100
00000001
00000000
,
00000001
00000011
00000100
00010100
,
00000010
00000000
00000110
00000000
00010000
00001000
01000000
00000000
,
00100000
10010000
01000000
01100000
,
00001000
00000000
00011000
00000000
00000010
00000100
00000001
00000000
,
00001000
00000100
00000001
00000000
00000100
00001000
00000010
00000000
,
00010000
00001000
01000000
00000000
00001000
00010000
00100000
00000000
,
10000000
01000000
00010000
00000000
00001000
00010000
00100000
00000000
,
00010000
00000000
00001000
00000000
00000100
00000000
00000000
00000000
00000010
00000000
00000000
00000100
00000000
00000000
00000001
00000000
,
00001100
00000000
00000000
00000000
;

//---------------dance-double - ----------------
#NOTES:
     dance-double:
     :
     Medium:
     5:
     0.348,0.377,0.478,0.101,0.000:
00000000
00000000
00000000
00000000
,
00000000
00000000
00000000
00000000
,
00000000
00000000
00000000
00000000
,
00000000
00000000
00000000
00000000
,
00000000
00000000
00000000
00000000
,
00000000
00000000
00000000
00000000
,
00000000
00000000
00000000
00000000
,
00000000
00000000
00000000
00000000
,
10000000
00100000
01000000
10000000
,
00010000
00100000
01000000
00010000
,
00001000
00000100
00000010
00001000
,
00000001
00000100
00000010
00000001
,
00000100
00000001
00001000
00000010
,
00000100
00001000
00010000
00100000
,
01000000
10000000
00010000
00100000
,
01000000
00010000
00001000
00000010
,
00000001
00000101
00001000
00001100
,
00000010
00000110
00010000
00011000
,
01000000
11000000
00010000
00110000
,
01000000
00000000
01100000
00000000
10000000
00010000
01100000
00000000
,
00100000
00101000
00010000
00011000
,
00000010
00001010
00010000
00011000
,
00001000
00001100
00000001
00000101
,
00001000
00000000
00000110
00000000
00000001
00000010
00001100
00000000
,
00010000
00011000
00000010
00000110
,
00010000
00011000
01000000
01100000
,
00010000
01010000
10000000
11000000
,
00100000
00000000
00101000
00000000
00010000
00001000
00001100
00000000
,
00000010
00001010
00000000
00001100
,
00000000
00000011
00000000
00000011
,
00000000
00011000
00000000
00110000
,
10000000
11000000
00100000
01100000
,
00002000
00000000
00003020
00000032
,
00000203
00000000
00000000
00000000
00000000
00000000
00000000
00010300
,
00002000
00000000
00203000
00000000
,
02300000
00000000
00000000
00000000
03000000
00000000
00000000
20000000
,
00000000
00000000
30200000
00000000
,
00320000
00000000
00032000
00000000
,
00003200
00000000
00000320
00000000
,
00000032
00000000
00002000
00003003
,
00001000
00001100
00010000
00001000
,
00010000
01010000
00001000
00010000
,
00100000
01100000
10000000
10010000
,
01000000
01010000
00010000
00011000
,
00001000
00001100
00000100
00000010
,
00000001
00000101
00000001
00000010
,
00000100
00001100
00000100
00010100
,
00001000
00001010
00000010
00000100
,
00010000
00000000
00011000
00000000
00100000
00000000
00010000
01000000
,
10000000
00000000
00100000
00000000
01000000
00000000
00001000
00010000
,
00000010
00000000
00000100
00000000
00000001
00000000
00000010
00000100
,
00010000
00000000
00001000
00000000
00100000
00000000
01000000
10000000
,
00100000
00000000
00011000
00000000
00000010
00000000
00000100
00000001
,
00000010
00000000
00011000
00000000
00100000
00000000
01000000
10000000
,
00110000
00000000
11000000
00000000
,
01100000
00001000
00010000
00000010
,
00000100
00000101
00001000
00000100
,
00000010
00010010
00001000
00100000
,
00010000
11000000
00100000
01010000
,
00001000
00011000
00000100
00000010
,
00000001
00001100
00000010
00010000
,
00000100
00000011
00000100
00010000
,
00001000
00101000
00010000
11000000
,
00010000
01100000
10000000
01000000
,
00010000
00011000
00000100
00000010
,
00001000
00001100
00000010
00000001
,
00000100
00010010
00001000
00101000
,
00010000
01100000
00010000
10000000
,
01000000
00101000
00010000
01000000
,
10000000
01100000
00010000
00001000
,
00000100
00001010
00000001
00000110
,
00001000
00010010
00001000
00110000
,
10000000
01000000
00100000
00001000
,
00010000
00000100
00000010
00000001
,
00000001
00000100
00000010
00010000
,
00001000
01000000
00100000
10000000
,
01000000
00100000
00001000
00010000
,
00000100
00000010
00000001
00001000
,
00000100
00000010
00010000
00001000
,
01000000
00100000
00010000
10000000
,
01100000
00000000
00000000
00000000
;

//---------------dance-double - ----------------
#NOTES:
     dance-double:
     :
     Easy:
     3:
     0.203,0.243,0.297,0.000,0.000:
00000000
00000000
00000000
00000000
,
00000000
00000000
00000000
00000000
,
00000000
00000000
00000000
00000000
,
00000000
00000000
00000000
00000000
,
00000000
00000000
00000000
00000000
,
00000000
00000000
00000000
00000000
,
00000000
00000000
00000000
00000000
,
00000000
00000000
00000000
00000000
,
00000000
00100000
00000000
00100000
,
00000000
00001000
00000000
00001000
,
00000000
00010000
00000000
00010000
,
00000000
00000010
00000000
00000010
,
00000000
00000001
00000000
00000001
,
00000000
00001000
00000000
00001000
,
00000000
00000100
00000000
00000100
,
00000000
00010000
00000000
00010000
,
00001000
00101000
00000000
00101000
,
00000000
11000000
00000000
11000000
,
00000000
00110000
00000000
00110000
,
00000000
00010100
00000000
00010100
,
00000000
00001001
00000000
00001001
,
00000000
00000110
00000000
00000110
,
00000000
00010100
00000000
00010100
,
00000000
01001000
00000000
01001000
,
00100000
01100000
00000000
01100000
,
00000000
11000000
00000000
11000000
,
00000000
10010000
00000000
10010000
,
00000000
01010000
00000000
01010000
,
00000000
00011000
00000000
00011000
,
00000000
00001100
00000000
00001100
,
00000000
00000011
00000000
00000011
,
00000000
00000110
00000000
00000110
,
00001000
00000000
00010000
00000000
,
00100000
00000000
00000000
00000000
,
00010000
00000000
10000000
00000000
,
00100000
00000000
00000000
00000000
,
01000000
00000000
00001000
00000000
,
00000001
00000000
00000010
00000000
,
00000100
00000000
00010000
00000000
,
00001000
00000000
00100000
00000000
,
01000000
10000000
00000000
00010000
,
00000000
01000000
00000000
00100000
,
00001000
00010000
00000000
00000100
,
00000000
00000010
00000000
00000001
,
00001000
00000100
00000000
00000010
,
00000000
00001000
00000000
00010000
,
00000000
00100000
00000000
00010000
,
00000000
10000000
00000000
01000000
,
00000000
00010000
00000000
00100000
,
00000000
00001000
00000000
00010000
,
00000000
00000100
00000000
00000010
,
00000000
00001000
00000000
00000001
,
00000100
00010000
00000000
00001000
,
00000000
00100000
00000000
01000000
,
00000000
10000000
00000000
01000000
,
00000000
00100000
00001000
00010000
,
00001000
00001100
00000000
00000110
,
00000001
00000010
00000000
00000100
,
00010000
00001000
00000000
00100000
,
00000000
00110000
00000000
11000000
,
10000000
01000000
00000000
00100000
,
00000000
00001000
00010000
00011000
,
00000000
00000100
00000000
00001100
,
00000000
00000001
00000100
00000110
,
00000000
00010000
00000000
00001000
,
00000000
00100000
11000000
01000000
,
00000000
00010000
00000000
00100000
,
00000000
00001000
00000000
00011000
,
00001000
00001000
00000000
00000100
,
00000000
00000110
00000000
00000001
,
00000000
00001000
00000000
00001100
,
00000000
00010000
00001000
00100000
,
00000000
01000000
10000000
00100000
,
00000000
01000000
00010000
00100000
,
00000000
00010000
00001000
00000010
,
00000000
00001000
00010000
00000100
,
00000000
00000010
00000001
00000100
,
00000000
00000100
00001000
00000010
,
00010000
00000000
00001000
00000000
,
00100000
01000000
01100000
01000000
,
10000000
00000000
00000000
00000000
;

//---------------dance-double - ----------------
#NOTES:
     dance-double:
     :
     Challenge:
     10:
     0.704,0.890,0.303,0.216,0.647:
00000000
00000000
00000000
00000000
,
00000000
00000000
00000000
00000000
,
00000000
00000000
00000000
00000000
,
00000000
00000000
00000000
00000000
,
00000000
00000000
00000000
00000000
,
00000000
00000000
00000000
00000000
,
00000000
00000000
00000000
00000000
,
00000000
00000000
00000000
00000000
,
01000000
00100000
01100000
00010000
00001000
00010000
00010010
00000010
,
00000100
00000001
00000110
00001000
00000001
00000100
00001010
00000100
,
00010000
00001000
00101000
00010000
01000000
00100000
00101000
00010000
,
01000000
10000000
10010000
01000000
00100000
00001000
00010010
00010000
,
00001000
00000100
00001010
00000001
00000010
00000100
00001001
00000100
,
00000010
00001000
00010100
00001000
00100000
00001000
01010000
00010000
,
00001000
00100000
01100000
00010000
10000000
01000000
00101000
00100000
,
00001000
00010000
00011000
00000010
00000100
00000001
00000110
00001000
,
00000001
00000110
00000100
00000001
00000010
00000100
00001100
00000100
,
00010000
00001000
01001000
00001000
00100000
00010000
10010000
10000000
,
01000000
00100000
00101000
00001000
00010000
00000010
00010010
00000010
,
00000100
00000001
00000011
00000010
00000100
00001000
00000110
00000001
,
00000010
00000100
00010100
01000000
00100000
00010000
10010000
01000000
,
00100000
00001000
00011000
00010000
00000010
00000100
00001001
00000100
,
00000010
00000001
00001100
00000010
00000100
00000001
00000110
00010000
,
00000010
00010000
00101000
00001000
00100000
00010000
11000000
00100000
,
00001000
00010000
00010010
00001000
00000100
00000010
00001001
00000100
,
00000010
00000001
00000110
00001000
00000100
00010000
00101000
00100000
,
00010000
10000000
01100000
00010000
00100000
00001000
00010010
00010000
,
00001000
00000100
00001010
00000001
00000010
00000100
00001001
00000100
,
00000010
00001000
00010100
00001000
00100000
00010000
11000000
00100000
,
00010000
00100000
00011000
00000010
00010000
00001000
00000110
00001000
,
00000001
00000010
00000100
00001000
00010000
00100000
01000000
10000000
00010000
01000000
10000000
00100000
00001000
00000100
00000001
00000010
,
00000100
00000001
00001000
00000010
00010000
00001000
00100000
01000000
10000000
00010000
01000000
00100000
00001000
00010000
00000100
00000010
,
00000002
00000000
00000000
00000020
00000000
00000003
00020000
00000030
00002000
00030000
00200000
00003000
02000000
00300000
20000000
03000000
,
00200000
00000000
30000000
00002000
00000000
00000000
00000000
00000000
00000000
00000000
00000000
00000000
00000000
00003000
00310000
00000100
,
00000020
00000000
00000000
00000002
00000000
00000030
00000020
00000003
00020000
00000000
00000030
00002000
00000000
00030000
00200000
00003000
,
00020000
00000000
00300000
20000000
00000000
00030000
02000000
00000000
00000000
00000000
00000000
00000000
03000000
30010000
00000010
00000100
,
00000002
00000000
00000000
00000000
00000000
00000000
00000000
00000000
00000020
00000000
00000000
00000003
00020000
00000000
00000000
00000030
,
02000000
00000000
00030000
20000000
00000000
03000000
00200000
30000000
00002000
00000000
00000000
00000000
00003000
00300001
00000100
00000010
,
00000002
00000000
00000000
00000000
00000000
00000000
00000000
00000000
00000200
00000000
00000003
00020000
00000000
00000300
00002000
00030000
,
00200000
00000000
00000000
00000000
00000000
00000000
00000000
00300000
20003000
00000000
00000000
00000000
00020000
00000000
00000000
30030000
,
01000000
00001000
00000000
00010000
00000000
00000000
00000010
00000000
00000100
00000000
00000000
00000001
00000000
00000000
00000010
00000000
,
00000100
00000000
00001000
00000010
00000000
00010000
00001000
00000000
00100000
00000000
00010000
10000000
00000000
01000000
00100000
00000000
,
00001000
00000000
00010000
00001000
00000000
00010000
00001000
00000000
00000010
00000000
00000100
00000010
00000000
00000100
00000010
00000000
,
00001000
00000000
00000001
00000010
00000000
00000001
00000010
00000000
00000100
00000000
00001000
00000100
00000000
00010000
00001000
00000000
,
00100000
10000000
00010000
01000000
00000000
00000000
00100000
00000000
00001000
00000000
00010000
00000010
00000000
00001000
00010000
00000000
,
00000100
00000000
00000010
00001000
00000000
00000001
00000010
00000000
00000100
00000000
00001000
00000010
00000000
00010000
00001000
00000000
,
00100000
00000000
00010000
10000000
00000000
01000000
00100000
00000000
00001000
00000000
00010000
00000010
00000000
00010000
00001000
00000000
,
00000100
00000000
00000010
00001000
00000000
00000001
00000010
00000000
00000100
00000000
00001000
00000010
00000000
00010000
00001000
00000000
,
00100000
00010000
00100000
00010000
00000000
00000000
10000000
00000000
01000000
00000000
00100000
00001000
00000000
00010000
00000010
00000000
,
00010000
00000000
00001000
00000100
00000000
00000001
00001000
00000000
00000100
00000000
00000010
00000001
00000000
00000100
00000010
00000000
,
00001000
00000000
00000100
00010000
00000000
00001000
00100000
00000000
00010000
00000000
10000000
01000000
00000000
00100000
00001000
00000000
,
00010000
00000000
00000010
00010000
00000000
00001000
00000100
00000000
00000010
00000000
00001000
00000001
00000000
00000010
00000100
00000000
,
00001000
00000010
00001000
00000010
00000000
00000000
00010000
00000000
00001000
00000000
00100000
00010000
00000000
10000000
01000000
00000000
,
00100000
00000000
00001000
00100000
00000000
01000000
00010000
00000000
00001000
00000000
00010000
00000010
00000000
00000100
00000010
00000000
,
00001000
00000000
00000001
00000010
00000000
00000100
00001000
00000000
00000010
00000000
00010000
00001000
00000000
00100000
00010000
00000000
,
10000000
00000000
01000000
00100000
00000000
00001000
00010000
00000000
00000010
00000000
00010000
00001000
00000000
00000100
00000010
00000000
,
00001000
00000001
00001000
00000001
00000100
00000000
00000010
00000100
00001000
00000000
00010000
00001000
00000000
00100000
00010000
00000000
,
00100000
00000000
10000000
00010000
00000000
00100000
01000000
00000000
00001000
00000000
00010000
00000010
00000000
00000100
00001000
00000000
,
00000100
00000000
00001000
00000001
00000000
00000010
00000100
00000000
00001000
00000000
00000001
00000100
00000000
00000010
00001000
00000000
,
00000100
00000000
00010000
00001000
00000000
00100000
00010000
00000000
10000000
00000000
01000000
00100000
00000000
00010000
00100000
00000000
,
00001000
00010000
00001000
00010000
00001000
00000000
00010000
00000010
00000100
00000000
00001000
00000001
00000000
00000100
00000010
00000000
,
00000001
00000000
00000100
00000010
00000000
00010000
00000100
00000000
00010000
00000000
00001000
00100000
00000000
00010000
10000000
00000000
,
01000000
00000000
00100000
01000000
00000000
00100000
01000000
00000000
00100000
00000000
00001000
00010000
00000000
00001000
00010000
00000000
,
00000010
00000000
00010000
00001000
00000000
00010000
00000010
00000000
00000100
00000000
00000010
00001000
00000000
00000001
00000010
00000000
,
00000100
00001000
00000010
00000100
00000001
00000000
00000010
00010000
00000100
00000000
00001000
00000010
00000000
00010000
00001000
00000000
,
00100000
00000000
00010000
10000000
00000000
01000000
00100000
00000000
00001000
00000000
00010000
00000010
00000000
00000100
00000010
00000000
,
00001000
00000000
00000001
00000010
00000000
00000100
00001000
00000000
00000010
00000000
00000100
00000001
00000000
00000010
00000100
00000000
,
00010000
00000000
00001000
00100000
00000000
00010000
01000000
00000000
00100000
00000000
10000000
00010000
00000000
10000000
01000000
00000000
,
00100000
00001000
00010000
00000010
00010000
00000000
00001000
00100000
00010000
00000000
00000010
00000100
00000000
00000001
00000010
00000000
,
00000100
00000000
00001000
00000010
00000000
00000100
00000001
00000000
00001000
00000000
00000100
00000010
00000000
00000001
00000100
00000000
,
00000010
00000000
00001000
00000100
00000000
00010000
00001000
00000000
00100000
00000000
00010000
00100000
00000000
01000000
10000000
00000000
,
00010000
00000000
00100000
01000000
00000000
10000000
00010000
00000000
10000000
00000000
01000000
00100000
00000000
00010000
00100000
00000000
,
01000000
00000000
00100000
00000000
10000000
01000000
00000000
01000000
00100000
00000000
00100000
00010000
00000000
00010000
00001000
00000000
,
00000010
00000000
00000100
00000000
00000001
00000010
00000000
00000010
00000100
00000000
00000100
00001000
00000000
00001000
00010000
00000000
,
00001000
00000000
01000000
00000000
00010000
00100000
00000000
00100000
01000000
00000000
01000000
10000000
00000000
10000000
00100000
00000000
,
01000000
00000000
00010000
00000000
00100000
01000000
00000000
01000000
10000000
00000000
10000000
00100000
00000000
00100000
00010000
00000000
,
00001000
00000000
00010000
00000000
00001000
00000100
00000000
00000100
00000010
00000000
00000010
00001000
00000000
00001000
00000100
00000000
,
00010000
00000000
00001000
00000000
00100000
00010000
00000000
00010000
10000000
00000000
10000000
01000000
00000000
01000000
00100000
00000000
,
00000000
00001000
00010000
00000000
00000010
00000100
00000000
00000100
00000001
00000000
00000001
00000010
00000000
00000010
00001000
00000000
,
00010000
00000000
00001000
00000000
00010000
01000000
00000000
01000000
00100000
00000000
00100000
00010000
00000000
00010000
10000000
00000000
,
01100000
00000000
00000000
00000000
;

//---------------dance-single - ----------------
#NOTES:
     dance-single:
     :
     Beginner:
     1:
     0.099,0.135,0.007,0.000,0.000: // measure 1
0000
0000
0000
0000
,  // measure 2
0000
0000
0000
0000
,  // measure 3
0000
0000
0000
0000
,  // measure 4
0000
0000
0000
0000
,  // measure 5
0010
0000
0000
0000
,  // measure 6
0000
0000
0000
0000
,  // measure 7
0010
0000
0000
0000
,  // measure 8
0001
0000
1000
0000
,  // measure 9
0000
0010
0000
0000
,  // measure 10
0000
0010
0000
0000
,  // measure 11
0000
0010
0000
0000
,  // measure 12
0000
0010
0000
0000
,  // measure 13
0000
0010
0000
0000
,  // measure 14
0000
0010
0000
0000
,  // measure 15
0000
0010
0000
0000
,  // measure 16
0000
0010
0000
0000
,  // measure 17
0000
0001
0000
0001
,  // measure 18
0000
1000
0000
1000
,  // measure 19
0000
0001
0000
0001
,  // measure 20
0000
1000
0000
1000
,  // measure 21
0000
0100
0000
0100
,  // measure 22
0000
0010
0000
0010
,  // measure 23
0000
0100
0000
0100
,  // measure 24
0000
0010
0000
0010
,  // measure 25
0000
1000
0000
1000
,  // measure 26
0000
0001
0000
0001
,  // measure 27
0000
1000
0000
1000
,  // measure 28
0000
0001
0000
0001
,  // measure 29
0000
0100
0000
0100
,  // measure 30
0000
0001
0000
0001
,  // measure 31
0000
1000
0000
1000
,  // measure 32
0000
0010
0000
0010
,  // measure 33
0010
0000
0000
0000
,  // measure 34
0000
0000
0000
0000
,  // measure 35
0000
0000
0000
0000
,  // measure 36
0000
0000
0000
0000
,  // measure 37
0000
0000
0000
0000
,  // measure 38
0000
0000
0000
0000
,  // measure 39
0000
0000
0000
0000
,  // measure 40
0000
0000
0000
0000
,  // measure 41
1000
0000
0000
0000
,  // measure 42
0000
0000
0000
0000
,  // measure 43
0001
0000
0000
0000
,  // measure 44
0001
0000
0000
0000
,  // measure 45
0001
0000
0000
0000
,  // measure 46
0000
0000
0000
0000
,  // measure 47
0100
0000
0000
0000
,  // measure 48
0100
0000
0000
0000
,  // measure 49
0010
0000
0000
0000
,  // measure 50
1000
0000
0000
0000
,  // measure 51
0001
0000
0001
0000
,  // measure 52
0001
0000
0000
0000
,  // measure 53
0100
0000
0000
0000
,  // measure 54
0010
0000
0000
0000
,  // measure 55
0100
0000
0100
0000
,  // measure 56
0010
0000
0000
0000
,  // measure 57
0000
0001
0000
0001
,  // measure 58
0000
1000
0000
1000
,  // measure 59
0000
0001
0000
1000
,  // measure 60
0000
0001
0000
1000
,  // measure 61
0000
0100
0000
0100
,  // measure 62
0000
0010
0000
0010
,  // measure 63
0000
0100
0000
0010
,  // measure 64
0000
0100
0000
0010
,  // measure 65
0000
1000
0000
1000
,  // measure 66
0000
0001
0000
0001
,  // measure 67
0000
1000
0000
0001
,  // measure 68
0000
1000
0000
0001
,  // measure 69
0000
0010
0000
0010
,  // measure 70
0000
0100
0000
0100
,  // measure 71
0000
1000
0000
0001
,  // measure 72
0000
0010
0000
0100
,  // measure 73
0000
1000
0000
0000
,  // measure 74
0000
0001
0000
0000
,  // measure 75
0000
1000
0000
0000
,  // measure 76
0000
0001
0000
0000
,  // measure 77
0100
0000
0000
0000
,  // measure 78
0000
0000
0000
0000
,  // measure 79
0010
0000
0000
0000
,  // measure 80
0010
0000
0010
0000
,  // measure 81
1001
0000
0000
0000
;
