#TITLE:analog sky;
#SUBTITLE:;
#ARTIST:knot;
#TITLETRANSLIT:;
#SUBTITLETRANSLIT:;
#ARTISTTRANSLIT:;
#CREDIT:;
#BANNER:analog sky.png;
#BACKGROUND:analog sky-bg.png;
#LYRICSPATH:;
#CDTITLE:cdtitle.png;
#MUSIC:analog sky.mp3;
#OFFSET:-1.500;
#SAMPLESTART:67.700;
#SAMPLELENGTH:12.000;
#SELECTABLE:YES;
#BPMS:0.000=160.000;
#STOPS:160.000=0.200
;
#BGCHANGES:-4.000=analog sky.avi=1.000=1=1=0,
292.000=analog sky-bg.png=1.000=1=0=1,
99999=-nosongbg-=1.000=0=0=0 // don't automatically add -songbackground-
;

//---------------dance-single - BASIC----------------
#NOTES:
     dance-single:
     BASIC:
     Easy:
     3:
     0.243,0.325,0.290,0.181,0.000: // measure 1
0000
0000
0000
0000
,  // measure 2
0000
0000
0000
0000
,  // measure 3
0000
0000
0000
0000
,  // measure 4
0000
0000
0000
0000
,  // measure 5
1001
0000
1001
0000
,  // measure 6
1001
0000
1001
0000
,  // measure 7
1001
0000
1001
0000
,  // measure 8
1001
0000
1001
0000
,  // measure 9
1000
0000
0001
0000
,  // measure 10
1000
0000
0001
0000
,  // measure 11
1000
0000
0001
0000
,  // measure 12
1000
0000
0001
0000
,  // measure 13
1001
0000
1001
0000
,  // measure 14
1001
0000
1001
0000
,  // measure 15
1001
0000
1001
0000
,  // measure 16
1001
0000
1001
0000
,  // measure 17
0020
0030
0200
0300
,  // measure 18
0020
0030
0200
0300
,  // measure 19
0020
0030
0200
0300
,  // measure 20
0020
0030
0200
0300
,  // measure 21
1001
0000
1001
0000
,  // measure 22
1001
0000
1001
0000
,  // measure 23
1001
0000
1001
0000
,  // measure 24
1001
0000
1001
0000
,  // measure 25
0020
0030
0200
0300
,  // measure 26
0020
0030
0200
0300
,  // measure 27
0020
0030
0200
0300
,  // measure 28
0020
0030
0200
0300
,  // measure 29
1001
0000
1001
0000
,  // measure 30
1001
0000
1001
0000
,  // measure 31
1001
0000
1001
0000
,  // measure 32
1001
0000
1001
0000
,  // measure 33
1000
0000
1000
0000
,  // measure 34
0010
0000
0010
0000
,  // measure 35
0001
0000
0001
0000
,  // measure 36
0100
0000
0100
0000
,  // measure 37
1000
0000
1000
0000
,  // measure 38
0010
0000
0010
0000
,  // measure 39
0001
0000
0001
0000
,  // measure 40
0100
0000
0100
0000
,  // measure 41
1000
0000
0001
0000
,  // measure 42
1000
0000
0001
0000
,  // measure 43
1000
0000
0001
0000
,  // measure 44
1000
0000
0001
0000
,  // measure 45
0100
0000
0010
0000
,  // measure 46
0100
0000
0010
0000
,  // measure 47
0100
0000
0010
0000
,  // measure 48
0100
0000
0100
0000
,  // measure 49
0001
0000
1000
0000
,  // measure 50
0001
0000
1000
0000
,  // measure 51
0001
0000
1000
0000
,  // measure 52
0002
0000
0103
0000
,  // measure 53
0010
0000
0100
0000
,  // measure 54
0010
0000
0100
0000
,  // measure 55
0010
0000
0100
0000
,  // measure 56
0020
0000
2030
0000
,  // measure 57
3001
0000
1000
0000
,  // measure 58
0001
0000
1000
0000
,  // measure 59
0001
0000
1000
0000
,  // measure 60
0001
0000
1000
0000
,  // measure 61
0010
0000
0100
0000
,  // measure 62
0010
0000
0100
0000
,  // measure 63
0010
0000
0100
0000
,  // measure 64
0010
0000
0100
0000
,  // measure 65
0100
0000
0100
0000
,  // measure 66
0100
0000
0100
0000
,  // measure 67
0100
0000
0100
0000
,  // measure 68
0100
0000
0100
0000
,  // measure 69
0010
0000
0010
0000
,  // measure 70
0010
0000
0010
0000
,  // measure 71
0010
0000
0010
0000
,  // measure 72
0010
0000
0000
0000
0200
0000
0000
0300
;

//---------------dance-single - TRICK----------------
#NOTES:
     dance-single:
     TRICK:
     Medium:
     6:
     0.462,0.455,0.344,0.018,0.000:
0000
0000
0000
0000
,
0000
0000
0000
0000
,
0000
0000
0000
0000
,
0000
0000
0000
0000
,
0100
1001
0100
1001
,
0100
1001
0100
1001
,
0100
1001
0100
1001
,
0100
1001
0100
1001
,
0100
0000
0100
0001
0100
0000
0100
1000
,
0100
0000
0010
0001
0010
0000
0010
1000
,
0010
0000
0100
0001
0100
0000
0100
1000
,
0100
0000
0010
0001
0010
0000
0010
1000
,
0010
1001
0010
1001
,
0100
1001
0100
1001
,
0010
1001
0010
1001
,
0100
1001
0100
1001
,
0010
0010
0100
0100
,
0001
0001
1000
1000
,
0010
0010
0100
0100
,
0001
0001
1000
1000
,
0001
0110
1000
0110
,
0001
0110
1000
0110
,
0001
0110
1000
0110
,
0001
0110
1000
0110
,
0001
0000
0100
0010
0100
0000
1000
0000
,
0010
0000
0001
0100
0001
0000
0100
0000
,
1000
0000
0010
0100
0010
0000
0001
0000
,
0100
0000
1000
0010
0001
0000
0100
0000
,
1000
0110
0001
0110
,
1000
0110
0001
0110
,
1000
0110
0001
0110
,
1000
0110
1001
0110
,
1000
0000
0010
0000
1000
0000
0100
0100
,
0010
0000
0001
0000
0010
0000
0001
0001
,
0100
0000
0010
0000
0100
0000
0001
0001
,
1000
0000
0100
0000
1000
0000
0010
0010
,
0100
0000
0010
0000
0001
0000
0010
0010
,
1000
0000
0100
0000
0010
0000
0001
0001
,
0100
0000
0010
0000
1000
0000
0100
0100
,
0001
0000
0100
0000
1000
0000
0010
0010
,
1001
0000
1000
0001
1000
0000
1000
0001
,
1000
0000
0010
0100
0010
0000
0010
0100
,
0010
0000
1000
0001
1000
0000
1000
0001
,
1000
0000
0010
0100
0010
0000
0010
0100
,
0010
0000
1000
0100
1000
0000
0010
0001
,
0010
0000
1000
0100
1000
0000
0010
0001
,
0010
0000
1000
0100
0001
0000
0001
0100
,
2000
0000
0000
0000
3100
0000
0100
0010
,
0001
0000
0001
1000
0001
0000
0100
0010
,
0100
0000
1000
0001
1000
0000
0010
0100
,
0010
0000
0001
1000
0001
0000
0100
0001
,
0020
0000
0000
0000
0130
0000
1000
0010
,
0100
0000
0001
0000
0100
0000
0010
1000
,
0100
0000
0010
0000
0001
0000
0010
0001
,
0100
0010
1000
0001
,
0110
0000
0110
0000
1000
0001
0100
0000
,
1001
0000
1000
1000
0000
0000
0001
0001
,
0000
0000
1000
1000
0000
0000
0001
0001
,
0000
0000
1000
1000
0000
0000
0001
0001
,
0000
0000
1000
0100
0000
0000
0010
0001
,
0000
0000
0010
0100
0000
0000
1000
0100
,
0000
0000
0001
0010
0000
0000
0100
1000
,
0000
0000
0001
0010
0000
0000
1000
0100
,
0000
0000
0010
0001
0000
0000
1001
0000
,
0010
0100
0010
0100
,
0010
0100
0010
0100
,
1000
0001
1000
0001
,
1000
0001
1000
0001
,
0010
0100
0010
0100
,
0010
0100
0010
0100
,
1000
0001
1000
0001
,
1000
0000
0001
0000
0010
1000
0100
0001
;

//---------------dance-single - HEAVY----------------
#NOTES:
     dance-single:
     HEAVY:
     Hard:
     8:
     0.659,0.716,0.715,0.000,0.222:
0000
0000
0000
0000
,
0000
0000
0000
0000
,
0000
0000
0000
0000
,
0000
0000
0000
0000
,
0110
0000
0000
1000
0001
0000
0000
0000
0110
0000
0000
0001
1000
0000
0000
0000
,
0110
0000
0000
1000
0001
0000
0000
0000
0110
0000
0000
0001
1000
0000
0000
0000
,
0110
0000
0000
1000
0001
0000
0000
0000
0110
0000
0000
0001
1000
0000
0000
0000
,
0110
0000
0000
1000
0001
0000
0000
0000
0110
0000
0000
0001
1000
0000
0000
0000
,
0110
0000
0100
0010
0001
0000
0010
0100
,
1000
0000
0010
0001
1000
0000
0001
0010
,
0100
0000
0001
1000
0100
0000
1000
0001
,
0010
0000
1000
0100
0010
0000
0100
1000
,
0001
0000
0000
1000
0100
0000
0000
0000
0110
0000
0000
0000
0001
0010
0000
0000
,
0110
0000
0000
1000
0100
0000
0000
0000
0110
0000
0000
0001
0010
0000
0000
0000
,
0110
0000
0000
1000
0100
0000
0000
0000
0110
0000
0000
0001
0010
0000
0000
0000
,
0110
0000
0000
1000
0100
0000
0000
0000
0110
0000
0000
0001
0010
0000
0000
0000
,
0110
0000
1000
0100
0100
0000
0100
0001
,
0001
0000
0001
0010
0010
0000
0010
1000
,
1000
0000
1000
0100
0100
0000
0100
0001
,
0001
0000
0001
0010
0010
0000
0010
1000
,
1000
0000
0000
0100
0001
0000
0000
0000
1001
0000
0000
0010
1000
0000
0000
0000
,
1001
0000
0000
0100
0001
0000
0000
0000
1001
0000
0000
0010
1000
0000
0000
0000
,
1001
0000
0000
0100
0001
0000
0000
0000
1001
0000
0000
0010
1000
0000
0000
0000
,
1001
0000
0000
0100
0001
0000
0000
0000
1001
0000
0000
0010
1000
0000
0000
0000
,
1001
0000
0001
0010
1100
0000
1000
0000
,
1000
0000
1000
0100
0011
0000
0001
0000
,
0001
0000
0001
0010
1100
0000
1000
0000
,
1000
0000
1000
0100
0011
0000
0001
0000
,
0001
0000
0000
0010
1000
0000
0000
0000
1001
0000
0000
0100
0001
0000
0000
0000
,
0110
0000
0000
0010
1000
0000
0000
0000
1001
0000
0000
0100
0001
0000
0000
0000
,
0110
0000
0000
0010
1000
0000
0000
0000
1001
0000
0000
0100
0001
0000
0000
0000
,
0110
0000
0000
0010
1000
0000
0000
0000
1001
0000
0000
0000
0110
0000
0000
0000
,
1000
0010
0000
0101
1000
0000
1001
0100
,
0010
0001
0000
1100
0001
0000
1001
0010
,
0100
1000
0000
0101
1000
0000
1001
0100
,
0010
0001
0000
1100
0001
0000
1001
0010
,
0100
1000
0000
0110
0000
1001
0110
0010
,
1000
0001
0000
0110
0000
1001
0110
0010
,
0001
1000
0000
0110
0000
1001
0110
0010
,
1000
0001
0000
0110
0000
1001
0010
0110
,
1001
0100
1000
0001
1000
0100
1000
0001
,
1000
0100
1000
0001
1000
0100
0010
0001
,
0010
0100
0010
0001
0010
0100
0010
0001
,
0010
0100
0010
0001
0010
0100
0010
0001
,
0100
0010
0100
1000
0100
0010
0100
1000
,
0100
0010
0100
1000
0100
0010
0100
1000
,
0100
0010
1000
0100
0001
0010
0001
0100
,
1000
0100
0011
0001
0100
0000
0010
0100
,
1000
1001
0001
1000
0001
0110
0100
0010
,
0100
1001
1000
0001
1000
0110
0010
0100
,
0010
1001
0001
1000
0001
0110
0100
1000
,
0010
0100
0010
0100
0000
0010
0000
0100
0001
0000
0010
0000
1100
0000
0001
0000
,
1000
0100
0011
1000
0001
0010
1100
0001
,
1000
0100
0011
1000
0001
0100
1010
0001
,
1000
0010
0101
1000
0001
0100
1001
0000
,
0110
0000
0000
0000
0110
0000
0000
0000
1000
0000
0001
0000
0100
0010
0000
0010
,
1000
0000
1000
1000
0100
0000
0001
0001
,
0010
0000
1000
1000
0100
0000
0001
0001
,
0010
0000
1000
0100
0001
0000
0001
0010
,
1000
0000
1000
0100
0001
0000
0100
0001
,
0010
0000
0010
1000
0100
0000
1000
0100
,
0001
0000
0100
0001
0010
0000
0001
0010
,
1000
0000
1000
0100
0001
0000
0001
0010
,
1000
0000
0100
0001
1000
0000
1001
0000
,
0010
1000
0000
0000
0100
0000
0000
0000
0010
1000
0000
0000
0100
0000
0000
0000
,
0010
1000
0000
0000
0100
0000
0000
0000
0010
1000
0000
0000
0100
0000
0000
0000
,
0010
0001
0000
0000
0100
0000
0000
0000
0010
0001
0000
0000
0100
0000
0000
0000
,
0010
0001
0000
0000
0100
0000
0000
0000
0010
0001
0000
0000
0100
0000
0000
0000
,
1000
1100
0001
0101
,
1000
1100
0001
0101
,
1000
0000
0001
0000
1000
0000
0001
1000
,
0100
0010
0000
0001
0000
0010
0000
0100
0010
0000
1000
0000
0100
0000
0001
0000
;

//---------------dance-single - ONI----------------
#NOTES:
     dance-single:
     ONI:
     Challenge:
     10:
     1.000,1.000,1.000,0.109,0.719:
0000
0000
0000
0000
,
0000
0000
0000
0000
,
0000
0000
0000
0000
,
0000
0000
0000
0000
,
1100
0000
0000
1000
0100
1000
0100
0000
0000
0000
0000
0000
0101
0000
0000
0001
0100
0001
0100
0000
0000
0000
0000
0000
,
1010
0000
0000
1000
0010
1000
0010
0000
0000
0000
0000
0000
0011
0000
0000
0001
0010
0001
0010
0000
0000
0000
0000
0000
,
1100
0000
0000
1000
0100
1000
0100
0000
0000
0000
0000
0000
0101
0000
0000
0001
0100
0001
0100
0000
0000
0000
0000
0000
,
1010
0000
0000
1000
0010
1000
0010
0000
0000
0000
0000
0000
0011
0000
0000
0001
0010
0001
0010
0000
0000
0000
0000
0000
,
1001
0000
1001
0010
0001
0000
1010
0100
,
1000
0000
0110
0001
1000
0000
1001
0010
,
0100
0000
0011
1000
0100
0000
1100
0001
,
0010
0000
1001
0100
0010
0000
0110
0100
,
1001
0000
0000
1000
0001
1000
0001
0000
0000
0000
0000
0000
0110
0000
0000
0010
0100
0010
0100
0000
0000
0000
0000
0000
,
1001
0000
0000
0001
1000
0001
1000
0000
0000
0000
0000
0000
0110
0000
0000
0100
0010
0100
0010
0000
0000
0000
0000
0000
,
1001
0000
0000
1000
0001
1000
0001
0000
0000
0000
0000
0000
0110
0000
0000
0010
0100
0010
0100
0000
0000
0000
0000
0000
,
1001
0000
0000
1000
0001
1000
0001
0000
0000
0000
0000
0000
0110
0000
0000
0100
0010
0100
0010
0000
0000
0000
0000
0000
,
0110
0000
0000
0000
1000
0000
0100
0000
0000
0100
0000
0000
0100
0000
0001
0000
,
0000
0001
0000
0000
0001
0000
0010
0000
0000
0010
0000
0000
0010
0000
1000
0000
,
0000
1000
0000
0000
1000
0000
0100
0000
0000
0100
0000
0000
0100
0000
0001
0000
,
0000
0001
0000
0000
0001
0000
0010
0000
0000
0010
0000
0000
0010
0000
1000
0000
,
1001
0000
1000
0100
0001
0000
0000
0000
1001
0000
0001
0100
1000
0000
0000
0000
,
1001
0000
1000
0010
0001
0000
0000
0000
1001
0000
0001
0010
1000
0000
0000
0000
,
1001
0000
1000
0100
0001
0000
0000
0000
1001
0000
0001
0100
1000
0000
0000
0000
,
1001
0000
1000
0010
0001
0000
0000
0000
1001
0000
0001
0010
1000
0000
0000
0000
,
1001
0000
0000
0000
1001
0000
0010
0000
0000
0100
0000
0000
1100
0000
1000
0000
,
0000
0010
0000
0000
0101
0000
0100
0000
0000
1000
0000
0000
1001
0000
0001
0000
,
0000
0010
0000
0000
0101
0000
0100
0000
0000
0010
0000
0000
1010
0000
1000
0000
,
0000
0001
0000
0000
0110
0000
0100
0000
0000
1000
0000
0000
1001
0000
0001
0000
,
1001
0000
0001
0010
1000
0000
0000
0000
1001
0000
1000
0010
0001
0000
0000
0000
,
1001
0000
0001
0100
1000
0000
0000
0000
1001
0000
1000
0100
0001
0000
0000
0000
,
1001
0000
0001
0010
1000
0000
0000
0000
1001
0000
1000
0100
0001
0000
0000
0000
,
1001
0000
0001
0010
1000
0000
0000
0000
1001
0000
0000
0000
0110
0000
0000
0000
,
1000
0000
0010
0100
0000
0100
0001
0000
1000
0010
0100
0000
1001
0000
0110
0000
,
0001
0000
1000
0010
0000
0010
0100
0000
0001
1000
0100
0000
1001
0000
0110
0000
,
0100
0000
1000
0001
0000
0001
0100
0000
0001
1000
0100
0000
1001
0000
0110
0000
,
1000
0000
0001
1000
0000
1000
0010
0000
1000
0001
0100
0000
1001
0000
0110
0000
,
0001
0000
1000
0010
0000
0010
0100
0000
0001
0100
0010
0000
1010
0000
0101
0000
,
1000
0000
0001
0010
0000
0010
0001
0000
1000
0010
0100
0000
0101
0000
1010
0000
,
0001
0000
1000
0010
0000
0010
0100
0000
0001
1000
0100
0000
1100
0000
0011
0000
,
1001
0000
0100
0000
1001
0000
0100
0000
1001
0000
1001
0000
0010
0100
0010
0100
,
1001
0000
0000
0010
1000
0000
0101
0000
0110
0000
0000
0100
1000
0000
1001
0000
,
0011
0000
0000
0010
0100
0000
1001
0000
0011
0000
0000
0001
0010
0000
1100
0000
,
0101
0000
0000
0010
1000
0000
0101
0000
0110
0000
0000
0010
0100
0000
1001
0000
,
0110
0000
0000
1000
0100
0000
1001
0000
1100
0000
0000
0001
0010
0000
0011
0000
,
1100
0000
0000
1000
0100
0000
1100
0000
0011
0000
0000
1000
0001
0000
1001
0000
,
0110
0000
0000
1000
0100
0000
1100
0000
1001
0000
0000
1000
0010
0000
1010
0000
,
0101
0000
0000
0010
0100
0000
1100
0000
1001
0000
0000
0100
0010
0000
0011
0000
,
1001
0000
0100
0010
0000
0010
1000
0000
1100
0000
0001
0000
0110
0000
0110
0000
,
1001
0000
0001
1000
0001
0000
0011
0000
1100
0000
1000
0010
0100
0000
0101
0000
,
1001
0000
0001
1000
0100
0000
1100
0000
1001
0000
1000
0001
0010
0000
0011
0000
,
1100
0000
1000
0100
0010
0000
0011
0000
1001
0000
1000
0010
0100
0000
1001
0000
,
0010
0100
0010
0100
0000
1010
0000
1000
0001
0010
2000
0000
3001
0100
2000
0000
,
3001
0010
2000
0000
3001
0100
2000
0000
3001
0010
2000
0000
3001
0100
2000
0000
,
3001
0010
2000
0000
3001
0100
2000
0000
3001
0010
1000
0000
1000
0010
0002
0000
,
1003
0100
0002
0000
1003
0010
0002
0000
1003
0100
0002
0000
1003
0010
0001
0000
,
0110
0000
1001
0000
0110
0000
0010
0000
1000
0000
0001
0000
0100
0010
0000
1000
,
0001
1000
1001
1001
0110
1000
1001
1001
,
0110
0001
1001
1001
0110
1000
1001
1001
,
0110
0001
1001
0101
0011
0001
1001
1010
,
1100
1000
1001
0101
0011
0001
1001
1010
,
1100
1000
1100
0110
0011
0001
0011
0110
,
1100
1000
1010
0110
0101
0001
0101
0110
,
1010
1000
1001
0110
1001
0001
1001
0110
,
1001
1000
0100
0001
0110
0000
1001
0000
,
0010
1000
0000
0000
0100
0010
0100
0010
1000
0001
0000
0000
0100
0010
0100
0010
,
0001
1000
0000
0000
0100
0010
0100
0010
1000
0001
0000
0000
0100
0010
0100
0010
,
0001
1000
0000
0000
1000
0100
0010
0001
0010
0100
0000
0000
0001
0010
0100
1000
,
0100
0010
0000
0000
1000
0100
0010
0001
0010
0100
0000
0000
0001
0010
0100
1000
,
0100
0010
0000
0000
1100
0000
1000
0100
0010
0000
0001
0000
0101
0000
0001
0010
,
0100
0000
1000
0000
1100
0000
1000
0100
0010
0000
0001
0000
0101
0000
0001
0010
,
0100
1000
1001
0110
1001
0100
1001
1000
,
0100
0010
0000
1001
0000
0110
0000
0100
0010
0000
1001
0000
0110
0000
1001
0000
;
