#TITLE:a(^s^d)Festival!!;
#SUBTITLE:;
#ARTIST:sumomo and deathrain - with SB -;
#TITLETRANSLIT:;
#SUBTITLETRANSLIT:;
#ARTISTTRANSLIT:;
#CREDIT:;
#BANNER:a(^s^d)Festival!!.png;
#BACKGROUND:a(^s^d)Festival!!-bg.png;
#LYRICSPATH:;
#CDTITLE:cdtitle.png;
#MUSIC:a(^s^d)Festival!!.mp3;
#OFFSET:0.000;
#SAMPLESTART:17.800;
#SAMPLELENGTH:12.000;
#SELECTABLE:YES;
#BPMS:0.000=135.010;
#STOPS:;
#BGCHANGES:;

//---------------dance-single - BASIC----------------
#NOTES:
     dance-single:
     BASIC:
     Easy:
     2:
     0.198,0.272,0.026,0.065,0.000: // measure 1
0000
0000
0000
0000
,  // measure 2
0000
0000
0000
0000
,  // measure 3
1000
0000
0000
0000
,  // measure 4
0000
0000
0000
0000
,  // measure 5
0001
0000
0000
0000
,  // measure 6
0000
0000
0000
0000
,  // measure 7
1000
0000
0000
0000
,  // measure 8
0001
0000
0000
0000
,  // measure 9
1000
0010
0001
0100
,  // measure 10
2002
0000
0000
3003
,  // measure 11
1000
0010
0100
0000
,  // measure 12
0001
0010
0100
0000
,  // measure 13
1000
0010
0100
0000
,  // measure 14
0001
0010
0100
0000
,  // measure 15
1000
0100
0010
0000
,  // measure 16
0001
0100
0010
0000
,  // measure 17
1000
0100
0010
0000
,  // measure 18
0001
0100
0010
0000
,  // measure 19
1000
0100
0020
0000
,  // measure 20
0000
0000
0000
0000
,  // measure 21
0030
0000
0000
0000
,  // measure 22
1000
0000
0000
0000
,  // measure 23
0001
0100
0020
0000
,  // measure 24
0000
0000
0000
0000
,  // measure 25
0030
1000
0001
1000
,  // measure 26
0001
0010
1000
0100
,  // measure 27
0001
0010
1000
0100
,  // measure 28
0001
0020
0030
0000
,  // measure 29
1000
0000
0000
0000
,  // measure 30
0001
0000
0000
0000
,  // measure 31
1000
0000
0001
0000
,  // measure 32
1000
0000
0001
0000
,  // measure 33
1000
1000
0001
0001
,  // measure 34
1000
1000
0001
0001
,  // measure 35
0010
0010
0100
0100
,  // measure 36
0010
0010
0100
0100
,  // measure 37
0001
0001
1000
1000
,  // measure 38
0001
0001
1000
1000
,  // measure 39
0010
0010
0100
0100
,  // measure 40
0010
0010
0100
0100
,  // measure 41
0001
0100
1000
0010
,  // measure 42
0001
0100
1000
0010
,  // measure 43
1001
0000
0000
0000
;

//---------------dance-single - TRICK----------------
#NOTES:
     dance-single:
     TRICK:
     Medium:
     6:
     0.355,0.490,0.104,0.117,0.000:
0000
0000
0000
0000
,
0000
0000
0000
0000
,
1000
0000
0000
0000
,
0000
0000
0000
0000
0000
0000
0000
1000
,
0001
0000
0000
0000
,
0000
0000
0000
0000
,
1000
0000
0010
0000
,
0001
0000
0010
0000
,
1000
0010
0100
0000
0001
0100
0010
0000
,
2002
0000
0000
3003
,
1000
0010
0010
0100
0000
0000
1000
0000
,
0001
0010
0010
0100
0000
0000
0001
0000
,
1000
0100
0010
0100
1000
0001
0100
1000
,
0001
0000
0000
0010
0100
0000
0100
0000
,
0001
0010
0010
0100
0000
0000
0001
0000
,
1000
0010
0010
0100
0000
0000
1000
0000
,
0001
0100
0010
0100
0001
1000
0100
0001
,
1000
0100
0100
0001
0010
0010
1000
0000
,
1000
0100
0001
0010
0020
0000
0000
0000
,
0000
0000
0000
0000
,
0030
0001
1000
0010
,
1001
0010
1000
0001
,
0001
0100
1000
0020
0000
0000
0000
0000
,
0000
0000
0000
0000
,
0031
0001
1000
1000
0001
0001
1000
1000
,
1001
1010
0101
0011
,
1100
1000
0010
0100
1000
0001
0100
1000
,
0001
0100
0020
0000
0030
0000
0100
0000
,
1000
0000
1000
0000
,
0001
0000
0001
0000
,
2000
3100
0002
0103
,
2000
3100
0002
0103
,
1000
0100
1000
0000
0001
0100
0001
0000
,
1000
0010
1000
0010
0001
0010
1000
0001
,
1000
0100
0010
0000
0100
0001
0100
0000
,
0010
1000
0010
0000
0100
0000
0100
0000
,
0001
0100
1000
0000
1000
0010
0001
0000
,
0001
0001
0100
0000
1000
1000
0010
0000
,
0010
0001
0010
1000
0000
0000
0100
0000
,
0010
1000
0010
0001
0000
0000
0100
0000
,
0001
0010
0100
0000
0001
1000
0100
0000
,
0001
0010
1000
0010
0001
0010
1000
0001
,
1001
0000
0000
0000
;

//---------------dance-single - HEAVY----------------
#NOTES:
     dance-single:
     HEAVY:
     Hard:
     9:
     0.585,0.789,0.466,0.207,0.278:
0000
0000
0000
0000
,
0000
0000
0000
0000
,
2002
0000
0000
0000
,
0000
0000
0000
0000
3003
0000
0000
1001
,
2002
0000
0000
0000
,
0000
0000
0000
3003
,
1000
0010
0100
0000
0010
0001
1000
0000
,
0010
0001
0100
0000
1000
0010
0001
0000
,
0010
0001
0100
0000
0001
0100
1000
0000
,
2002
0000
0000
0000
0000
0000
0000
0000
0000
3003
0000
0000
1000
0000
0010
0000
0100
0000
0001
0000
0010
0000
0100
0000
,
1000
0100
0010
0100
1000
0000
1001
0000
,
0001
0010
0100
0010
0001
0000
1001
0000
,
1000
0010
0100
1000
0010
0100
0001
0100
,
1000
0000
0010
0100
1000
0000
0011
0000
,
0001
0010
0100
0010
0001
0000
1001
0000
,
1000
0100
0010
0100
1000
0000
1001
0000
,
0001
0010
0100
0001
0010
0100
1000
0100
,
0001
0100
0000
0000
1000
0010
0000
0000
1000
0010
0100
0001
0010
0100
1000
0001
,
1000
0000
0000
0000
0100
0000
0000
0000
0001
0000
0000
0000
0010
0000
0000
0000
0010
0000
0000
0000
0010
0000
0010
0000
0000
0000
0010
0000
0010
0000
0000
0010
,
0000
0010
0010
0000
0010
0010
0010
0000
1000
0100
0001
0000
1000
0000
0001
0000
,
1000
0000
0000
1000
0000
0000
0001
0000
0000
0001
0000
0000
1000
0000
0000
0000
0000
0000
0010
0000
0000
0000
0000
1001
,
0000
0000
0010
0000
1000
0000
0001
1000
,
0001
0000
0100
0000
1000
0000
0010
0001
0100
0010
1000
0100
0010
0001
0100
0010
,
1000
0100
0010
0100
0010
0001
0010
0100
1000
0010
0100
0001
1000
0100
0010
0000
,
0001
0100
0000
0000
1000
0010
0000
0000
0001
0100
0000
0000
1000
0010
0000
0000
,
1000
0010
1000
0010
0001
0100
0010
0100
,
1000
0010
0100
1000
0010
0001
0100
1000
,
0001
0100
0020
0000
0130
0000
0100
0000
,
1001
1000
0100
0010
1000
0100
0001
0010
,
0001
0100
0000
1000
0001
0000
1000
0000
,
1100
1001
0101
1001
,
1100
1001
0101
1001
,
1100
1000
1100
0100
0101
0001
0101
0100
,
1100
0000
0000
0000
0000
0000
0110
0000
0000
0000
0000
0000
0001
0000
0000
0000
0000
0000
0010
0000
0000
0001
0000
0000
0100
0000
0000
0000
0000
0000
0000
0000
0010
0000
0000
0000
0000
0000
0000
0000
0001
0000
0000
0000
1000
0000
0000
0000
,
0001
0100
0010
0001
0010
0100
1000
0100
,
1001
1000
0020
0100
0100
0000
0130
0010
,
0101
0200
1000
0300
1020
0100
0031
0000
,
0021
0130
1020
0130
,
0001
0010
0001
0000
0010
0000
1000
0000
0100
0000
0010
0000
0101
0000
0000
0000
,
1000
0010
1000
0000
0010
0000
0001
0000
0100
0000
0010
0000
1100
0000
0000
0000
,
0001
0010
1000
0000
0100
0000
0000
0000
1000
0010
0001
0000
0100
0000
0000
0000
,
2020
0000
0000
3030
0000
0202
0000
0000
0303
0000
1010
0000
,
1001
0000
0000
0000
;

//---------------dance-single - ONI----------------
#NOTES:
     dance-single:
     ONI:
     Challenge:
     10:
     0.718,0.913,0.285,0.142,0.809:
0000
0000
0000
0000
,
0000
0000
0000
0000
,
1001
0000
0000
0000
0000
0000
0000
0000
0000
0000
0000
0000
0000
0000
0000
0000
0000
0000
0000
0000
0000
0000
0000
0000
0000
0000
0000
0000
0000
0000
0000
0000
0000
0000
0000
0001
0000
0000
0000
0000
0000
0000
0010
0000
0000
1000
0000
0000
,
0000
0000
0000
0000
0000
0100
0000
0000
0000
0000
0000
0000
0000
0000
1001
0000
,
2002
0000
0000
0000
,
0000
0000
0000
3003
,
1000
0010
1000
0000
0100
0000
0000
0000
0001
0010
0001
0000
1000
0000
0000
0000
,
0010
0001
0010
0000
0100
0000
0000
0000
1000
0010
1000
0000
0001
0000
0000
0000
,
0001
0010
0001
0000
0100
0000
0001
0100
0001
0000
0100
0000
1000
0000
0000
0000
,
2002
0000
0000
0000
0000
0000
0000
0000
0000
3003
0000
0000
1000
0000
0010
0000
0100
0000
0001
0000
0010
0000
0100
0000
,
1000
0000
0000
0100
0000
0000
0100
0010
0000
0000
0001
0000
1000
0001
1000
0000
,
0001
0000
0000
0010
0000
0000
0100
0010
0000
0000
0001
0000
1000
0001
1000
0000
,
0010
0000
0000
0100
0000
0000
0010
1000
0000
0000
0100
0000
0001
0100
0001
0000
,
1000
0000
0000
0010
0000
0000
0001
0100
0000
0000
0010
0000
1000
0001
1000
0000
,
1001
0000
0000
0010
0000
0000
1000
0100
0000
0000
0010
0000
0001
1000
0001
0000
,
1000
0000
0000
0010
0000
0000
0100
0001
0000
0000
1000
0000
0001
1000
0001
0000
,
1000
0000
0000
0010
0000
0000
1000
0010
0000
0000
0100
0000
1000
0001
1000
0000
,
0001
0100
0000
0000
1000
0010
0000
0000
1000
0010
0100
0001
0010
0100
1000
0001
,
1000
0000
0000
0000
0100
0000
0000
0000
0001
0000
0000
0000
0010
0000
0000
0000
0010
0000
0000
0000
0010
0000
0010
0000
0000
0000
0010
0000
0010
0000
0000
0010
,
0000
0010
0010
0000
0010
0010
0010
1000
0010
1000
0001
0100
1000
0100
0001
0000
,
1000
0000
0000
0100
0000
0000
0010
0001
0000
0000
0100
0000
0100
1000
0100
0000
,
0001
0000
0000
0100
0000
0000
0010
1000
0000
0000
0010
0000
0100
0001
0100
0000
,
0010
0000
1000
0000
0100
0000
0010
0001
0100
0010
1000
0100
0010
0001
0100
0010
,
1000
0000
0100
0010
0100
0010
0100
0000
0010
0000
0001
0000
0010
0000
0100
0000
1000
0000
0010
0000
0100
0000
0001
0000
1000
0000
0100
0000
0010
0000
0000
0000
,
0001
0100
0010
0000
1000
0100
0010
0000
0001
0100
0010
0000
1000
0100
0010
0000
,
0001
0100
0010
1000
0010
0100
0001
0010
0100
1000
0100
1000
0100
0010
0001
0010
,
0001
0010
0100
1000
0010
0100
0001
0010
0100
1000
0010
0001
0010
1000
0001
0010
,
1000
0010
0001
0000
0100
0000
0010
0000
0010
1000
0010
0000
0100
0000
0001
0000
,
2002
0000
0000
0000
0000
0000
3003
1001
,
2002
0000
3003
1001
,
1100
1000
1001
0000
0101
0001
1001
0000
,
1010
1000
1001
0000
0011
0001
1001
0000
,
1000
0100
1000
0000
0001
0100
0001
0000
1000
0010
1000
0000
0001
0010
0001
0000
,
1000
0000
0000
0010
0000
0000
1000
0000
0000
0001
0000
0000
1000
0000
0000
0000
0000
0000
0010
0000
0000
0001
0000
0000
0100
0000
0000
0000
0000
0000
0000
0000
0010
0000
0000
0000
0000
0000
0000
0001
0000
0000
1000
0000
0000
0001
0000
0000
,
1000
0000
0100
0000
0010
0000
0001
0000
0010
0000
0100
0000
1000
0000
0100
1000
,
0001
0000
0010
0000
0100
0000
0100
0000
0100
0000
0000
0000
0100
0010
0001
0000
,
1000
0010
0200
0000
1000
0000
0300
0000
1000
0010
0100
0000
0001
0010
0100
0000
,
1000
0010
0100
0000
0001
0010
0100
0000
1000
0010
0100
0000
0001
0010
0100
0000
,
0001
0000
0010
0001
0010
0000
1000
0000
0100
0000
0010
0000
0101
0000
0000
0000
,
0010
0000
1000
0010
1000
0000
0001
0000
0100
0000
0010
0000
1100
0000
0000
0000
,
1000
0001
1000
0000
1001
0000
0001
1000
0001
0000
1001
0001
0100
0010
1000
0100
,
1000
0010
0100
0001
0010
0100
1000
0001
0100
0010
1000
0001
1000
0010
0100
0001
,
2002
0000
0000
3003
;
