#TITLE:X'mas for You;
#SUBTITLE:;
#ARTIST:tetsuo;
#TITLETRANSLIT:;
#SUBTITLETRANSLIT:;
#ARTISTTRANSLIT:;
#CREDIT:;
#BANNER:X'mas for You.png;
#BACKGROUND:X'mas for You-bg.png;
#LYRICSPATH:;
#CDTITLE:cdtitle.png;
#MUSIC:X'mas for You.mp3;
#OFFSET:-1.450;
#SAMPLESTART:94.200;
#SAMPLELENGTH:12.000;
#SELECTABLE:YES;
#BPMS:0.000=165.000;
#STOPS:-4.000=12.140
;
#BGCHANGES:;

//---------------dance-single - BASIC----------------
#NOTES:
     dance-single:
     BASIC:
     Easy:
     3:
     0.237,0.396,0.262,0.064,0.000:
0000
0000
0000
0000
,
0000
0000
0000
0000
,
0000
0000
0000
0000
,
0000
0000
0000
0000
,
0000
0000
0000
0000
,
0000
0000
0000
0000
,
0000
0000
0000
0000
,
0000
0000
0000
0000
,
0000
0000
0000
0000
,
0000
0000
0000
0000
,
1000
0000
0001
0000
,
1000
0100
1001
1001
,
0001
0000
1000
0000
,
0001
0100
1001
1001
,
1000
0000
0001
0000
,
1000
0100
1001
1001
,
0001
0000
0100
0000
,
0001
0100
1001
1001
,
0020
0000
0000
0030
,
0010
0010
0010
0010
,
1000
0100
0001
1000
,
0001
0000
1000
0000
,
1001
0000
0110
0000
,
1001
0000
1001
0000
,
1000
0010
0100
0100
,
0001
0010
0100
0100
,
1000
0010
0100
0100
,
0001
0010
0100
0100
,
1000
0010
0100
0100
,
0001
0010
0100
0100
,
1000
0010
0100
0100
,
0001
0010
0100
0100
,
1000
0000
0001
0000
,
0010
0000
0100
0000
,
0010
0000
0010
0000
,
0001
0000
1000
0000
,
0010
0000
0010
0000
,
0100
0000
1000
0000
,
0001
0000
0010
0000
,
0010
0000
1000
0000
,
0002
0000
0000
0000
,
2003
0000
0000
0000
,
3020
0000
0000
0000
,
2030
0000
0000
0000
,
3002
0000
0000
0000
,
2003
0000
0000
0000
,
3001
0000
1000
0000
,
1001
0000
0110
0000
,
1000
0000
0001
0000
,
1000
0000
0001
0000
,
0100
0000
0010
0000
,
1000
0001
1000
0001
,
1000
0000
0100
0000
,
0010
0000
0001
0000
,
0100
0000
0000
0000
0010
0000
0000
1000
,
0000
0000
0000
0001
0000
0000
0000
0000
,
1000
0000
0100
0000
,
0001
0100
2000
3000
,
0001
0000
0100
0000
,
1000
0100
0002
0003
,
1000
0000
0100
0000
,
0001
0100
1000
1001
,
0001
0000
0100
0000
,
1000
0100
0001
1001
,
1000
0100
0010
0001
,
0100
1000
1001
1001
,
0001
0100
0010
1000
,
0100
0001
1001
1001
,
1000
0100
0010
0001
,
0100
1000
1001
1001
,
0001
0100
0010
1000
,
0100
0001
1001
1001
,
1001
0000
1000
0000
,
1001
0000
0001
0000
,
1001
0000
0010
0000
,
0110
0000
0100
0000
,
0110
0000
0001
0000
,
1001
0000
1000
0000
,
1001
0000
0110
0000
,
1001
0110
0110
1001
,
1001
0000
0000
0000
;

//---------------dance-single - TRICK----------------
#NOTES:
     dance-single:
     TRICK:
     Medium:
     6:
     0.425,0.453,0.474,0.226,0.007:
0000
0000
0000
0000
,
0000
0000
0000
0000
,
0000
0000
0000
0000
,
0000
0000
0000
0000
,
0000
0000
0000
0000
,
0000
0000
0000
0000
,
0000
0000
0000
0000
,
0000
0000
0000
0000
,
0000
0000
0000
0000
,
0000
0000
0000
0000
,
1000
0010
0010
0100
0001
0010
1000
0000
,
1000
0001
0100
0000
1000
0001
1001
0000
,
0001
0010
0010
0100
1000
0010
0001
0000
,
0001
1000
0100
0000
0001
1000
1001
0000
,
1000
0010
0010
0100
0001
0010
1000
0000
,
1000
0001
0100
0000
1000
0001
1001
0000
,
0001
0010
0010
0100
1000
0010
0001
0000
,
0001
1000
0100
0000
0001
1000
1001
0000
,
0010
0000
0000
0001
0000
0000
0100
0000
0010
0000
0000
1000
0000
0000
0100
0000
,
0110
1001
0110
1001
,
2000
3200
0302
0023
,
2030
3000
0002
0003
,
1001
1000
1010
0001
,
1100
1010
0011
0101
,
1001
1000
0010
0100
0100
0000
0100
0000
,
0010
1000
0000
0100
0100
0000
0100
0000
,
1000
0010
0010
0100
0100
0000
0100
0001
,
0000
0001
0010
0010
0100
0000
0100
0000
,
0001
0001
0010
0100
0100
0000
0100
0000
,
0010
0001
0000
0100
0100
0000
0100
0000
,
0001
0010
0010
0100
0100
0000
0100
1000
,
0000
1000
0010
0010
0100
0000
0100
0000
,
1000
1001
0001
0011
,
0010
0110
1000
0011
,
0100
1010
1000
0101
,
0001
0011
1001
1010
,
1000
1010
0010
0110
,
0100
0101
1000
0110
,
0001
0011
0010
1100
,
1000
0011
1010
1001
,
0002
0000
0010
0010
0000
0000
0010
0000
,
2003
0000
0010
0010
0000
0000
0010
0000
,
3002
0000
0010
0010
0000
0000
0010
0000
,
2003
0000
0010
0010
0000
0000
0010
0000
,
3002
0000
0010
0010
0000
0000
0010
0000
,
2003
0000
0010
0010
0000
0000
0010
0000
,
3002
0203
2300
3001
,
1001
0000
0110
1001
,
2000
3000
0002
0003
,
0200
0300
0002
0003
,
2000
3000
0020
0030
,
0110
1001
0110
1001
,
0210
0000
2300
0000
,
3020
0000
0032
0000
,
0103
0000
0010
0000
1000
0000
0001
1000
,
0000
0000
0000
0001
0000
0000
0000
0000
,
2000
0000
3000
0000
0100
0010
0000
0000
,
0001
0100
0100
0000
2000
0000
3000
0000
,
0002
0000
0003
0000
0100
0010
0000
0000
,
1000
0100
0100
0000
0002
0000
0003
0000
,
1000
0010
0010
0100
0001
0000
0100
0000
,
0020
2030
3002
0003
,
0100
0100
0010
1000
0001
0000
0100
0000
,
0110
1001
0110
1001
,
1000
0010
0010
0100
0001
0010
1000
0000
,
1000
0001
0100
0000
1000
0001
1001
0000
,
0001
0010
0010
0100
1000
0010
0001
0000
,
0001
1000
0100
0000
0001
1000
1001
0000
,
1000
0010
0010
0100
0001
0010
1000
0000
,
1000
0001
0100
0000
1000
0001
1001
0000
,
0001
0010
0010
0100
1000
0010
0001
0000
,
0001
0100
1000
0010
,
1001
1000
1001
0100
,
1010
0001
0101
0010
,
1001
0100
1010
0001
,
0110
0001
0110
1000
,
0110
0100
0101
0001
,
1001
1000
1010
0100
,
1001
0001
0110
0100
,
1001
1001
0110
1001
,
1001
0000
0000
0000
;

//---------------dance-single - HEAVY----------------
#NOTES:
     dance-single:
     HEAVY:
     Hard:
     9:
     0.571,0.594,0.396,0.602,0.134: // measure 1
2000
0000
3002
0000
,  // measure 2
2003
0000
3020
0000
,  // measure 3
0230
0000
0302
0000
,  // measure 4
2003
0000
3002
0000
,  // measure 5
2003
3200
2300
3200
,  // measure 6
2300
3002
0203
0302
,  // measure 7
0203
0302
2003
3200
,  // measure 8
0302
0000
1003
0000
,  // measure 9
1001
0000
0000
0110
0000
0000
0110
0000
,  // measure 10
2002
3003
0220
0330
,  // measure 11
1000
0100
0010
0000
0100
0000
0000
1000
0000
0001
0010
0000
1000
0000
0010
0000
,  // measure 12
0001
1000
0100
0000
0100
0000
0010
0001
0000
0001
0000
0100
0010
0000
1000
0000
,  // measure 13
0001
0100
0010
0000
0100
0000
0001
1000
0000
0100
0010
0000
0001
0000
1000
0000
,  // measure 14
0001
1000
0100
0010
0101
0000
1001
0000
,  // measure 15
0001
0100
0010
0000
0100
0000
0010
0001
0000
0010
1000
0000
0001
0000
1000
0000
,  // measure 16
1000
0100
0010
0000
0100
0000
1000
0001
0000
1000
0100
0000
0100
0000
1000
0000
,  // measure 17
0001
0010
0001
0000
0010
0000
0001
0100
0000
0010
0100
0000
0001
0000
1000
0000
,  // measure 18
0001
1000
0100
0010
0101
0000
1001
0000
,  // measure 19
0010
0000
0010
0000
,  // measure 20
0110
1001
0110
1001
,  // measure 21
1100
0101
0011
1010
,  // measure 22
2002
3003
0220
0330
,  // measure 23
0102
0013
0011
0001
,  // measure 24
1100
1010
0011
0101
,  // measure 25
2001
0000
3020
0100
0230
0000
0302
0000
,  // measure 26
0013
2000
0100
0100
3200
0000
0300
0000
,  // measure 27
2000
0010
3010
0100
1002
0000
0203
0001
,  // measure 28
0000
0302
0010
0013
0100
0000
1001
0000
,  // measure 29
1002
0000
0023
0100
0230
0000
2300
0000
,  // measure 30
3010
0002
0100
0100
0203
0000
0300
0000
,  // measure 31
0002
0010
0013
0100
2001
0000
3200
1000
,  // measure 32
0000
2300
0010
3010
0200
0000
0310
1000
,  // measure 33
0001
0010
1000
0010
1000
0010
0001
0010
,  // measure 34
0001
0010
1000
0010
1000
0010
0001
0010
,  // measure 35
1000
0010
1000
0010
0001
0010
0001
0010
,  // measure 36
1000
0010
0100
0010
0001
0010
0100
0010
,  // measure 37
0100
0010
0001
0010
0001
0010
1000
0010
,  // measure 38
1000
0010
0001
0010
0001
0010
1000
0010
,  // measure 39
0001
0010
0001
0010
1000
0010
1000
0010
,  // measure 40
0001
0010
0100
0010
2000
0000
3001
0000
,  // measure 41
0002
0000
0000
0000
0000
0013
0100
1000
,  // measure 42
0002
0000
0000
0000
0000
0203
0000
0310
,  // measure 43
2000
0000
0000
0000
0000
3010
0100
0001
,  // measure 44
2000
0000
0000
0000
0000
3200
0000
0310
,  // measure 45
0002
0000
0000
0000
0000
0013
0100
1000
,  // measure 46
0002
0000
0000
0000
0000
0103
1000
0001
,  // measure 47
0011
0101
1100
1010
,  // measure 48
2002
3003
0110
1001
,  // measure 49
2000
3100
0002
0103
,  // measure 50
2000
3010
0002
0013
,  // measure 51
2000
3001
0002
1003
,  // measure 52
1001
1001
0110
1001
,  // measure 53
1002
0000
2003
0000
,  // measure 54
3020
0000
0032
0000
,  // measure 55
0203
0000
2300
0000
3020
0000
0032
0200
,  // measure 56
0003
0300
0000
2002
0000
0000
3003
0000
,  // measure 57
0010
0000
0100
0000
,  // measure 58
0010
0000
0000
0000
,  // measure 59
0010
0000
0001
0000
,  // measure 60
2000
3200
0302
2003
,  // measure 61
3001
0000
0000
0000
,  // measure 62
0100
0000
0000
0000
,  // measure 63
0010
0000
0000
0000
,  // measure 64
1000
0001
0110
1001
,  // measure 65
0001
0100
0010
0000
0100
0000
0000
0001
0000
1000
0010
0000
0001
0000
0010
0000
,  // measure 66
1000
0001
0100
0000
0100
0000
0010
1000
0000
1000
0000
0100
0010
0000
0001
0000
,  // measure 67
1000
0100
0010
0000
0100
0000
1000
0001
0000
0100
0010
0000
1000
0000
0001
0000
,  // measure 68
1000
0001
0100
0010
1100
0000
1001
0000
,  // measure 69
1000
0100
0010
0000
0100
0000
0010
1000
0000
0010
0001
0000
1000
0000
0001
0000
,  // measure 70
0001
0100
0010
0000
0100
0000
0001
1000
0000
0001
0100
0000
0100
0000
0001
0000
,  // measure 71
1000
0010
1000
0000
0010
0000
1000
0100
0000
0010
0100
0000
1000
0000
0001
0000
,  // measure 72
1001
1100
0101
1001
,  // measure 73
1000
0010
0100
0001
0010
0100
1000
0100
,  // measure 74
1000
0100
0010
0001
0010
0010
0100
1000
,  // measure 75
0100
0001
0100
1000
0010
0010
0100
0001
,  // measure 76
0010
0200
1000
1000
0000
2300
0001
0000
,  // measure 77
3001
0010
0100
0010
0001
0100
0010
0010
,  // measure 78
0100
1000
1000
0100
0001
0001
0010
0100
,  // measure 79
1000
1000
0100
0001
0001
0010
1000
0001
,  // measure 80
1001
1001
0110
1001
,  // measure 81
1001
0000
0000
0000
;

//---------------dance-single - ONI----------------
#NOTES:
     dance-single:
     ONI:
     Challenge:
     10:
     0.910,1.000,0.963,1.000,0.361:
1000
0010
0100
0001
,
0100
0000
0010
0000
1000
0000
0100
0010
,
0001
0100
1000
0100
,
1001
0000
0000
0000
1000
0000
0000
0010
0100
0000
0001
0000
1000
0000
0001
0000
,
1000
1010
0001
0011
,
1000
1010
0001
1001
,
0011
0110
1100
1001
,
0001
0010
0001
0010
0001
0100
0010
0000
1000
0000
0010
0000
1000
0001
1000
0000
,
1001
0000
1000
0110
0000
0001
0110
0000
,
1001
0000
0000
0000
0110
0000
0000
0000
1000
0100
1000
0100
0010
0001
0100
0010
,
2000
3000
0000
0000
0000
0000
0000
0000
0000
0000
0000
0000
0200
0300
0000
0000
0000
0000
0000
0000
0000
0000
0000
0000
0020
0030
0000
0000
0000
0000
0000
0000
0000
0000
0000
0000
0000
0000
0000
0000
0000
0000
0000
0000
0000
0000
0000
0000
0200
0300
0000
0000
0000
0000
0000
0000
0000
0000
0000
0000
0000
0000
0000
0000
0000
0000
0000
0000
0000
0000
0000
0000
0000
0000
0000
0000
0000
0000
0000
0000
0000
0000
0000
0000
2000
3000
0000
0000
0000
0000
0000
0000
0000
0000
0000
0000
0000
0000
0000
0000
0000
0000
0000
0000
0000
0000
0000
0000
0002
0003
0000
0000
0000
0000
0000
0000
0000
0000
0000
0000
0020
0030
0000
0000
0000
0000
0000
0000
0000
0000
0000
0000
0000
0000
0000
0000
0000
0000
0000
0000
0000
0000
0000
0000
2000
3000
0000
0000
0000
0000
0000
0000
0000
0000
0000
0000
0000
0000
0000
0000
0000
0000
0000
0000
0000
0000
0000
0000
0020
0030
0000
0000
0000
0000
0000
0000
0000
0000
0000
0000
0000
0000
0000
0000
0000
0000
0000
0000
0000
0000
0000
0000
,
0002
0003
0000
0000
0000
0000
0000
0000
0000
0000
0000
0000
2000
3000
0000
0000
0000
0000
0000
0000
0000
0000
0000
0000
0200
0300
0000
0000
0000
0000
0000
0000
0000
0000
0000
0000
0000
0000
0000
0000
0000
0000
0000
0000
0000
0000
0000
0000
0200
0300
0000
0000
0000
0000
0000
0000
0000
0000
0000
0000
0000
0000
0000
0000
0000
0000
0000
0000
0000
0000
0000
0000
0020
0030
0000
0000
0000
0000
0000
0000
0000
0000
0000
0000
0002
0003
0000
0000
0000
0000
0000
0000
0000
0000
0000
0000
0000
0000
0000
0000
0000
0000
0000
0000
0000
0000
0000
0000
0002
0003
0000
0000
0000
0000
0000
0000
0000
0000
0000
0000
0000
0000
0000
0000
0000
0000
0000
0000
0000
0000
0000
0000
0200
0300
0000
0000
0000
0000
0000
0000
0000
0000
0000
0000
0020
0030
0000
0000
0000
0000
0000
0000
0000
0000
0000
0000
0000
0000
0000
0000
0000
0000
0000
0000
0000
0000
0000
0000
2000
3000
0000
0000
0000
0000
0000
0000
0000
0000
0000
0000
0000
0000
0000
0000
0000
0000
0000
0000
0000
0000
0000
0000
,
0002
0003
0000
0000
0000
0000
0000
0000
0000
0000
0000
0000
0200
0300
0000
0000
0000
0000
0000
0000
0000
0000
0000
0000
0020
0030
0000
0000
0000
0000
0000
0000
0000
0000
0000
0000
0000
0000
0000
0000
0000
0000
0000
0000
0000
0000
0000
0000
0200
0300
0000
0000
0000
0000
0000
0000
0000
0000
0000
0000
0000
0000
0000
0000
0000
0000
0000
0000
0000
0000
0000
0000
0002
0003
0000
0000
0000
0000
0000
0000
0000
0000
0000
0000
2000
3000
0000
0000
0000
0000
0000
0000
0000
0000
0000
0000
0000
0000
0000
0000
0000
0000
0000
0000
0000
0000
0000
0000
0200
0300
0000
0000
0000
0000
0000
0000
0000
0000
0000
0000
0020
0030
0000
0000
0000
0000
0000
0000
0000
0000
0000
0000
0000
0000
0000
0000
0000
0000
0000
0000
0000
0000
0000
0000
0002
0003
0000
0000
0000
0000
0000
0000
0000
0000
0000
0000
0000
0000
0000
0000
0000
0000
0000
0000
0000
0000
0000
0000
2000
3000
0000
0000
0000
0000
0000
0000
0000
0000
0000
0000
0000
0000
0000
0000
0000
0000
0000
0000
0000
0000
0000
0000
,
0002
0003
0000
0000
0000
0000
0000
0000
0000
0000
0000
0000
0000
0000
0000
0000
0000
0000
0000
0000
0000
0000
0000
0000
2000
3000
0000
0000
0000
0000
0000
0000
0000
0000
0000
0000
0000
0000
0000
0000
0000
0000
0000
0000
0000
0000
0000
0000
0200
0300
0000
0000
0000
0000
0000
0000
0000
0000
0000
0000
0000
0000
0000
0000
0000
0000
0000
0000
0000
0000
0000
0000
0020
0030
0000
0000
0000
0000
0000
0000
0000
0000
0000
0000
0000
0000
0000
0000
0000
0000
0000
0000
0000
0000
0000
0000
0101
0000
0000
0000
0000
0000
0000
0000
0000
0000
0000
0000
0000
0000
0000
0000
0000
0000
0000
0000
0000
0000
0000
0000
0000
0000
0000
0000
0000
0000
0000
0000
0000
0000
0000
0000
0000
0000
0000
0000
0000
0000
0000
0000
0000
0000
0000
0000
1001
0000
0000
0000
0000
0000
0000
0000
0000
0000
0000
0000
0000
0000
0000
0000
0000
0000
0000
0000
0000
0000
0000
0000
0000
0000
0000
0000
0000
0000
0000
0000
0000
0000
0000
0000
0000
0000
0000
0000
0000
0000
0000
0000
0000
0000
0000
0000
,
0002
0003
0000
0000
0000
0000
0000
0000
0000
0000
0000
0000
0200
0300
0000
0000
0000
0000
0000
0000
0000
0000
0000
0000
0020
0030
0000
0000
0000
0000
0000
0000
0000
0000
0000
0000
0000
0000
0000
0000
0000
0000
0000
0000
0000
0000
0000
0000
0200
0300
0000
0000
0000
0000
0000
0000
0000
0000
0000
0000
0000
0000
0000
0000
0000
0000
0000
0000
0000
0000
0000
0000
0020
0030
0000
0000
0000
0000
0000
0000
0000
0000
0000
0000
0002
0003
0000
0000
0000
0000
0000
0000
0000
0000
0000
0000
0000
0000
0000
0000
0000
0000
0000
0000
0000
0000
0000
0000
0020
0030
0000
0000
0000
0000
0000
0000
0000
0000
0000
0000
2000
3000
0000
0000
0000
0000
0000
0000
0000
0000
0000
0000
0000
0000
0000
0000
0000
0000
0000
0000
0000
0000
0000
0000
0002
0003
0000
0000
0000
0000
0000
0000
0000
0000
0000
0000
0000
0000
0000
0000
0000
0000
0000
0000
0000
0000
0000
0000
2000
3000
0000
0000
0000
0000
0000
0000
0000
0000
0000
0000
0000
0000
0000
0000
0000
0000
0000
0000
0000
0000
0000
0000
,
2000
3000
0000
0000
0000
0000
0000
0000
0000
0000
0000
0000
0200
0300
0000
0000
0000
0000
0000
0000
0000
0000
0000
0000
0020
0030
0000
0000
0000
0000
0000
0000
0000
0000
0000
0000
0000
0000
0000
0000
0000
0000
0000
0000
0000
0000
0000
0000
0200
0300
0000
0000
0000
0000
0000
0000
0000
0000
0000
0000
0000
0000
0000
0000
0000
0000
0000
0000
0000
0000
0000
0000
2000
3000
0000
0000
0000
0000
0000
0000
0000
0000
0000
0000
0002
0003
0000
0000
0000
0000
0000
0000
0000
0000
0000
0000
0000
0000
0000
0000
0000
0000
0000
0000
0000
0000
0000
0000
2000
3000
0000
0000
0000
0000
0000
0000
0000
0000
0000
0000
0200
0300
0000
0000
0000
0000
0000
0000
0000
0000
0000
0000
0000
0000
0000
0000
0000
0000
0000
0000
0000
0000
0000
0000
0200
0300
0000
0000
0000
0000
0000
0000
0000
0000
0000
0000
0000
0000
0000
0000
0000
0000
0000
0000
0000
0000
0000
0000
2000
3000
0000
0000
0000
0000
0000
0000
0000
0000
0000
0000
0000
0000
0000
0000
0000
0000
0000
0000
0000
0000
0000
0000
,
0002
0003
0000
0000
0000
0000
0000
0000
0000
0000
0000
0000
0020
0030
0000
0000
0000
0000
0000
0000
0000
0000
0000
0000
0002
0003
0000
0000
0000
0000
0000
0000
0000
0000
0000
0000
0000
0000
0000
0000
0000
0000
0000
0000
0000
0000
0000
0000
0020
0030
0000
0000
0000
0000
0000
0000
0000
0000
0000
0000
0000
0000
0000
0000
0000
0000
0000
0000
0000
0000
0000
0000
0002
0003
0000
0000
0000
0000
0000
0000
0000
0000
0000
0000
0200
0300
0000
0000
0000
0000
0000
0000
0000
0000
0000
0000
0000
0000
0000
0000
0000
0000
0000
0000
0000
0000
0000
0000
0020
0030
0000
0000
0000
0000
0000
0000
0000
0000
0000
0000
0200
0300
0000
0000
0000
0000
0000
0000
0000
0000
0000
0000
0000
0000
0000
0000
0000
0000
0000
0000
0000
0000
0000
0000
0002
0003
0000
0000
0000
0000
0000
0000
0000
0000
0000
0000
0000
0000
0000
0000
0000
0000
0000
0000
0000
0000
0000
0000
2000
3000
0000
0000
0000
0000
0000
0000
0000
0000
0000
0000
0000
0000
0000
0000
0000
0000
0000
0000
0000
0000
0000
0000
,
0002
0003
0000
0000
0000
0000
0000
0000
0000
0000
0000
0000
0000
0000
0000
0000
0000
0000
0000
0000
0000
0000
0000
0000
2000
3000
0000
0000
0000
0000
0000
0000
0000
0000
0000
0000
0000
0000
0000
0000
0000
0000
0000
0000
0000
0000
0000
0000
0200
0300
0000
0000
0000
0000
0000
0000
0000
0000
0000
0000
0000
0000
0000
0000
0000
0000
0000
0000
0000
0000
0000
0000
0020
0030
0000
0000
0000
0000
0000
0000
0000
0000
0000
0000
0000
0000
0000
0000
0000
0000
0000
0000
0000
0000
0000
0000
0101
0000
0000
0000
0000
0000
0000
0000
0000
0000
0000
0000
0000
0000
0000
0000
0000
0000
0000
0000
0000
0000
0000
0000
0000
0000
0000
0000
0000
0000
0000
0000
0000
0000
0000
0000
0000
0000
0000
0000
0000
0000
0000
0000
0000
0000
0000
0000
1001
0000
0000
0000
0000
0000
0000
0000
0000
0000
0000
0000
0000
0000
0000
0000
0000
0000
0000
0000
0000
0000
0000
0000
0000
0000
0000
0000
0000
0000
0000
0000
0000
0000
0000
0000
0000
0000
0000
0000
0000
0000
0000
0000
0000
0000
0000
0000
,
0220
0000
0000
0000
0300
0000
1030
0001
0010
0000
0200
0000
0010
0000
0300
0000
,
0110
1001
0110
1001
,
1100
0101
0011
1010
,
1001
1010
0110
0101
,
0101
0011
0011
1001
,
1100
0000
0000
0000
1010
0000
0000
0000
0011
0000
0000
0000
0101
0000
0001
1000
,
0001
0000
1000
0000
0010
0000
0100
0000
0101
0000
0000
0000
0011
0000
0010
0001
,
0010
0000
0001
0000
0100
0000
0110
0000
0101
0000
0000
0000
1010
0000
1000
0010
,
1000
0010
0010
1010
1001
0000
0101
0011
,
0000
0000
0011
0000
0010
0000
0110
0000
1100
0000
0000
0000
1000
0001
1000
0000
,
1001
0000
0001
0000
0010
0000
0110
0000
0101
0000
0000
0000
1100
0000
1000
0010
,
0100
0000
0001
0000
0100
0000
0101
0000
0110
0000
0000
0000
0101
0000
0001
0010
,
0001
0010
0010
1100
2002
0003
3100
1100
,
1000
1000
0010
1010
2001
0010
3010
1000
,
1001
1000
0001
0100
1001
0001
1000
0100
,
1001
0001
0010
0001
1001
0001
1000
0010
,
1001
1000
0001
0010
1001
0001
1000
0001
,
1001
1000
1001
0001
1001
0010
1000
0010
,
1001
1000
0001
0010
0011
0010
1000
0010
,
0011
0001
1000
0010
1010
1000
0100
0001
,
0101
0001
0100
1000
1010
0010
1000
0010
,
0101
0000
0100
0000
0110
0000
0010
0000
2010
0000
0000
0000
3001
0010
0100
1000
,
2001
0000
3001
0100
1000
0010
0100
1000
,
0001
0100
0010
1000
0100
0001
0100
1000
,
0010
0100
0001
0010
1000
0010
0100
0001
,
1000
0100
0010
0001
0100
1000
0010
0100
,
0001
0100
0010
1000
0100
0010
0100
1000
,
0001
0100
0010
1000
0001
0100
1000
0001
,
0011
0101
1100
1010
,
1001
0000
1001
0110
0110
0000
1001
0000
,
2001
3100
1002
0103
,
2001
3100
1002
0103
,
1001
1001
1001
0110
,
0110
1001
1001
1001
,
1000
0010
1000
0010
1000
0010
1000
0010
1000
0001
0100
0001
0100
0001
0100
0001
,
0100
0001
0010
0100
1000
0010
0100
0001
1000
0100
1000
0100
1000
0010
1000
0001
,
1001
0000
1010
0000
0011
0000
0101
2200
,
0000
0000
3300
2002
0000
0000
3003
0000
,
0010
1000
0100
0000
0100
0000
0000
1000
0000
0001
0010
0000
0100
0000
0010
0000
,
0001
0100
1000
0000
0100
0000
0001
0020
0000
0000
0000
0000
0030
0000
1001
0000
,
1000
0001
1000
0000
0010
0000
0000
0100
0001
0000
1000
0000
0100
0000
0100
0000
,
1100
0000
0100
0000
0101
0000
0001
0000
1001
0000
0000
1000
0001
0000
1000
0000
,
1000
0010
1000
0000
0100
0000
0001
0100
0000
1000
0010
0000
0100
0000
0001
0000
,
0100
1000
0100
0000
0001
0000
0010
0200
0000
0000
0300
0000
1000
0000
0001
0000
,
0010
0001
0010
0000
0100
0000
1000
0001
0100
0000
1000
0000
0001
0000
0001
1000
,
0001
0101
0100
0010
0110
0000
1001
0000
,
0002
0003
0000
0000
0000
0000
0000
0000
0000
0000
0000
0000
0200
0300
0000
0000
0000
0000
0000
0000
0000
0000
0000
0000
0020
0030
0000
0000
0000
0000
0000
0000
0000
0000
0000
0000
0000
0000
0000
0000
0000
0000
0000
0000
0000
0000
0000
0000
0200
0300
0000
0000
0000
0000
0000
0000
0000
0000
0000
0000
0000
0000
0000
0000
0000
0000
0000
0000
0000
0000
0000
0000
0000
0000
0000
0000
0000
0000
0000
0000
0000
0000
0000
0000
0002
0003
0000
0000
0000
0000
0000
0000
0000
0000
0000
0000
0000
0000
0000
0000
0000
0000
0000
0000
0000
0000
0000
0000
2000
3000
0000
0000
0000
0000
0000
0000
0000
0000
0000
0000
0020
0030
0000
0000
0000
0000
0000
0000
0000
0000
0000
0000
0000
0000
0000
0000
0000
0000
0000
0000
0000
0000
0000
0000
0002
0003
0000
0000
0000
0000
0000
0000
0000
0000
0000
0000
0000
0000
0000
0000
0000
0000
0000
0000
0000
0000
0000
0000
0020
0030
0000
0000
0000
0000
0000
0000
0000
0000
0000
0000
0000
0000
0000
0000
0000
0000
0000
0000
0000
0000
0000
0000
,
2000
3000
0000
0000
0000
0000
0000
0000
0000
0000
0000
0000
0002
0003
0000
0000
0000
0000
0000
0000
0000
0000
0000
0000
0200
0300
0000
0000
0000
0000
0000
0000
0000
0000
0000
0000
0000
0000
0000
0000
0000
0000
0000
0000
0000
0000
0000
0000
0200
0300
0000
0000
0000
0000
0000
0000
0000
0000
0000
0000
0000
0000
0000
0000
0000
0000
0000
0000
0000
0000
0000
0000
0020
0030
0000
0000
0000
0000
0000
0000
0000
0000
0000
0000
2000
3000
0000
0000
0000
0000
0000
0000
0000
0000
0000
0000
0000
0000
0000
0000
0000
0000
0000
0000
0000
0000
0000
0000
2000
3000
0000
0000
0000
0000
0000
0000
0000
0000
0000
0000
0000
0000
0000
0000
0000
0000
0000
0000
0000
0000
0000
0000
0200
0300
0000
0000
0000
0000
0000
0000
0000
0000
0000
0000
0020
0030
0000
0000
0000
0000
0000
0000
0000
0000
0000
0000
0000
0000
0000
0000
0000
0000
0000
0000
0000
0000
0000
0000
0002
0003
0000
0000
0000
0000
0000
0000
0000
0000
0000
0000
0000
0000
0000
0000
0000
0000
0000
0000
0000
0000
0000
0000
,
2000
3000
0000
0000
0000
0000
0000
0000
0000
0000
0000
0000
0200
0300
0000
0000
0000
0000
0000
0000
0000
0000
0000
0000
0020
0030
0000
0000
0000
0000
0000
0000
0000
0000
0000
0000
0000
0000
0000
0000
0000
0000
0000
0000
0000
0000
0000
0000
0200
0300
0000
0000
0000
0000
0000
0000
0000
0000
0000
0000
0000
0000
0000
0000
0000
0000
0000
0000
0000
0000
0000
0000
2000
3000
0000
0000
0000
0000
0000
0000
0000
0000
0000
0000
0002
0003
0000
0000
0000
0000
0000
0000
0000
0000
0000
0000
0000
0000
0000
0000
0000
0000
0000
0000
0000
0000
0000
0000
0200
0300
0000
0000
0000
0000
0000
0000
0000
0000
0000
0000
0020
0030
0000
0000
0000
0000
0000
0000
0000
0000
0000
0000
0000
0000
0000
0000
0000
0000
0000
0000
0000
0000
0000
0000
2000
3000
0000
0000
0000
0000
0000
0000
0000
0000
0000
0000
0000
0000
0000
0000
0000
0000
0000
0000
0000
0000
0000
0000
0002
0003
0000
0000
0000
0000
0000
0000
0000
0000
0000
0000
0000
0000
0000
0000
0000
0000
0000
0000
0000
0000
0000
0000
,
2000
3000
0000
0000
0000
0000
0000
0000
0000
0000
0000
0000
0000
0000
0000
0000
0000
0000
0000
0000
0000
0000
0000
0000
0002
0003
0000
0000
0000
0000
0000
0000
0000
0000
0000
0000
0000
0000
0000
0000
0000
0000
0000
0000
0000
0000
0000
0000
0200
0300
0000
0000
0000
0000
0000
0000
0000
0000
0000
0000
0000
0000
0000
0000
0000
0000
0000
0000
0000
0000
0000
0000
0020
0030
0000
0000
0000
0000
0000
0000
0000
0000
0000
0000
0000
0000
0000
0000
0000
0000
0000
0000
0000
0000
0000
0000
1100
0000
0000
0000
0000
0000
0000
0000
0000
0000
0000
0000
0000
0000
0000
0000
0000
0000
0000
0000
0000
0000
0000
0000
0000
0000
0000
0000
0000
0000
0000
0000
0000
0000
0000
0000
0000
0000
0000
0000
0000
0000
0000
0000
0000
0000
0000
0000
1001
0000
0000
0000
0000
0000
0000
0000
0000
0000
0000
0000
0000
0000
0000
0000
0000
0000
0000
0000
0000
0000
0000
0000
0000
0000
0000
0000
0000
0000
0000
0000
0000
0000
0000
0000
0000
0000
0000
0000
0000
0000
0000
0000
0000
0000
0000
0000
,
2000
3000
0000
0000
0000
0000
0000
0000
0000
0000
0000
0000
0020
0030
0000
0000
0000
0000
0000
0000
0000
0000
0000
0000
0200
0300
0000
0000
0000
0000
0000
0000
0000
0000
0000
0000
0000
0000
0000
0000
0000
0000
0000
0000
0000
0000
0000
0000
0020
0030
0000
0000
0000
0000
0000
0000
0000
0000
0000
0000
0000
0000
0000
0000
0000
0000
0000
0000
0000
0000
0000
0000
0200
0300
0000
0000
0000
0000
0000
0000
0000
0000
0000
0000
2000
3000
0000
0000
0000
0000
0000
0000
0000
0000
0000
0000
0000
0000
0000
0000
0000
0000
0000
0000
0000
0000
0000
0000
0200
0300
0000
0000
0000
0000
0000
0000
0000
0000
0000
0000
0002
0003
0000
0000
0000
0000
0000
0000
0000
0000
0000
0000
0000
0000
0000
0000
0000
0000
0000
0000
0000
0000
0000
0000
2000
3000
0000
0000
0000
0000
0000
0000
0000
0000
0000
0000
0000
0000
0000
0000
0000
0000
0000
0000
0000
0000
0000
0000
0002
0003
0000
0000
0000
0000
0000
0000
0000
0000
0000
0000
0000
0000
0000
0000
0000
0000
0000
0000
0000
0000
0000
0000
,
0002
0003
0000
0000
0000
0000
0000
0000
0000
0000
0000
0000
0020
0030
0000
0000
0000
0000
0000
0000
0000
0000
0000
0000
0200
0300
0000
0000
0000
0000
0000
0000
0000
0000
0000
0000
0000
0000
0000
0000
0000
0000
0000
0000
0000
0000
0000
0000
0020
0030
0000
0000
0000
0000
0000
0000
0000
0000
0000
0000
0000
0000
0000
0000
0000
0000
0000
0000
0000
0000
0000
0000
0002
0003
0000
0000
0000
0000
0000
0000
0000
0000
0000
0000
2000
3000
0000
0000
0000
0000
0000
0000
0000
0000
0000
0000
0000
0000
0000
0000
0000
0000
0000
0000
0000
0000
0000
0000
0002
0003
0000
0000
0000
0000
0000
0000
0000
0000
0000
0000
0020
0030
0000
0000
0000
0000
0000
0000
0000
0000
0000
0000
0000
0000
0000
0000
0000
0000
0000
0000
0000
0000
0000
0000
0020
0030
0000
0000
0000
0000
0000
0000
0000
0000
0000
0000
0000
0000
0000
0000
0000
0000
0000
0000
0000
0000
0000
0000
0002
0003
0000
0000
0000
0000
0000
0000
0000
0000
0000
0000
0000
0000
0000
0000
0000
0000
0000
0000
0000
0000
0000
0000
,
2000
3000
0000
0000
0000
0000
0000
0000
0000
0000
0000
0000
0200
0300
0000
0000
0000
0000
0000
0000
0000
0000
0000
0000
2000
3000
0000
0000
0000
0000
0000
0000
0000
0000
0000
0000
0000
0000
0000
0000
0000
0000
0000
0000
0000
0000
0000
0000
0200
0300
0000
0000
0000
0000
0000
0000
0000
0000
0000
0000
0000
0000
0000
0000
0000
0000
0000
0000
0000
0000
0000
0000
2000
3000
0000
0000
0000
0000
0000
0000
0000
0000
0000
0000
0020
0030
0000
0000
0000
0000
0000
0000
0000
0000
0000
0000
0000
0000
0000
0000
0000
0000
0000
0000
0000
0000
0000
0000
0200
0300
0000
0000
0000
0000
0000
0000
0000
0000
0000
0000
0020
0030
0000
0000
0000
0000
0000
0000
0000
0000
0000
0000
0000
0000
0000
0000
0000
0000
0000
0000
0000
0000
0000
0000
2000
3000
0000
0000
0000
0000
0000
0000
0000
0000
0000
0000
0000
0000
0000
0000
0000
0000
0000
0000
0000
0000
0000
0000
0002
0003
0000
0000
0000
0000
0000
0000
0000
0000
0000
0000
0000
0000
0000
0000
0000
0000
0000
0000
0000
0000
0000
0000
,
0001
0100
1000
0000
0001
0100
0001
1000
0010
0100
0001
1000
0001
1000
0001
1000
,
1001
0010
0100
0001
0011
0100
1000
0100
,
1100
0100
0010
0001
0011
0010
0110
0100
,
1100
1000
0010
1000
1010
0010
0100
0001
,
0011
0000
0001
0000
1000
0000
1000
0000
1010
0000
1000
0001
1000
0000
0001
0000
,
1001
0001
0100
0010
0101
0100
0010
0010
,
1010
1000
1010
0010
0110
0100
1100
1000
,
1001
0001
0100
1000
1010
0010
1000
0001
,
1000
0001
1000
0000
0001
1000
0001
0000
1000
0010
0100
0001
0010
0100
1000
0001
,
2002
0000
0000
0000
,
3003
0000
0000
0000
;
