#TITLE:White Spring;
#SUBTITLE:;
#ARTIST:wata;
#TITLETRANSLIT:;
#SUBTITLETRANSLIT:;
#ARTISTTRANSLIT:;
#CREDIT:;
#BANNER:White Spring.png;
#BACKGROUND:White Spring-bg.png;
#LYRICSPATH:;
#CDTITLE:cdtitle.png;
#MUSIC:White Spring.mp3;
#OFFSET:-2.780;
#SAMPLESTART:115.700;
#SAMPLELENGTH:15.000;
#SELECTABLE:YES;
#BPMS:0.000=85.000,216.000=84.000,216.250=83.000,216.500=82.000,216.750=81.000,217.000=80.000,217.250=79.000,217.500=78.000,217.750=77.000,218.000=76.000,218.250=75.000,218.500=74.000,218.750=73.000,219.000=72.000,219.250=71.000,219.500=70.000,219.750=69.000,220.000=68.000,220.250=67.000,220.500=66.000,220.750=65.000,221.000=64.000,221.250=63.000,221.500=62.000,221.750=61.000,222.000=60.000,222.250=59.000,222.500=58.000,222.750=57.000,223.000=56.000,223.250=55.000,223.500=54.000,223.750=52.000,224.000=50.000;
#STOPS:;
#BGCHANGES:;

//---------------dance-single - BASIC----------------
#NOTES:
     dance-single:
     BASIC:
     Easy:
     2:
     0.081,0.131,0.000,0.147,0.000:
0000
0000
0000
0000
,
0000
0000
0000
0000
,
0000
0000
0000
0000
,
0000
0000
0000
0000
,
0000
0000
0000
0000
,
0000
0000
0000
0000
,
0000
0000
0000
0000
,
0000
0000
0000
0000
,
2000
0000
0000
0000
,
0000
0000
3200
0000
,
0320
0000
0000
0000
,
0000
0000
0031
0001
,
0200
0000
0000
0000
,
0000
0000
1300
0100
,
0002
0000
0000
0000
,
0203
0000
0000
0000
,
2300
0000
0000
0000
,
0000
0000
3002
0000
,
0023
0000
0000
0000
,
0000
0000
1030
1000
,
0200
0000
0000
0000
,
0000
0000
0301
0010
,
2000
0000
0000
0000
,
3020
0000
0000
0000
,
0031
0000
0000
0000
,
1000
0000
0000
0000
,
0001
0000
0000
0000
,
1000
0000
0000
0000
,
0001
0000
0000
0000
,
1000
0000
0000
0000
,
0001
0000
0000
0000
,
1000
0000
0000
0000
,
0001
0000
0100
0000
,
0010
0000
1000
0000
,
0001
0000
0100
0000
,
0010
0000
1000
0000
,
0001
0000
0100
0000
,
0010
0000
1000
0000
,
0001
0000
0100
0000
,
0010
0000
1000
0000
,
0200
0000
0000
0301
,
0020
0000
2030
0000
,
3001
0200
0000
0000
,
0000
0000
0000
1300
,
0001
0000
0000
0001
,
1000
0000
0000
0100
,
0020
0000
0000
0000
,
2030
0000
3200
0000
,
0302
0000
0000
0013
,
2000
0000
3002
0000
,
0103
0020
0000
0000
,
0000
0000
0000
0031
,
1000
0000
0000
1000
,
0001
0000
0000
0010
,
2000
0000
0000
0000
,
3020
0000
0000
0000
,
0130
0000
0000
0000
;

//---------------dance-single - TRICK----------------
#NOTES:
     dance-single:
     TRICK:
     Medium:
     3:
     0.150,0.181,0.023,0.147,0.000:
0000
0000
0000
0000
,
0000
0000
0000
0000
,
0000
0000
0000
0000
,
0000
0000
0000
0000
,
0000
0000
0000
0000
,
0000
0000
0000
0000
,
0000
0000
0000
0000
,
0000
0000
0000
0000
,
2000
0000
0010
0000
,
0010
0000
3200
0000
,
0320
0000
0001
0000
,
0001
0000
0031
0100
,
2000
0000
0100
0000
,
0100
0000
3001
0100
,
2000
0000
0100
0000
,
3200
0000
0001
0000
,
0320
0000
1000
0000
,
1000
0000
0230
0000
,
0320
0000
0001
0000
,
0001
0000
0031
0100
,
0020
0000
0100
0000
,
0100
0000
1030
0100
,
0020
0000
1000
0000
,
0032
0000
0100
0000
,
1003
0100
0010
0001
,
1000
0100
0010
0001
,
1000
0100
0010
0001
,
1000
0100
0010
0001
,
1000
0010
0100
0001
,
1000
0010
0100
0001
,
1000
0010
0100
0001
,
1000
0010
0100
0001
,
1000
0001
0100
0010
,
1000
0001
0100
0010
,
1000
0001
0100
0010
,
1000
0001
0100
0010
,
1000
0001
0010
0100
,
1000
0001
0010
0100
,
1000
0001
0010
0100
,
1000
0001
0010
0100
,
2000
0010
0000
3001
,
0020
0001
0230
0010
,
1300
0200
0010
0000
,
0010
0000
0010
0301
,
1100
0000
0100
0001
,
1010
0000
0001
0010
,
0200
1000
0000
1000
,
0302
0010
0203
1000
,
0320
0001
0000
0031
,
0200
1000
0302
0010
,
1003
0020
0100
0000
,
0100
0000
0100
0031
,
1010
0000
0100
1000
,
0011
0000
0100
0010
,
0002
0000
0100
0000
,
0203
0000
0010
0000
,
1300
0000
0000
0000
;

//---------------dance-single - HEAVY----------------
#NOTES:
     dance-single:
     HEAVY:
     Hard:
     4:
     0.211,0.296,0.123,0.012,0.000: // measure 1
0000
0000
0000
0000
,  // measure 2
0000
0000
0000
0000
,  // measure 3
0000
0000
0000
0000
,  // measure 4
0000
0000
0000
0000
,  // measure 5
0000
0000
0000
0000
,  // measure 6
0000
0000
0000
0000
,  // measure 7
0000
0000
0000
0000
,  // measure 8
0000
0000
0000
0000
,  // measure 9
0010
0000
0010
0000
,  // measure 10
0010
0000
1200
0000
,  // measure 11
0310
0000
0010
0000
,  // measure 12
0010
0000
0011
0100
,  // measure 13
1000
0000
1000
0000
,  // measure 14
1000
0000
0001
0100
,  // measure 15
1000
0000
1000
0000
,  // measure 16
0110
0000
0001
0000
,  // measure 17
0010
0000
0010
0000
,  // measure 18
0010
0000
0201
0000
,  // measure 19
0310
0000
0010
0000
,  // measure 20
0010
0000
1000
0100
,  // measure 21
0001
0000
0001
0000
,  // measure 22
0001
0000
1001
0100
,  // measure 23
1010
0000
1000
0000
,  // measure 24
0010
0000
0010
0000
,  // measure 25
1000
0010
0100
0001
1000
0010
0100
0001
,  // measure 26
1000
0010
0100
0001
1000
0010
0100
0001
,  // measure 27
1000
0100
0010
0001
1000
0100
0010
0001
,  // measure 28
1000
0100
0010
0001
1000
0100
0010
0001
,  // measure 29
1000
0100
0010
0100
1000
0100
0010
0100
,  // measure 30
1000
0100
0010
0100
1000
0100
0010
0100
,  // measure 31
1000
0100
0001
0100
1000
0100
0001
0100
,  // measure 32
1000
0100
0001
0100
1000
0100
0010
0001
,  // measure 33
1001
0010
0100
1000
0001
0010
0100
1000
,  // measure 34
0001
0010
0100
1000
0001
0010
0100
1000
,  // measure 35
0001
0100
0010
1000
0001
0100
0010
1000
,  // measure 36
0001
0100
0010
1000
0001
0100
0010
1000
,  // measure 37
0001
0100
0010
0100
0001
0100
0010
0100
,  // measure 38
0001
0100
0010
0100
0001
0100
0010
0100
,  // measure 39
0001
0100
1000
0100
0001
0100
1000
0100
,  // measure 40
0001
0100
1000
0100
0001
0010
0100
1000
,  // measure 41
0001
0010
0100
0001
,  // measure 42
0011
0010
1100
0001
,  // measure 43
0010
1100
0100
0001
,  // measure 44
0010
0100
1000
0001
,  // measure 45
1100
1000
1000
0001
,  // measure 46
1010
0100
0001
0010
,  // measure 47
1100
1000
0100
1000
,  // measure 48
0010
0010
0100
0001
,  // measure 49
0011
0100
0010
0001
,  // measure 50
1100
1000
0110
1000
,  // measure 51
0010
0011
0100
0001
,  // measure 52
0100
0001
1000
0010
,  // measure 53
0011
0001
0100
0100
,  // measure 54
1010
0010
0001
0100
,  // measure 55
1010
0100
0001
0100
,  // measure 56
1001
0010
0001
0100
,  // measure 57
1000
0000
0000
0000
;

//---------------dance-single - HEVEN----------------
#NOTES:
     dance-single:
     HEVEN:
     Challenge:
     5:
     0.254,0.394,0.129,0.018,0.147:
0000
0000
0000
0000
,
0000
0000
0000
0000
,
0000
0000
0000
0000
,
0000
0000
0000
0000
,
0000
0000
0000
0000
,
0000
0000
0000
0000
,
0000
0000
0000
0000
,
0000
0000
0000
0000
,
0010
0000
0010
0000
,
0010
0000
1100
0000
,
0011
0000
0010
0000
,
0010
0000
0011
0100
,
1100
0000
1000
0000
,
1000
0000
0101
0100
,
1100
0000
1000
0000
,
0110
0000
0001
0000
,
0010
0000
0010
0000
,
0010
0000
0101
0000
,
1010
0000
0010
0000
,
0010
0000
1010
0100
,
0101
0000
0001
0000
,
0001
0000
1100
0010
,
0011
0000
0001
0000
,
0110
0000
0010
0000
,
0010
0000
0010
0000
0100
0000
0001
1000
0010
0100
0010
0000
1000
0000
0001
1000
,
0010
0000
0010
0000
0100
0000
0001
0010
0100
1000
0010
0000
0100
0000
0001
1000
,
0100
0000
0100
0000
0010
0000
0001
0100
0010
1000
0001
0000
0010
0000
0100
1000
,
0001
0000
0001
0000
0010
0000
0100
1000
0001
1000
0100
0000
0010
0000
0001
1000
,
0010
0000
0010
0000
0100
0000
0010
0100
0010
1000
0001
0000
0010
0000
0100
1000
,
0100
0000
0100
0000
0010
0000
0001
1000
0100
1000
0001
0000
0010
0000
0100
0010
,
0001
0000
0001
0000
0010
0000
0100
1000
0100
0010
0001
0000
0100
0000
0001
0100
,
0010
0000
0010
0000
0100
0000
0010
1000
0001
0100
0010
0000
0100
0000
0100
0000
,
1001
0000
1000
0000
0010
0000
0100
0001
0100
0010
1000
0000
0100
0000
0010
0001
,
0100
0000
0100
0000
0010
0000
1000
0100
0001
0100
1000
0000
0010
0000
0100
0001
,
0010
0000
0010
0000
0001
0000
0100
0010
1000
0100
0010
0000
0001
0000
1000
0001
,
0100
0000
0100
0000
0010
0000
1000
0001
0100
0010
1000
0000
0100
0000
0010
0001
,
0100
0000
0100
0000
0010
0000
0100
0010
1000
0100
0010
0000
0001
0000
0100
0010
,
1000
0000
0100
0000
0100
0000
1000
0010
0100
0010
1000
0000
0100
0000
1000
0010
,
0100
0000
0100
0000
0010
0000
1000
0100
0010
0001
1000
0000
0010
0000
0100
0001
,
1000
0000
1000
0000
0010
0000
0100
0001
0010
0100
1000
0000
0010
0000
0100
0000
,
1001
0000
0010
0000
0100
0000
0001
0010
,
1000
0000
0010
0000
0100
1000
0001
0000
,
0010
1000
0100
0000
0100
0000
0001
0000
,
0010
0100
1000
0001
,
0100
1000
0010
0000
0000
0000
0000
0000
0100
0000
0000
0000
1000
0000
0000
0000
,
0100
0001
0010
0000
0000
0000
0000
0000
0100
0000
0000
0000
0010
0000
0000
0000
,
1001
1000
0100
1000
,
0011
0010
1100
0100
,
1001
0000
0100
0000
0010
0000
0001
0100
,
1000
1000
0110
0001
,
0001
0100
1000
0000
0100
0000
1000
0000
,
0100
1000
0010
1000
,
0100
0001
0010
0000
0000
0000
0000
0000
0010
0000
0000
0000
0001
0000
0000
0000
,
0100
1000
0010
0000
0000
0000
0000
0000
0010
0000
0000
0000
0100
0000
0000
0000
,
2002
0000
0000
3003
,
0020
0000
0000
0000
,
0130
0000
0000
0000
;

//---------------dance-single - BEGINNER----------------
#NOTES:
     dance-single:
     BEGINNER:
     Beginner:
     1:
     0.032,0.049,0.000,0.000,0.000:
0000
0000
0000
0000
,
0000
0000
0000
0000
,
0000
0000
0000
0000
,
0000
0000
0000
0000
,
0000
0000
0000
0000
,
0000
0000
0000
0000
,
0000
0000
0000
0000
,
0000
0000
0000
0000
,
0010
0000
0000
0000
,
0000
0000
0000
0000
,
0010
0000
0000
0000
,
0000
0000
0000
0000
,
0010
0000
0000
0000
,
0000
0000
0000
0000
,
0010
0000
0000
0000
,
0000
0000
0000
0000
,
0010
0000
0000
0000
,
0000
0000
0000
0000
,
0010
0000
0000
0000
,
0000
0000
0000
0000
,
0010
0000
0000
0000
,
0000
0000
0000
0000
,
0010
0000
0000
0000
,
0000
0000
0000
0000
,
0010
0000
0000
0000
,
1000
0000
0000
0000
,
0001
0000
0000
0000
,
0100
0000
0000
0000
,
0010
0000
0000
0000
,
1000
0000
0000
0000
,
0001
0000
0000
0000
,
0100
0000
0000
0000
,
0010
0000
0000
0000
,
1000
0000
0000
0000
,
0001
0000
0000
0000
,
0100
0000
0000
0000
,
0010
0000
0000
0000
,
1000
0000
0000
0000
,
0001
0000
0000
0000
,
0100
0000
0000
0000
,
0010
0000
0000
0000
,
0010
0000
0000
0000
,
0010
0000
0000
0000
,
0000
0000
0000
0000
,
0010
0000
0000
0000
,
0010
0000
0000
0000
,
0100
0000
0000
0000
,
0000
0000
0000
0000
,
0010
0000
0000
0000
,
0010
0000
0000
0000
,
0010
0000
0000
0000
,
0000
0000
0000
0000
,
0010
0000
0000
0000
,
0010
0000
0000
0000
,
0100
0000
0000
0000
,
0010
0000
0000
0000
,
0010
0000
0000
0000
;
