#TITLE:We were there;
#SUBTITLE:;
#ARTIST:wata;
#TITLETRANSLIT:;
#SUBTITLETRANSLIT:;
#ARTISTTRANSLIT:;
#CREDIT:;
#BANNER:We were there.png;
#BACKGROUND:We were there-bg.png;
#LYRICSPATH:;
#CDTITLE:cdtitle.png;
#MUSIC:We were there.mp3;
#OFFSET:-1.120;
#SAMPLESTART:126.000;
#SAMPLELENGTH:13.000;
#SELECTABLE:YES;
#BPMS:0.000=160.000;
#STOPS:;
#BGCHANGES:-3.000=We were there.avi=1.000=1=1=0,
399.000=We were there-bg.png=1.000=1=0=1,
99999=-nosongbg-=1.000=0=0=0 // don't automatically add -songbackground-
;

//---------------dance-single - BASIC----------------
#NOTES:
     dance-single:
     BASIC:
     Easy:
     1:
     0.110,0.150,0.092,0.000,0.000:
0000
0000
0000
0000
,
0000
0000
0000
0000
,
0000
0000
0000
0000
,
0000
0000
0000
0000
,
0000
0000
0000
0000
,
0000
0000
0000
0000
,
0000
0000
0000
0001
,
0000
0000
1000
0000
,
0000
0001
0000
0000
,
0100
0000
0000
0010
,
0000
0000
1000
0000
,
0000
0001
0000
0000
,
1001
0000
0000
1000
,
0000
0000
0001
0000
,
0000
1000
0000
0000
,
0100
0000
0000
0010
,
0000
0000
0001
0000
,
0000
1001
0000
0000
,
0100
0000
0000
0010
,
0000
0000
1000
0000
,
0000
0001
0000
0000
,
1000
0000
0000
0100
,
0000
0000
0010
0000
,
0000
0001
0000
0000
,
1001
0000
0000
1000
,
0000
0000
0010
0000
,
0000
1000
0000
0000
,
0100
0000
0000
0010
,
0000
0000
0001
0000
,
0000
1000
0000
0000
,
0000
0000
0000
0001
,
0000
0000
0010
0000
,
0000
0001
0000
0000
,
0100
0000
0000
0010
,
0000
0000
1000
0000
,
0000
0001
0000
0000
,
0000
0000
0000
0001
,
0000
0000
0010
0000
,
0000
0100
0000
0000
,
1000
0000
0000
0001
,
0000
0000
1000
0000
,
0000
0010
0000
0000
,
0100
0000
0000
0001
,
0000
0000
0010
0000
,
0000
0001
0000
0000
,
0010
0000
0000
0100
,
0000
0000
1000
0000
,
0000
0001
0000
0000
,
1001
0000
0000
1000
,
0000
0000
1000
0000
,
0000
1000
0000
0000
,
0000
0000
0000
0001
,
0000
0000
0001
0000
,
0000
0001
0000
0000
,
0000
0000
0000
0100
,
0000
0000
0000
0000
,
0000
0010
0000
0000
,
0000
0000
0000
0100
,
0000
0000
0000
0000
,
0000
0010
0000
0000
,
0010
0000
0000
0010
,
0000
0000
1001
0000
,
0000
0001
0000
0000
,
0001
0000
0000
0001
,
0000
0000
0001
0000
,
0000
1000
0000
0000
,
1000
0000
0000
1000
,
0000
0000
1000
0000
,
0000
0001
0000
0000
,
0010
0000
0000
0100
,
0000
0000
1000
0000
,
0000
1000
0000
0000
,
0010
0000
0000
0100
,
0000
0000
0001
0000
,
0000
0110
0000
0000
,
0000
0000
0000
1001
,
0000
0000
0000
0000
,
0000
0110
0000
0000
,
0000
0000
0000
1001
,
0000
0000
0000
0000
,
0000
1001
0000
0000
,
0010
0000
0000
1001
,
0000
0000
0100
0000
,
0000
1001
0000
0000
,
0010
0000
0000
1001
,
0000
0000
0000
0000
,
0000
1000
0000
0000
,
0010
0000
0000
0100
,
0000
0000
0100
0000
,
0000
0001
0000
0000
,
0010
0000
0000
0010
,
0000
0000
1000
0000
,
0000
1001
0000
0000
,
0001
0000
0000
0100
,
0000
0000
0100
0000
,
0000
1000
0000
0000
,
0010
0000
0000
0001
,
0000
0000
0100
0000
,
0000
1001
0000
0000
;

//---------------dance-single - TRICK----------------
#NOTES:
     dance-single:
     TRICK:
     Medium:
     4:
     0.221,0.270,0.080,0.006,0.000:
0000
0000
0000
0000
,
0000
0000
0000
0000
,
0000
0000
0000
0000
,
0000
0000
0000
0000
,
0000
0000
0000
0000
,
0000
0000
0000
0000
,
0000
0000
0000
0001
,
0010
0000
1000
0010
,
0000
0001
0010
0000
,
1000
0100
0000
0001
,
0100
0000
1000
0100
,
0000
0001
1000
0000
,
1001
0000
0000
1000
,
0001
0000
0001
1000
,
0000
1000
0100
0000
,
0100
0010
0000
0001
,
0001
0000
1000
1000
,
0000
1001
0000
0000
,
0100
0000
0000
0010
,
1000
0000
1000
0001
,
0000
0001
0010
0000
,
0010
1000
0000
0100
,
0100
0000
0010
0010
,
0000
0001
1000
0000
,
1001
0000
1000
1000
,
0000
0100
0100
0000
,
0010
0001
0010
0000
0000
0000
1000
0000
,
1000
0000
0000
0000
1000
0010
0100
0000
,
0000
0000
0001
0100
1000
0000
0000
0000
,
1000
1000
0000
0000
,
1000
0000
0001
0001
,
0000
0010
0010
0000
,
0100
1000
0100
0000
0000
0000
0001
0000
,
0100
0000
1000
0010
,
0000
0000
0100
1000
0001
0000
0000
0000
,
0010
1001
0000
0000
,
0110
0000
0001
0010
,
0000
0010
0100
0000
,
0100
1000
0000
1000
,
0010
0000
0010
0100
,
0000
0100
0001
0000
,
0001
1000
0000
0000
,
0100
0000
0001
0010
,
0000
1000
0010
0000
,
0001
0100
0000
0100
,
1000
0000
1000
0010
,
0000
0001
0100
0000
,
1000
0001
0000
0000
,
1001
0000
0000
1000
,
0000
1000
0010
0000
,
1000
0100
0000
0000
,
1000
0000
0000
0001
,
0000
0001
0010
0000
,
0001
0100
0000
0000
,
0001
0000
0000
0100
,
0100
0000
0100
0000
,
0000
0010
0010
0000
,
0010
0000
0000
0001
,
0100
0000
0100
0000
,
0000
1000
0010
0000
,
0010
0000
0000
0020
,
0030
0100
1001
0000
,
0000
0001
0010
0010
,
0100
1000
1000
0001
,
0100
0100
0010
1000
,
1000
0100
0010
0010
,
0001
1000
1000
0010
,
0100
0100
0001
1000
,
1000
0010
0100
0100
,
0001
1000
1000
0100
,
0010
0010
1000
0001
,
0001
1000
0010
0010
,
0001
0100
0100
1000
,
0001
0001
0010
0000
,
0000
0110
0000
0000
,
0010
0000
0000
0000
0000
0000
0001
0100
,
1000
0000
0010
0000
,
0000
1001
0000
0000
,
0010
0000
0000
0000
0000
0000
1000
0100
,
0001
0000
0010
0000
,
0000
1001
0000
0000
,
0010
0000
0000
0000
0000
0000
1000
0010
,
0001
0000
0100
0000
,
0000
1001
0000
0000
,
0100
0000
0000
0000
0000
0000
0001
0010
,
1000
0000
0010
0000
,
1000
0100
0000
0001
,
0010
0000
0100
0100
,
0000
0100
0100
0000
,
0100
1000
0000
1000
,
0010
0000
0001
0100
,
0000
1000
1000
0000
,
0010
1001
0000
0000
,
0001
0010
0000
0100
,
1000
0000
1000
0010
,
0000
0100
0001
0000
,
0010
1000
0000
0100
,
0001
0000
0010
0000
,
0100
1001
0000
0000
;

//---------------dance-single - HEAVY----------------
#NOTES:
     dance-single:
     HEAVY:
     Hard:
     6:
     0.405,0.484,0.190,0.024,0.021: // measure 1
0000
0000
0000
0000
,  // measure 2
0000
0000
0000
0000
,  // measure 3
0000
0000
0000
0000
,  // measure 4
0000
0000
0000
0000
,  // measure 5
0000
0000
0000
0000
,  // measure 6
0000
0000
0000
0000
,  // measure 7
0000
0000
0000
0001
,  // measure 8
0010
0100
1000
0000
1000
0000
0010
0100
,  // measure 9
0001
0000
0001
0000
0010
0100
1000
0000
,  // measure 10
1000
0000
0100
0010
0001
0000
0001
0000
,  // measure 11
0100
0010
1000
0000
1000
0000
0100
0010
,  // measure 12
0001
0000
0001
0000
0100
0010
1000
0000
,  // measure 13
1001
0000
0000
1000
,  // measure 14
0001
0010
0001
0000
0001
0000
1000
0100
,  // measure 15
1000
1000
1100
0100
,  // measure 16
0011
0001
0001
0001
,  // measure 17
0100
0010
1000
0000
1000
0000
0100
0010
,  // measure 18
0001
1001
0001
0000
,  // measure 19
1000
1000
0000
1000
,  // measure 20
0010
1000
0100
0000
0001
0000
0010
0001
,  // measure 21
0100
0001
0011
0010
,  // measure 22
1001
1000
1000
1000
,  // measure 23
0010
0100
0001
0000
0001
0000
0010
0100
,  // measure 24
1000
0001
1000
0100
,  // measure 25
1001
0000
0000
0000
0000
0000
0100
0000
0010
1000
0000
0000
,  // measure 26
1000
0000
0000
0100
0000
0010
0001
0000
0000
0001
0000
0000
,  // measure 27
0001
0000
0000
0010
0000
0000
0100
0000
0000
0000
0000
0000
1000
0000
0000
0000
0000
0000
1000
0000
0000
0000
0100
0000
,  // measure 28
0001
0000
1001
0000
1000
0010
0001
0000
,  // measure 29
0001
0000
0001
0100
1000
0000
1000
0000
,  // measure 30
1000
0000
1000
0100
0000
0000
0000
0000
0000
0100
0000
0000
,  // measure 31
0100
0000
0000
0000
0000
0000
0001
0000
0100
0010
0000
0000
,  // measure 32
0010
0000
0000
1000
0000
0100
0010
0000
0000
0010
0000
0000
,  // measure 33
0001
0000
0000
0100
0000
0000
0010
0000
0000
0000
0000
0000
1000
0000
0000
0000
0000
0000
0001
0000
0000
0000
0100
0000
,  // measure 34
1000
1001
1000
0010
,  // measure 35
0100
0000
0100
1000
0001
0000
0100
0000
,  // measure 36
0100
1001
0000
0010
,  // measure 37
1001
0000
0001
0001
,  // measure 38
0010
0100
1000
0000
1000
0000
0100
0010
,  // measure 39
0001
0000
0001
0000
0001
1000
0010
0000
,  // measure 40
0010
0000
1000
0100
0010
0000
0001
0000
,  // measure 41
0001
0010
0100
0000
1100
0000
1001
0000
,  // measure 42
0001
0000
1000
0000
1000
0010
0100
0000
,  // measure 43
0100
0000
0001
1000
,  // measure 44
0010
0100
1000
0000
0100
0000
0001
0010
,  // measure 45
0100
0000
0100
0000
0100
1000
0010
0000
,  // measure 46
0010
0000
1000
0100
0010
0000
0010
0000
,  // measure 47
0001
0100
1000
0000
1000
0000
0011
0000
,  // measure 48
1001
0001
0000
0100
,  // measure 49
1001
0000
0000
1000
,  // measure 50
0000
0100
1000
0000
0010
0000
0000
1000
,  // measure 51
0100
0000
0100
0000
0000
0100
0001
0000
,  // measure 52
1000
0000
0100
0001
,  // measure 53
0000
0100
0001
0000
0010
0000
0000
0001
,  // measure 54
0100
0000
0100
0000
0000
0100
1000
0000
,  // measure 55
0001
0000
0000
0000
0010
0100
0100
0000
,  // measure 56
0000
1000
0100
0000
0100
0000
0000
0010
,  // measure 57
0001
0000
0001
0000
0000
0001
1000
0000
,  // measure 58
1000
0000
0000
1000
0010
0000
0010
0000
,  // measure 59
0000
0001
0100
0000
0100
0000
0000
0100
,  // measure 60
1000
0000
1000
0000
0000
0010
0100
0000
,  // measure 61
0100
0010
1000
0100
0010
0001
1001
1000
,  // measure 62
0010
0100
0001
0000
2002
0000
0000
0000
,  // measure 63
3003
0000
0001
0000
0010
0100
1000
0000
,  // measure 64
1000
0000
0010
0100
1000
0000
1000
0000
,  // measure 65
0001
0100
1000
0000
0010
0000
1000
0100
,  // measure 66
0001
0000
0010
0000
0001
0100
1000
0000
,  // measure 67
1000
0000
1000
0010
0001
0000
0010
0000
,  // measure 68
0100
1000
0001
0000
0001
0000
0001
0100
,  // measure 69
1000
0000
0010
1000
0100
1000
0001
0000
,  // measure 70
0001
0010
0100
0010
0001
0000
1000
0010
,  // measure 71
0100
0010
1000
0000
1000
0100
0001
0100
,  // measure 72
1000
0000
1000
0010
0001
0010
1000
0000
,  // measure 73
0001
0100
1000
0100
0001
0000
0001
0010
,  // measure 74
1000
0010
0001
0000
0001
0010
0100
1000
,  // measure 75
0001
0000
0110
0000
0000
0010
0000
0000
,  // measure 76
0010
0000
0000
0000
0010
0000
0001
0100
,  // measure 77
1000
0010
0000
0000
0010
0000
0000
0000
,  // measure 78
0010
0000
1001
0000
0000
0010
0000
0000
,  // measure 79
0010
0000
0000
0000
0010
0000
1000
0100
,  // measure 80
0001
0010
0000
0000
0010
0000
0000
0000
,  // measure 81
0010
0000
1001
0000
0000
0010
0000
0000
,  // measure 82
0010
0000
0000
0000
0010
0000
1000
0100
,  // measure 83
0001
0010
0000
0000
0010
0000
0000
0000
,  // measure 84
0010
0000
1001
0000
0000
0010
0000
0000
,  // measure 85
0010
0000
0000
0000
0010
0000
0001
0100
,  // measure 86
1000
0010
0000
0000
0010
0000
0001
0010
,  // measure 87
1000
0010
0001
0000
0001
0010
0100
0000
,  // measure 88
0010
0000
0010
0001
1000
0000
0010
1000
,  // measure 89
0100
0010
0001
0000
0100
0000
1001
0000
,  // measure 90
0100
0000
1000
0100
0001
0000
0010
0000
,  // measure 91
0010
0000
1001
0000
0001
0000
0001
0100
,  // measure 92
1000
0000
1000
0000
1001
0000
0010
0100
,  // measure 93
0010
0000
1001
0000
0001
0010
0100
0000
,  // measure 94
1001
0000
1000
0010
0100
0000
1001
0000
,  // measure 95
1000
0010
0001
0010
1000
0000
1010
0000
,  // measure 96
1001
0000
1000
0100
0001
0000
0001
0000
,  // measure 97
0001
0010
1000
0000
1000
0000
1000
0100
,  // measure 98
0001
0100
1000
0100
0001
0000
0010
0000
,  // measure 99
0100
2002
0000
0000
,  // measure 100
3003
0000
0000
0000
;

//---------------dance-single - ONI----------------
#NOTES:
     dance-single:
     ONI:
     Challenge:
     8:
     0.528,0.666,0.343,0.024,0.058:
0000
0000
0000
0000
,
0000
0000
0000
0000
,
0000
0000
0000
0000
,
0000
0000
0000
0000
,
0000
0000
0000
0000
,
0000
0000
0000
0000
,
0000
0000
0000
0000
0000
0000
0001
0100
,
0010
1000
0100
0010
0001
1000
0010
0100
,
0001
1000
0001
0100
0010
0100
1000
0100
,
0001
0010
0100
1000
0100
0010
0001
0100
,
0010
1000
0100
1000
0001
0010
0100
0010
,
0001
0100
0010
1000
0100
0010
0001
0100
,
1001
0000
0000
1000
,
0001
0010
0001
0000
0001
0000
1000
0100
,
1000
0000
0000
0000
1000
0000
0000
1000
0100
0000
0000
0000
0100
0000
0000
0010
,
0001
0000
0001
0000
0001
0000
0001
0100
,
0010
0000
0000
0000
1000
0000
0000
1000
0100
0000
0000
0000
0100
0000
0010
0000
,
0001
0000
0000
1001
0000
0000
0001
0010
0000
0100
1000
0000
,
1000
0000
0000
1000
0000
0000
0001
0010
0100
1000
0000
0000
,
0010
0000
0000
1000
0100
0000
0000
0000
1000
0000
0000
0000
0010
0000
0000
0001
,
0100
0000
0001
0000
0001
1000
0010
0000
,
1001
0000
1000
0000
1000
0000
1000
0010
,
0100
0000
0000
0000
0001
0000
0000
0010
0001
0000
0000
0000
0010
0000
0100
0000
,
1000
0000
0000
0000
0001
0000
0000
0000
1000
0100
0000
0000
0001
0000
0000
0000
,
1001
0000
0000
0000
0100
0000
1000
0100
,
0010
0000
0100
0000
0001
0010
0100
0000
,
0010
0000
1000
0100
0010
0000
0100
0000
,
0001
1000
0000
0000
1000
0001
0000
0000
0000
0000
0000
0000
0001
0000
0010
0000
,
0100
0000
0010
0000
1000
0100
0010
0000
,
0100
1001
0000
0100
,
1001
0000
0000
0000
0010
0000
0001
0100
,
0010
0000
0100
0000
1000
0010
0100
0000
,
0010
0000
0001
0100
0010
0000
0100
0000
,
1000
0001
0000
0000
0001
1000
0000
0000
0000
0000
0000
0000
1000
0000
0010
0000
,
0100
0000
0010
0000
0001
0100
0010
0000
,
0100
1001
0000
0010
,
1001
0000
0001
1000
,
0100
0001
0010
0000
1001
0000
0010
0000
,
1000
0100
0001
0000
1001
0000
0110
0000
,
0010
0000
0100
0000
0001
0100
1000
0000
,
1001
0000
0100
1000
0010
0000
1001
0000
,
0010
0000
1100
0000
1000
0010
0100
0000
,
0100
0000
0001
1000
,
1000
0010
0001
0000
1001
0000
0001
0000
,
0010
0100
1000
0000
1100
0000
0010
0000
,
0101
0000
1000
0000
0001
0010
1000
0000
,
0100
0000
1000
0100
0001
0000
0010
0000
,
1001
0110
0000
0100
,
1001
0000
0000
0000
0000
0000
1000
1000
,
0000
0100
1000
0000
0010
0000
0010
1000
,
0100
0000
0100
0000
0100
0010
0001
0000
,
1000
0000
0000
0000
1000
0000
0001
0001
,
0000
0100
0001
0000
0010
0000
0010
0001
,
0100
0000
0100
0000
0010
0100
1000
0000
,
0001
0000
0000
0001
0010
0100
1000
0000
,
1000
0100
0100
0000
0100
0000
0010
0001
,
0001
0000
0001
0000
0001
0001
1000
0000
,
1000
0000
1000
1000
0010
0000
0010
0000
,
0001
0001
0100
0000
0100
0000
0100
0100
,
1000
0000
1000
0000
1000
0010
0100
0000
,
0100
0000
0010
0000
1000
0001
0100
0000
0010
0000
1000
0000
1001
0000
0001
1000
,
0100
0010
0001
1000
2002
0000
0000
0000
,
3003
0000
0001
0010
0100
1000
0100
0010
,
0001
0010
0100
1000
0100
0010
0001
0100
,
0010
1000
0010
0100
0001
0100
0010
1000
,
0010
0100
0001
0100
0010
1000
0100
0010
,
0001
0100
0010
1000
0100
0010
0001
0010
,
0100
0001
0010
0100
0010
0100
1000
0010
,
0100
1000
0001
0010
0100
1000
0100
0010
,
0001
0010
0100
1000
0100
0010
0001
0100
,
0010
1000
0010
0100
0001
0100
0010
1000
,
0010
0100
0001
0100
0010
1000
0100
0010
,
0001
0100
0010
1000
0100
0010
0001
0010
,
1000
0000
0001
0000
0100
0000
1000
0000
0001
0000
0010
0000
0100
1000
0001
0000
,
0010
1000
1001
0000
0000
0010
0000
1000
,
0001
0000
0100
0000
0100
0000
1001
0110
,
0001
1000
0000
0100
0010
0000
0010
0000
,
0100
0000
1001
0000
0000
0010
0000
0001
,
1000
0000
0100
0000
0100
0000
1001
0110
,
1000
0001
0000
0100
0010
0000
0010
0000
,
0100
0000
1001
0000
0010
0100
0000
0001
,
1000
0000
0100
0000
0100
0000
1001
0110
,
1001
0100
0000
0100
0010
0000
0010
0000
,
0100
0000
1001
0000
0010
0100
0000
1000
,
0001
0000
0100
0000
0100
0000
1001
0110
,
1001
0100
0000
0000
0010
0000
1000
0100
,
0010
0001
1001
1000
0010
0100
0001
1000
,
1001
0001
0010
0100
1000
0001
1001
1000
,
0100
0010
0001
0100
1001
0001
0100
0010
,
1000
0100
1001
1000
0100
0001
0100
1000
,
1001
0001
0100
1000
0100
0001
1001
0100
,
1000
1001
0100
0001
1001
0100
1000
1001
,
0100
0001
1001
1000
0100
0010
0100
1000
,
1001
0001
0100
0010
0100
0001
1001
0100
,
0010
0001
0010
0100
1001
0010
0100
1000
,
0100
0010
1001
1000
0100
0001
0010
1000
,
1001
0001
0100
1000
0010
0001
1001
0010
,
0100
0000
1001
0000
0010
0000
0100
0000
1001
0000
0100
0000
0010
1000
0001
0000
,
0100
0010
2002
0000
0000
0000
0000
0000
,
3003
0000
0000
0000
;
