#TITLE:Verre;
#SUBTITLE:-Sunset, ibiza Mix-;
#ARTIST:TAK;
#TITLETRANSLIT:;
#SUBTITLETRANSLIT:;
#ARTISTTRANSLIT:;
#CREDIT:;
#BANNER:Verre -Sunset ibiza Mix-.png;
#BACKGROUND:Verre -Sunset ibiza Mix--bg.png;
#LYRICSPATH:;
#CDTITLE:Sunset Cafe Del Mar.png;
#MUSIC:Verre -Sunset ibiza Mix-.mp3;
#OFFSET:0.050;
#SAMPLESTART:103.100;
#SAMPLELENGTH:12.000;
#SELECTABLE:YES;
#DISPLAYBPM:16.000:256.000;
#BPMS:0.000=128.000,132.000=64.000,148.000=32.000,156.000=16.000,157.000=256.001,269.000=8.000,269.250=4.000,269.375=2.000,269.500=-1.000,270.000=512.000,272.000=1024.000;
#STOPS:;
#BGCHANGES:0.000=Verre -Sunset ibiza Mix-.avi=1.000=1=0=1,
269.375=Verre -Sunset ibiza Mix--bg.png=1.000=1=0=1,
99999=-nosongbg-=1.000=0=0=0 // don't automatically add -songbackground-
;

//---------------dance-single - BASIC----------------
#NOTES:
     dance-single:
     BASIC:
     Easy:
     3:
     0.086,0.199,0.030,0.007,0.000:
0000
0000
0000
0000
,
0000
0000
0000
0000
,
0000
0000
0000
0000
,
0000
0000
0000
0000
,
0000
0000
0000
0000
,
0000
0000
0000
0000
,
0000
0000
0000
0000
,
0000
0000
0000
0000
,
0000
0000
0000
0000
,
0001
0000
0000
0000
,
1000
0000
0000
0000
,
0001
0000
0000
0000
,
1000
0000
0000
0000
,
0001
0000
0000
0000
,
1000
0000
0000
0000
,
0001
0000
0000
0000
,
1000
0000
0000
0000
,
1001
0000
0000
0000
,
0100
0000
0001
0000
,
0010
0000
0000
0000
,
1000
0000
0010
0000
,
0100
0000
0000
0000
,
0100
0000
0000
0000
,
0100
0000
0000
0000
,
0010
0000
0000
0000
,
1001
0000
0000
0000
,
1000
0000
0010
0000
,
0100
0000
0000
0000
,
0001
0000
0100
0000
,
0010
0000
0000
0000
,
0010
0000
0000
0000
,
0010
0000
0000
0000
,
0100
0000
0000
0000
,
1000
0000
0010
0100
,
0001
0000
1000
0100
,
0001
0000
0001
0000
,
0001
0000
0010
0000
,
0100
1000
0100
0001
,
0010
0100
1000
0001
,
0020
0030
1001
0000
0000
0000
0000
0000
,
0000
1000
0000
0000
,
0000
0010
0000
0000
,
0000
0100
0000
0000
,
0000
0001
0000
0000
,
0000
0010
0000
0000
,
0000
0100
0000
0000
,
0000
1000
0000
0000
,
0000
0001
0000
0000
,
0000
1000
0000
0000
,
0000
0010
0000
0000
,
0000
0010
0000
0000
,
0000
0100
0000
0000
,
0000
0100
0000
0000
,
0000
0010
0000
0000
,
0000
0010
0000
0000
,
0000
0100
0000
0000
,
0000
0100
0000
0000
,
0000
0001
0000
0000
,
0000
1000
0000
0000
,
0000
0001
0000
0000
,
0000
0010
0000
0000
,
0000
0100
0000
0000
,
0000
1000
0000
0000
,
0000
0100
0000
0000
,
0000
0001
0000
0000
,
0000
0010
0000
0000
,
0000
1000
0000
0000
,
0000
1001
0000
0000
;

//---------------dance-single - TRICK----------------
#NOTES:
     dance-single:
     TRICK:
     Medium:
     4:
     0.204,0.348,0.163,0.059,0.000:
0000
0000
0000
0000
,
0000
0000
0000
0000
,
0000
0000
0000
0000
,
0000
0000
0000
0000
,
0000
0000
0000
0000
,
0000
0000
0000
0000
,
1000
0000
0000
0000
,
0001
0000
0000
0000
,
1000
0000
0000
0000
,
0001
0100
0010
1000
,
0100
1000
0010
0100
,
0001
0010
0100
0010
,
0100
0001
0100
0010
,
1000
0100
1000
0010
,
1000
0100
1000
0010
,
0100
0100
0001
0001
,
1000
0001
1000
0001
,
1001
0000
0100
0000
,
0011
0010
0110
0100
,
1100
0000
1000
0000
,
1010
0010
0110
0100
,
0101
0000
0001
0000
,
0100
0000
0010
0000
,
1000
0100
0100
0010
,
0001
0010
1000
0000
,
1001
0000
0001
0000
,
1001
1000
1010
0010
,
0011
0000
0001
0000
,
1001
0001
0011
0010
,
1010
0000
1000
0000
,
0010
0000
0010
0000
,
0010
0010
1000
0100
,
0001
0100
1000
0010
,
0001
0000
0000
0000
0020
0001
2030
0100
,
3020
0001
0030
0000
2000
0010
3002
0010
,
0203
0001
0300
0000
0001
0000
0000
0000
,
1000
0000
0020
0000
,
0130
1001
0100
0011
,
0010
1100
1000
0011
,
0020
0030
1001
0000
0000
0000
0010
0000
,
0000
1000
0000
0100
,
0000
0010
0000
0001
,
0000
0100
0000
0010
,
0000
1000
0000
0100
,
0000
0010
0000
0001
,
0000
0001
0000
0100
,
0000
0100
0000
0010
,
0000
0010
0000
1000
,
0000
1000
0000
0001
,
0000
0001
0000
0000
,
0000
0010
0000
0000
,
0000
0100
0000
0001
,
0000
0100
0000
1000
,
0000
0010
0010
0010
,
0000
0010
0010
0010
,
0000
0100
0000
0001
,
0000
0100
0000
1000
,
0000
0010
0000
0010
,
0000
1001
0000
0100
,
0000
1001
0000
0000
,
0000
0010
0000
0000
,
0000
0100
0100
0100
,
0000
1000
1000
1000
,
0000
0001
0000
0001
,
0000
0010
0010
0010
,
0000
0010
0000
0000
,
0000
1000
0000
0000
,
0000
1001
0000
0000
;

//---------------dance-single - HEAVY----------------
#NOTES:
     dance-single:
     HEAVY:
     Hard:
     6:
     0.336,0.473,0.266,0.059,0.041: // measure 1
0000
0000
0000
0000
,  // measure 2
0001
0000
0000
0000
,  // measure 3
0001
0000
0000
0000
,  // measure 4
1000
0000
0000
0000
,  // measure 5
1000
0000
0000
0000
,  // measure 6
0001
0000
0000
0000
,  // measure 7
0001
0000
0000
0000
,  // measure 8
1000
0000
0000
0000
,  // measure 9
0001
0000
0000
0000
,  // measure 10
1000
0010
0100
0000
0010
0000
0100
0000
,  // measure 11
0101
0000
0001
0010
0010
0000
0100
0000
,  // measure 12
0001
1000
0010
1000
0001
1000
0010
1000
,  // measure 13
0001
0001
0200
0000
,  // measure 14
0310
0000
0100
0000
0001
0010
1000
0000
,  // measure 15
0010
0001
1100
0010
,  // measure 16
0101
0000
0100
0010
1000
0000
0100
0010
,  // measure 17
0001
0000
1000
0010
0001
0000
0001
0100
,  // measure 18
1001
0000
1000
0100
0010
0000
0001
0000
,  // measure 19
0011
0000
0010
0100
1000
0000
0010
0100
,  // measure 20
0001
0001
1001
1000
,  // measure 21
1010
0000
0010
0100
0001
0000
0100
0010
,  // measure 22
1000
1000
0001
0010
,  // measure 23
1001
0000
0110
0000
,  // measure 24
0012
0100
0103
1010
,  // measure 25
0001
0000
1010
0000
1000
1000
1000
0000
,  // measure 26
1001
0000
0001
0000
,  // measure 27
0001
0010
0100
0000
1000
0100
0010
0000
,  // measure 28
1001
0001
0110
1000
,  // measure 29
1000
0010
0100
0000
0001
0010
0100
0000
,  // measure 30
1001
0000
1000
0000
,  // measure 31
0210
0010
1000
0010
,  // measure 32
0001
0010
1300
0020
,  // measure 33
0001
0100
1000
0100
,  // measure 34
0031
0000
0000
0100
0000
0000
0100
0000
0110
0000
0001
0000
0110
0000
1000
0000
,  // measure 35
0110
0001
0010
0100
1001
0010
1001
0100
,  // measure 36
1001
0010
1000
0100
0001
0000
0000
0000
,  // measure 37
0010
0000
0000
0010
0000
0000
0010
0000
0020
0000
0000
0000
0000
0000
0000
0000
,  // measure 38
0130
0000
0000
0100
0000
0000
0100
0000
1001
0000
0000
0000
0000
0000
0000
0000
0010
0000
0000
0010
0000
0000
0010
0000
1001
0000
0000
0000
0000
0000
0000
0000
,  // measure 39
1000
0000
0000
1000
0000
0000
1000
0000
0110
0000
0000
0000
0000
0000
0000
0000
0001
0000
0000
0001
0000
0000
0001
0000
0110
0000
0000
0000
0000
0000
0000
0000
,  // measure 40
0020
0000
0130
0010
1001
0000
0000
0000
1000
0000
0000
0000
0010
0000
0000
0000
,  // measure 41
0100
0001
0010
0100
,  // measure 42
0010
0001
0100
1000
,  // measure 43
0100
0001
0010
0100
,  // measure 44
0010
0001
0010
1000
,  // measure 45
0010
0001
0100
0010
,  // measure 46
0100
0010
1000
0100
,  // measure 47
1000
0100
0010
0001
,  // measure 48
0010
1000
0010
0001
,  // measure 49
0100
0010
1000
0100
,  // measure 50
0001
0100
1000
0010
,  // measure 51
0100
0010
1000
0100
,  // measure 52
0010
0011
0010
0001
,  // measure 53
0100
0010
1000
0001
,  // measure 54
1000
1010
0010
0100
,  // measure 55
0001
0101
0100
0010
,  // measure 56
1000
1100
0100
0010
,  // measure 57
0001
0100
1000
0100
,  // measure 58
0001
0011
0010
1000
,  // measure 59
0010
1010
0010
1000
,  // measure 60
0010
0011
0001
0010
,  // measure 61
1000
0010
0001
0010
,  // measure 62
0001
0100
0010
1000
,  // measure 63
0100
1000
0010
0100
,  // measure 64
0001
0010
0001
0010
,  // measure 65
0100
1000
0100
1000
,  // measure 66
0010
0100
0001
0010
,  // measure 67
1000
0010
0001
0100
,  // measure 68
1000
0000
2002
3003
0000
0000
0000
0000
;

//---------------dance-single - ONI----------------
#NOTES:
     dance-single:
     ONI:
     Challenge:
     11:
     0.692,1.000,0.407,0.037,0.381:
0000
0000
0000
0000
,
0001
0010
0001
0100
,
0010
0100
0010
0100
,
0001
0100
0010
1000
,
0100
0010
0001
0010
,
0100
0010
0001
0100
,
0010
1000
0010
0100
,
0001
0010
0100
0010
,
0001
0100
0010
1000
,
0001
0010
0100
0010
0001
0100
0010
1000
,
0101
0001
0100
0010
0100
0010
1000
0100
,
1100
1000
0010
0100
0001
0010
0001
0100
,
1010
0100
0011
0100
1010
0100
0011
0100
,
1001
1000
0100
0010
0100
0001
0100
0010
,
1100
1000
0010
0100
0001
0100
0010
0100
,
0101
0001
0100
0010
1000
0100
0010
0100
,
1100
1000
0011
0001
1010
1000
0011
0001
,
1001
0000
0100
0000
1000
0100
0010
1000
0100
0000
0010
0000
0001
0000
0010
0000
,
0001
0010
0001
0000
0001
0010
0001
0000
1000
0100
0001
0000
0010
0000
0100
0000
,
0001
0010
0001
0100
0010
0000
1000
0000
1001
0000
0010
0000
1001
0000
0100
0000
,
0010
0100
0001
0010
0100
0000
1000
0000
0010
0100
0010
0000
0100
0010
0100
0000
,
0001
0010
1000
0010
0001
0000
0010
0000
0001
0000
0100
0000
0010
0000
0100
0000
,
0101
0100
0010
1000
0100
0010
0100
1000
,
0110
0001
1010
0100
1001
0100
1010
0001
,
0110
0100
0010
1000
0100
0010
0001
0100
,
0001
0100
0010
0001
0100
0000
0010
0000
0001
0000
0010
0000
0100
0000
1000
0000
,
1000
0010
1000
0000
0100
0001
0100
0000
1000
0010
0100
0001
0010
0000
0001
0000
,
1001
1000
0010
0100
0011
0100
1010
1000
,
0010
0100
0010
1000
0100
0000
0010
0000
0001
0010
0001
0000
0100
0010
0100
0000
,
0001
0100
0010
1000
0100
0000
0010
0000
0001
0000
0010
0000
0100
0000
1000
0000
,
0110
1000
0001
0010
0100
0010
0001
0110
,
1001
0100
0010
0100
1000
0100
0001
0110
,
1001
0010
0100
0010
0001
0100
1000
0010
,
0001
0000
0010
0100
0000
0100
0010
0000
0110
0200
0001
0310
0110
0200
1000
0310
,
0110
0200
0001
0310
0000
0010
0100
0000
1001
1000
0010
0001
1001
0001
0100
1000
,
1001
1000
0010
0001
0000
1000
0100
0000
0001
0010
0100
1000
0100
0010
0001
0100
,
0010
0000
0100
0010
0000
0010
0100
0000
0010
1001
0100
1001
0010
1001
0100
1001
,
0100
0000
0010
0100
0000
0100
0010
1000
1001
0000
0100
0000
1001
0000
0010
0000
0010
0000
0010
0100
0000
0100
0010
0001
1001
0000
0100
0000
1001
0000
1000
0000
,
1000
0000
0010
1000
0000
1000
0100
0000
0110
0000
0001
0000
0110
0000
1000
0000
0001
0000
0010
0001
0000
0001
0100
0000
0110
0000
0001
0000
0110
0000
1000
0000
,
0220
0000
0000
0000
0000
0000
0000
0000
0000
0000
0000
0000
0000
0000
0000
0000
0000
0000
0000
0000
0000
0000
0300
0000
0130
0010
0100
0010
0100
0010
0100
0010
0100
0010
0100
0010
1000
0001
1000
0001
1000
0001
1000
0001
1000
0001
1000
0001
1001
0000
0000
0000
0000
0000
0000
0000
0000
0000
0000
0000
0000
0000
0000
0000
0000
0000
0000
0000
0000
0000
0000
0000
1000
0000
0000
0000
0000
0000
0000
0000
0000
0000
0000
0000
0000
0000
0000
0000
0000
0000
0000
0000
0000
0000
0000
0000
0100
0000
0000
0000
0000
0000
0000
0000
0000
0000
0000
0000
0000
0000
0000
0000
0000
0000
0000
0000
0000
0000
0000
0000
1000
0000
0000
0000
0000
0000
0000
0000
0000
0000
0000
0000
0000
0000
0000
0000
0000
0000
0000
0000
0000
0000
0000
0000
0010
0000
0000
0000
0000
0000
0000
0000
0000
0000
0000
0000
0000
0000
0000
0000
0000
0000
0000
0000
0000
0000
0000
0000
0100
0000
0000
0000
0000
0000
0000
0000
0000
0000
0000
0000
0000
0000
0000
0000
0000
0000
0000
0000
0000
0000
0000
0000
,
0001
0010
0001
0100
0010
0100
0001
0010
,
0001
0100
0010
0100
0010
0100
0001
0100
,
0001
0100
0010
1000
0010
1000
0100
1000
,
0100
1000
0010
1000
0010
1000
0001
1000
,
0001
1000
0100
0010
0100
1000
0010
0100
,
0001
0010
0001
0100
0010
1000
0100
1000
,
0010
0100
0001
0010
0001
0100
0010
0100
,
0010
0100
0001
0010
0001
0100
0010
1000
,
0100
1000
0010
0100
0010
0100
0001
0010
,
0001
0100
0010
0100
0010
1000
0100
1000
,
0010
0100
0001
0010
0001
0100
0010
1000
,
0100
0010
0001
0010
0001
0100
0010
0100
,
0010
1000
0010
0100
1000
0100
0001
0100
,
1000
0100
0010
1000
0100
0010
0001
0010
,
1000
0010
0001
0100
0010
1000
0100
0010
,
0100
1000
0010
0001
0010
0100
0010
1000
,
0100
0010
0001
0010
0100
1000
0100
1000
,
0001
0100
0010
1000
0010
0001
0010
1000
,
0100
0010
0001
0010
0100
1000
0100
0010
,
0100
1000
0010
0001
0010
1000
0100
1000
,
0010
0100
0010
1000
0100
1000
0010
0100
,
0001
0010
0100
0010
0001
0100
0010
1000
,
0100
0010
0001
0010
0100
0010
0001
0100
,
0010
0100
0010
1000
0100
1000
0100
0010
,
0001
0010
0001
0100
0010
0100
0010
1000
,
0100
0010
0001
0010
0100
1000
0010
0100
,
0010
0001
0010
0100
1000
0100
0010
0100
,
0001
0000
0000
0000
0000
0000
0000
0000
0100
0000
0000
0000
0000
0000
0000
0000
1001
0000
0000
0000
1001
0000
1001
1001
1001
0000
0000
0000
0000
0000
0000
0000
0000
0000
0000
0000
0000
0000
0000
0000
0000
0000
0000
0000
0000
0000
0000
0000
0000
0000
0000
0000
0000
0000
0000
0000
0000
0000
0000
0000
0000
0000
0000
0000
;
