#TITLE:T-EDIT;
#SUBTITLE:;
#ARTIST:knot;
#TITLETRANSLIT:;
#SUBTITLETRANSLIT:;
#ARTISTTRANSLIT:;
#CREDIT:;
#BANNER:T-EDIT.png;
#BACKGROUND:T-EDIT-bg.png;
#LYRICSPATH:;
#CDTITLE:cdtitle.png;
#MUSIC:T-EDIT.mp3;
#OFFSET:-1.440;
#SAMPLESTART:59.600;
#SAMPLELENGTH:11.800;
#SELECTABLE:YES;
#BPMS:0.000=165.000;
#STOPS:;
#BGCHANGES:-4.000=T-EDIT.avi=1.000=1=1=0,
304.000=T-EDIT-bg.png=1.000=1=0=1,
99999=-nosongbg-=1.000=0=0=0 // don't automatically add -songbackground-
;

//---------------dance-single - BASIC----------------
#NOTES:
     dance-single:
     BASIC:
     Easy:
     4:
     0.299,0.427,0.174,0.122,0.000:
0000
0000
0000
0000
,
0000
0000
0000
0000
,
0000
0000
0000
0000
,
0000
0000
0000
0000
,
1000
0000
0010
0000
,
0001
0000
0010
0000
,
1000
0000
0010
0000
,
0001
0000
0010
0000
,
1000
0000
0100
0000
,
0001
0000
0100
0000
,
1000
0000
0100
0000
,
1001
0000
0000
0000
,
0010
0000
0010
0000
,
1000
0000
1000
0000
,
0001
0000
0001
0000
,
0010
0000
0010
0000
,
0100
0000
0100
0000
,
0010
0000
0010
0000
,
1000
0000
1000
0000
,
0001
0000
0001
0000
,
1000
0000
0001
0100
,
0001
0000
1000
0010
,
1000
0000
0100
0010
,
0100
0000
0001
0010
,
0001
0000
1000
0100
,
1000
0000
0010
0100
,
0010
0000
0100
0010
,
0100
0000
0001
1000
,
0001
0100
0100
1100
,
1000
0010
0010
0110
,
0100
0001
0001
1001
,
1000
0010
0010
1010
,
1000
0100
0100
0101
,
0001
1000
1000
1010
,
0010
1000
1000
1100
,
0100
0001
0001
1001
,
1000
0000
1000
0000
,
0010
0000
0010
0000
,
0100
0000
0100
0000
,
0010
0000
0010
0000
,
0001
0000
0001
0000
,
0010
0000
0010
0000
,
0100
0000
0100
0000
,
0010
0000
0010
0000
,
1000
0000
0100
0000
,
0100
0010
0100
0000
,
0001
0000
0100
1000
,
0010
0000
0002
0003
,
0001
0000
0100
0000
,
0100
0010
0100
0000
,
1000
0000
0100
0001
,
0010
0000
2000
3000
,
1000
0010
0100
0100
,
0010
0010
0001
0001
,
1000
0000
0201
0300
,
1000
0000
0020
0030
,
0001
0010
0100
0100
,
0010
0010
1000
1000
,
0001
0000
1200
0300
,
0001
0000
0020
0030
,
1000
0000
0100
0000
,
1000
0010
0100
0100
,
0001
0000
0100
0000
,
0001
0010
0100
0100
,
1000
0010
0010
1000
,
1000
0100
0010
0001
,
0001
0010
0010
0001
,
0001
0010
0100
1000
,
2000
3010
0100
0110
,
0002
0013
0100
0110
,
2000
3001
0100
0101
,
0002
1003
0100
1100
,
0020
1030
1100
0010
,
0020
0031
0101
0010
,
0020
1030
1100
0010
,
0020
0031
0101
1001
;

//---------------dance-single - TRICK----------------
#NOTES:
     dance-single:
     TRICK:
     Medium:
     6:
     0.444,0.460,0.330,0.069,0.004:
0000
0000
0000
0000
,
0000
0000
0000
0000
,
0000
0000
0000
0000
,
0000
0000
0000
0000
,
1010
0000
0000
0100
0010
0000
0000
0000
,
0011
0000
0000
0100
0010
0000
0000
0000
,
1010
0000
0000
0100
0010
0000
0000
0000
,
0011
0000
0000
0100
0010
0000
0000
0000
,
1001
0000
0000
0001
0100
0000
0000
0000
,
1001
0000
0000
1000
0100
0000
0000
0000
,
1001
0000
0000
0010
0100
0000
0000
0000
,
1001
0000
0000
0100
0100
0000
0000
0000
,
0010
0000
0000
0010
0000
0000
0010
0000
,
1000
0000
0000
1000
0000
0000
1000
0000
,
0001
0000
0000
0001
0000
0000
0001
0000
,
1000
0000
0000
1000
0000
0000
1000
0000
,
0100
0000
0000
0100
0000
0000
0100
0000
,
0010
0000
0000
0010
0000
0000
0010
0000
,
0001
0000
0000
0001
0000
0000
0001
0000
,
1000
0000
0000
1000
0000
0000
1001
0000
,
0001
0100
1000
0000
0001
0000
1100
0000
,
1000
0100
0001
0000
1000
0000
0101
0000
,
1000
0010
0100
0000
0100
0000
0100
0000
,
0001
0010
0100
0000
0100
0000
0100
0000
,
0001
1000
0100
0000
0100
0000
1001
0000
,
0001
1000
0100
0000
0100
0000
1001
0000
,
0010
1000
0100
0000
0100
0000
0100
0000
,
0010
0001
0100
0000
0100
0000
0100
0000
,
0001
0100
0001
0100
0010
0000
0010
0000
,
1000
0100
1000
0100
0010
0000
0010
0001
,
0100
0001
0100
0001
0010
0000
0010
0000
,
1000
0010
1000
0010
0100
0000
0100
1000
,
0010
1000
0010
1000
0100
0000
0100
0000
,
0001
0100
0001
0100
0010
0000
0010
0000
,
0010
1000
0100
1000
0100
0000
0100
0000
,
0001
1000
0001
1000
0001
0000
1001
0000
,
1000
0000
0000
0010
0000
0000
0001
0000
,
1000
0000
0000
0010
0000
0000
0001
0000
,
0100
0000
0000
0010
0000
0000
1000
0000
,
0010
0000
0000
0100
0000
0000
0001
0000
,
0010
0000
0000
0010
0000
0000
0100
0000
,
0010
0000
0000
0001
0000
0000
1000
0000
,
0010
0000
0000
0100
0000
0000
0001
0000
,
1000
0000
0000
1000
0000
0000
1000
0000
0000
0000
0000
0000
0000
0000
0000
0000
,
1000
0100
0100
0010
,
1000
0100
0001
0000
,
0002
0013
1100
1000
,
0020
0000
0031
0000
0001
0100
1000
0000
,
0001
0100
0100
0010
,
1000
0100
0001
0000
,
2000
3010
0101
0001
,
0020
0000
1030
0000
1000
0100
0001
0000
,
1000
0010
0100
0000
0100
0000
0101
0000
,
0010
1000
0001
0000
0011
0000
0101
0000
,
2000
3100
0011
0002
,
0103
0000
0110
0000
0010
1000
0100
0000
,
0001
0010
0100
0000
0100
0000
1100
0000
,
0010
0001
1000
0000
1010
0000
1100
0000
,
0002
0103
1010
2000
,
3100
0000
0110
0000
0010
0001
0100
0000
,
1000
0010
0100
0000
0100
0000
0001
0000
,
1010
0010
0001
0100
,
0001
0010
0100
0000
0100
0000
1000
0000
,
0011
0010
1000
0100
,
1010
0010
0010
1010
,
1000
0001
0100
0000
0010
0000
0001
0000
,
0011
0010
0010
0011
,
0001
1000
0100
0000
0010
0000
1000
0000
,
0001
0010
0100
0000
0100
0010
0100
0000
,
1000
0010
0100
0000
0100
0010
0100
0000
,
1000
1001
0001
1001
,
0010
0000
0010
0000
0010
0100
0010
0100
,
0010
1000
0100
0000
0100
0010
0100
0000
,
0010
0001
0100
0000
0100
0010
0100
0000
,
0010
1000
0100
0000
0101
0000
0011
0000
,
1000
0100
0001
0000
1010
0000
1001
0000
;

//---------------dance-single - HEAVY----------------
#NOTES:
     dance-single:
     HEAVY:
     Hard:
     8:
     0.623,0.723,0.477,0.191,0.104:
0000
0000
0000
0000
,
0000
0000
0000
0000
,
0000
0000
0000
0000
,
0000
0000
0000
0000
,
1000
0000
0000
0010
0000
0000
0010
0000
0010
0000
0000
0000
0010
0000
0000
0000
,
0001
0000
0000
0010
0000
0000
0010
0000
0010
0000
0000
0000
0010
0000
0000
0000
,
1000
0000
0000
1000
0000
0000
0100
0000
0100
0000
0000
0000
0100
0000
0000
0000
,
0001
0000
0000
0001
0000
0000
0100
0000
0100
0000
0000
0000
0100
0000
0000
0000
,
1000
0000
0000
0001
0000
0000
0001
0000
1000
0000
0000
0000
0100
0000
0000
0000
,
0001
0000
0000
1000
0000
0000
1000
0000
0001
0000
0000
0000
0100
0000
0000
0000
,
1000
0000
0000
0010
0000
0000
0001
0000
0100
0000
0000
0000
1000
0000
0000
0000
,
0001
0000
0000
0010
0000
0000
1000
0000
0100
0000
0000
0000
0001
0000
0000
0000
,
1010
0000
0100
0010
0000
0010
1000
0000
,
1001
0000
1000
0100
0000
0100
0001
0000
,
1001
0000
0001
0010
0000
0010
1000
0000
,
1001
0000
1000
0100
0000
0100
0001
0000
,
1001
0000
1000
0100
0000
0010
1000
0000
,
0100
0000
0010
0001
0000
0010
0100
0000
,
1000
0000
0010
0001
0000
0100
1000
0000
,
0010
0000
0100
0010
0000
1000
0001
0000
,
0001
0100
1000
0100
0001
0000
0011
0000
,
0001
0010
0100
0010
1000
0000
1100
0000
,
1000
0010
0100
0001
0100
0000
0101
0000
,
0001
1000
0100
0001
0100
0000
1100
0000
,
1000
0010
0100
1000
0100
0000
0101
0000
,
0001
1000
0100
0010
0001
0000
1001
0000
,
0001
0100
0100
1000
0001
0000
0101
0000
,
0100
1000
0010
0010
0001
0000
1001
0000
,
0001
0100
0010
0100
0101
0000
1010
0000
,
1000
0010
0100
0001
0101
0000
0011
0000
,
0001
0010
0001
0100
0110
0000
1010
0000
,
1000
0010
0100
0010
0110
0000
1001
0000
,
1000
0100
1000
0001
0101
0000
0011
0000
,
0001
0010
0100
1000
1010
0000
1100
0000
,
1000
0010
0100
0010
0101
0000
1010
0000
,
0001
0100
0010
0100
1010
0000
1001
0000
,
1000
0000
0100
0010
0001
0000
0001
0000
,
0001
0000
0100
0010
1000
0000
1000
0000
,
0100
0000
0010
0001
1000
0000
0100
0000
,
0010
0000
0001
1000
0100
0000
0010
0000
,
0010
0000
0001
0010
0100
0000
1100
0000
,
1010
0000
1000
0001
0100
0000
0110
0000
,
0101
0000
0100
1000
0010
0000
1001
0000
,
1000
0000
0000
0100
0000
0000
0001
0000
1000
0000
0000
0000
1001
0000
0000
0000
,
1000
0000
0000
0100
0000
0000
0100
0000
0000
0000
0100
0000
0020
0000
0130
0000
,
0001
0000
0000
0100
0000
0000
0100
0000
0000
0000
1000
0000
0010
0000
0100
0000
,
0001
0000
0000
0000
0000
0000
0000
0000
0010
0000
0000
0000
0000
0000
0000
0000
1000
0000
0000
0000
0000
0000
0000
0000
0100
0000
0000
0000
0002
0003
0000
0000
0000
0000
0000
0000
0000
0000
0000
0000
1000
0000
0000
0000
0000
0000
0000
0000
0100
0000
0000
0000
0000
0000
0000
0000
0010
0000
0000
0000
0000
0000
0000
0000
,
0001
0000
0000
0000
0000
0000
0000
0000
0100
0000
0000
0000
0000
0000
0000
0000
0001
0000
0000
0000
0000
0000
0000
0000
0100
0000
0000
0000
0000
0000
0000
0000
2000
0000
0000
0000
0000
0000
0000
0000
3020
0000
0000
0000
0000
0000
0000
0000
0032
0003
0000
0000
2000
3000
0000
0000
0000
0000
0000
0000
0000
0000
0000
0000
,
0001
0000
0000
0100
0000
0000
0100
0000
0000
0000
0100
0000
0020
0000
0130
0000
,
1000
0000
0000
0100
0000
0000
0100
0000
0000
0000
0001
0000
0010
0000
0100
0000
,
1000
0000
0000
0000
0000
0000
0000
0000
0010
0000
0000
0000
0000
0000
0000
0000
0001
0000
0000
0000
0000
0000
0000
0000
0100
0000
0000
0000
2000
3000
0000
0000
0000
0000
0000
0000
0000
0000
0000
0000
0001
0000
0000
0000
0000
0000
0000
0000
0100
0000
0000
0000
0000
0000
0000
0000
0010
0000
0000
0000
0000
0000
0000
0000
,
1000
0000
0000
0000
0000
0000
0000
0000
0100
0000
0000
0000
0000
0000
0000
0000
1000
0000
0000
0000
0000
0000
0000
0000
0100
0000
0000
0000
0000
0000
0000
0000
0002
0000
0000
0000
0000
0000
0000
0000
0023
0000
0000
0000
0000
0000
0000
0000
2030
3000
0000
0000
0002
0003
0000
0000
0000
0000
0000
0000
0000
0000
0000
0000
,
1000
0010
1000
0001
0101
0000
0101
0000
,
0001
0100
0001
1000
1100
0000
1100
0000
,
1000
0000
0000
0000
0000
0000
0000
0000
0010
0000
0000
0000
0000
0000
0000
0000
0100
0000
0000
0000
0000
0000
0000
0000
0001
0000
0000
0000
0020
0030
0000
0000
0000
0000
0000
0000
0000
0000
0000
0000
1000
0000
0000
0000
0000
0000
0000
0000
0100
0000
0000
0000
0000
0000
0000
0000
0001
0000
0000
0000
0000
0000
0000
0000
,
0100
0000
0000
0000
0000
0000
0000
0000
0010
0000
0000
0000
0000
0000
0000
0000
0100
0000
0000
0000
0000
0000
0000
0000
1000
0000
0000
0000
0000
0000
0000
0000
0200
0000
0000
0000
0000
0000
0000
0000
0302
0000
0000
0000
0000
0000
0000
0000
0023
0030
0000
0000
2000
3000
0000
0000
0000
0000
0000
0000
0000
0000
0000
0000
,
0001
0010
0001
1000
1100
0000
1100
0000
,
1000
0100
1000
0001
0101
0000
0101
0000
,
0001
0000
0000
0000
0000
0000
0000
0000
0010
0000
0000
0000
0000
0000
0000
0000
0100
0000
0000
0000
0000
0000
0000
0000
1000
0000
0000
0000
0020
0030
0000
0000
0000
0000
0000
0000
0000
0000
0000
0000
0001
0000
0000
0000
0000
0000
0000
0000
0100
0000
0000
0000
0000
0000
0000
0000
1000
0000
0000
0000
0000
0000
0000
0000
,
0100
0000
0000
0000
0000
0000
0000
0000
0010
0000
0000
0000
0000
0000
0000
0000
0100
0000
0000
0000
0000
0000
0000
0000
0001
0000
0000
0000
0000
0000
0000
0000
0200
0000
0000
0000
0000
0000
0000
0000
2300
0000
0000
0000
0000
0000
0000
0000
3020
0030
0000
0000
0002
0003
0000
0000
0000
0000
0000
0000
0000
0000
0000
0000
,
1000
0010
0100
0000
0101
0000
0001
0000
,
0010
1000
0100
0000
1000
0000
0100
0000
,
0001
0010
0100
0000
1100
0000
1000
0000
,
0010
0001
0100
0000
0001
0000
0100
0000
,
1000
0010
0100
0000
0001
0000
1100
0000
,
1000
0001
0100
0000
1000
0000
1001
0000
,
0001
0010
0100
0000
1000
0000
0101
0000
,
0001
1000
0100
0000
0001
0000
1001
0000
,
0001
0010
0100
0010
1000
0010
0100
0001
,
1000
0010
0100
0010
1000
0001
0100
1000
,
1100
0000
0001
0100
0010
0000
1001
0000
,
0010
0000
0000
0010
0000
0000
0100
0000
0010
0000
0100
0000
0010
0000
0100
0000
,
0010
1000
0100
0001
0100
0010
0100
0010
,
0001
0100
0010
1000
0100
0010
0100
1000
,
0010
1000
0100
0010
0101
0000
0011
0000
,
1000
0001
0000
0001
1000
0000
0100
0000
1010
0000
0000
0000
1001
0000
0000
0000
;

//---------------dance-single - ONI----------------
#NOTES:
     dance-single:
     ONI:
     Challenge:
     10:
     0.853,0.855,0.582,0.191,0.577: // measure 1
0000
0000
0000
0000
,  // measure 2
0000
0000
0000
0000
,  // measure 3
0000
0000
0000
0000
,  // measure 4
0000
0000
0000
0000
,  // measure 5
1010
0000
0000
0010
0100
0000
0010
0000
1010
0000
1000
0000
1100
0000
0000
0000
,  // measure 6
0011
0000
0000
0010
0100
0000
0010
0000
0011
0000
0001
0000
0101
0000
0000
0000
,  // measure 7
1001
0000
0000
0001
1000
0000
0100
0000
0101
0000
0001
0000
0011
0000
0000
0000
,  // measure 8
1001
0000
0000
1000
0001
0000
0100
0000
1100
0000
1000
0000
1010
0000
0000
0000
,  // measure 9
1010
0000
0000
0010
0100
0000
0001
0000
1001
0000
0100
0000
1100
0000
0000
0000
,  // measure 10
0011
0000
0000
0010
0100
0000
1000
0000
1001
0000
0100
0000
0101
0000
0000
0000
,  // measure 11
1010
0000
0000
0010
0100
0000
0001
0000
0101
0000
0010
0000
1100
0000
0000
0000
,  // measure 12
1010
0000
0000
0010
0001
0000
0100
0000
1100
0000
0000
0000
1001
0000
0000
0000
,  // measure 13
0010
0000
1000
0000
0100
0010
0000
0001
0010
0000
0100
0000
0100
1000
0010
0100
,  // measure 14
0001
0000
0100
0000
0010
1000
0000
0010
0100
0000
1000
0000
0001
0000
1000
0000
,  // measure 15
1001
0000
0001
0000
0100
0010
0000
1000
0100
0000
0100
0000
0001
0100
0010
0000
,  // measure 16
0100
0000
0010
0000
0100
1000
0000
1000
0010
0000
0100
0000
0001
0000
1000
0000
,  // measure 17
1001
0000
0001
0000
0100
0010
0000
1000
0001
0000
0010
0000
1000
0010
0100
0001
,  // measure 18
0100
0000
0100
0000
0010
1000
0000
1000
0100
0000
0001
0000
0100
0000
1000
0000
,  // measure 19
1001
0000
0001
0000
0010
0001
0000
0001
0100
0000
0100
0000
1000
0010
0100
0000
,  // measure 20
0100
0000
0000
0000
0000
0000
0000
0000
0010
0000
0000
0000
0000
0000
0000
0000
1000
0000
0000
0000
0100
0000
0000
0000
0000
0000
0000
0000
0100
0000
0000
0000
1000
0000
0000
0000
0000
0000
0000
0000
0010
0000
0000
0000
0000
0000
0000
0000
0200
0300
0000
0000
0000
0000
0000
0000
0000
0000
0000
0000
0000
0000
0000
0000
,  // measure 21
1001
0000
1000
0000
0010
0100
0010
0100
2000
0000
0000
0000
3001
0000
0000
0000
,  // measure 22
1001
0000
0001
0000
0010
0100
0010
0100
0002
0000
0000
0000
1003
0000
0001
0100
,  // measure 23
0001
0000
0010
0000
0100
0000
0001
0100
1000
0000
0000
0000
1100
0000
0000
0000
,  // measure 24
0001
0000
1000
0000
0100
0000
0001
0100
0002
0000
0000
0000
0103
0010
0100
0010
,  // measure 25
0100
0000
1000
0000
0100
0000
0001
0100
0001
0000
0000
0000
0101
0000
0000
0000
,  // measure 26
0001
0000
1000
0000
0100
0000
0010
0100
0020
0000
0000
0000
0031
0000
0100
0001
,  // measure 27
0100
0000
0100
0000
0010
0000
1000
0010
0100
0000
0000
0000
0101
0000
0000
0000
,  // measure 28
0001
0000
0010
0000
1000
0000
0010
0100
2000
0000
0000
0000
3001
0100
0001
0100
,  // measure 29
0001
0000
0100
0000
0010
0000
0100
0000
0010
1000
0000
0000
1010
0000
0010
0000
,  // measure 30
1000
0000
0010
0000
0100
0000
0001
0000
0100
0001
0000
0000
0011
0000
0010
0000
,  // measure 31
0001
0000
0100
0000
0001
0000
0100
0000
0010
1000
0000
0000
1010
0000
1000
0000
,  // measure 32
0100
0000
0001
0000
0100
0000
1000
0000
0010
0001
0000
0000
1001
0000
1000
0000
,  // measure 33
0100
0010
1001
1000
0100
1000
1001
0001
,  // measure 34
0100
0010
1010
1000
0001
0100
0101
0001
,  // measure 35
0100
0010
1010
1000
0100
1000
1100
1000
,  // measure 36
0001
0100
0101
0000
1010
0000
1001
0000
,  // measure 37
1000
0100
0000
0000
0100
0000
0010
0000
0001
0100
0000
0000
0101
0000
0000
0000
,  // measure 38
0001
0100
0000
0000
0100
0000
0010
0000
1000
0100
0000
0000
1100
0000
0000
0000
,  // measure 39
1000
0001
0000
0000
0010
0000
0001
0000
0100
1000
0000
0000
1100
0000
0000
0000
,  // measure 40
0010
1000
0000
0000
1000
0000
0100
0000
0001
0010
0000
0000
0011
0000
0000
0000
,  // measure 41
0010
0001
0000
0000
0001
0010
0001
0000
1000
0100
0000
0000
1100
0000
0000
0000
,  // measure 42
1000
0010
0000
0000
1000
0010
1000
0000
0001
0100
0000
0000
0110
0000
0000
0000
,  // measure 43
0001
0100
0000
0000
1000
0010
1000
0000
0001
0100
0000
0000
1001
0000
0000
0000
,  // measure 44
1100
0000
0000
0101
0000
0000
0001
0000
1000
0000
0000
0000
1001
0000
0000
0000
,  // measure 45
1000
0010
1000
0001
0010
0100
1000
0100
,  // measure 46
0001
0100
0010
0100
1000
0010
0100
0001
,  // measure 47
0100
0000
0000
0000
0010
0000
0000
0000
0100
0000
0000
0000
0000
0000
0000
0000
1000
0000
0000
0000
0000
0000
0000
0000
0100
0000
0000
0000
0002
0003
0000
0000
0000
0000
0000
0000
1000
0000
0000
0000
0000
0000
0000
0000
0100
0000
0000
0000
0010
0000
0000
0000
0000
0000
0000
0000
0010
0000
0000
0000
0000
0000
0000
0000
,  // measure 48
0001
0000
0000
0000
0100
0000
0000
0000
0001
0000
0000
0000
0100
0000
0000
0000
0001
0000
0000
0000
0000
0000
0000
0000
0100
0000
0000
0000
0000
0000
0000
0000
2000
0000
0000
0000
0000
0000
0000
0000
3020
0000
0000
0000
0000
0000
0000
0000
0032
0003
0000
0000
2000
3000
0000
0000
0000
0000
0000
0000
0000
0000
0000
0000
,  // measure 49
0001
0010
0001
1000
0010
0100
0001
0100
,  // measure 50
1000
0100
0010
0100
0001
0010
0100
1000
,  // measure 51
0100
0000
0000
0000
0010
0000
0000
0000
0100
0000
0000
0000
0000
0000
0000
0000
0001
0000
0000
0000
0000
0000
0000
0000
0100
0000
0000
0000
2000
3000
0000
0000
0000
0000
0000
0000
0001
0000
0000
0000
0000
0000
0000
0000
0100
0000
0000
0000
0010
0000
0000
0000
0000
0000
0000
0000
0010
0000
0000
0000
0000
0000
0000
0000
,  // measure 52
1000
0000
0000
0000
0100
0000
0000
0000
1000
0000
0000
0000
0100
0000
0000
0000
1000
0000
0000
0000
0000
0000
0000
0000
0100
0000
0000
0000
0000
0000
0000
0000
0002
0000
0000
0000
0000
0000
0000
0000
0023
0000
0000
0000
0000
0000
0000
0000
2030
3000
0000
0000
0002
0003
0000
0000
0000
0000
0000
0000
0000
0000
0000
0000
,  // measure 53
1000
0000
0010
0000
1000
0000
0100
0001
0200
0000
0000
0000
0301
0000
0000
0000
,  // measure 54
0001
0000
0010
0000
0001
0000
0100
1000
0200
0000
0000
0000
1300
0000
0100
0000
,  // measure 55
1000
0000
0000
0000
0010
0000
0000
0000
0100
0000
0000
0000
0000
0000
0000
0000
0010
0000
0000
0000
0000
0000
0000
0000
0001
0000
0000
0000
0020
0030
0000
0000
0000
0000
0000
0000
1000
0000
0000
0000
0000
0000
0000
0000
0100
0000
0000
0000
0010
0000
0000
0000
0000
0000
0000
0000
0001
0000
0000
0000
0000
0000
0000
0000
,  // measure 56
0100
0010
1000
0010
0100
0000
1000
0000
0100
0001
0100
0010
2000
3000
0000
0000
,  // measure 57
1000
0000
0100
0000
0001
0000
0100
1000
0200
0000
0000
0000
1300
0000
0000
0000
,  // measure 58
0001
0000
0100
0000
1000
0000
0100
0001
0200
0000
0000
0000
0301
0000
0000
0000
,  // measure 59
0001
0010
0001
0010
0001
0100
0001
0100
,  // measure 60
0010
1000
0010
1000
0001
1000
0001
1000
0010
0100
0010
0100
0001
1000
0001
1000
,  // measure 61
0001
0000
0100
0000
0010
0100
0000
0000
0101
0000
0100
0000
0001
0000
1000
0000
,  // measure 62
0010
0100
0000
0000
1000
0010
0100
0010
1000
0100
0000
0000
1100
0000
0000
0000
,  // measure 63
0001
0000
0010
0000
0100
1000
0000
0000
1100
0000
0100
0000
1000
0000
0001
0000
,  // measure 64
0010
0000
0001
0000
0100
0001
0000
0000
0001
0100
0001
0000
0001
0000
0000
0000
,  // measure 65
1000
0000
0010
0000
0100
0001
0000
0000
0001
1000
0000
0000
1100
0000
0000
0000
,  // measure 66
1000
0000
0001
0000
0100
0010
0000
0000
1000
0100
0000
0000
1001
0000
0000
0000
,  // measure 67
0001
0000
0010
0000
0100
1000
0000
0000
1000
0001
0000
0000
0101
0000
0000
0000
,  // measure 68
0001
0000
1000
0000
0100
0010
0000
0000
0001
0100
0000
0000
1001
0000
0000
0000
,  // measure 69
0001
0100
0001
0100
0010
0000
0010
0000
1000
0000
0010
0000
0100
0000
0001
0000
,  // measure 70
1000
0010
0100
0010
0100
0000
0010
0000
1000
0000
0010
0000
0100
0000
0001
0000
,  // measure 71
1000
0100
1000
0100
0010
0000
0100
0000
0010
0000
0001
0000
0100
0000
0010
0000
,  // measure 72
0010
0000
0000
0110
0000
0000
0010
0000
0110
0000
0010
0000
0110
0000
0010
0000
,  // measure 73
0100
0010
0100
0010
1000
0000
0100
0000
0010
0000
0100
0000
0010
0000
0001
0000
,  // measure 74
1000
0100
1000
0100
0010
0000
0001
0000
0100
0000
0010
0000
0100
0000
1000
0000
,  // measure 75
0010
1000
0010
1000
0100
0000
0010
0000
0001
0000
0100
0000
1000
0000
0001
0000
,  // measure 76
1000
0010
0000
0001
0100
0000
1000
0000
1010
0000
0000
0000
1001
0000
0000
0000
;
