#TITLE:Slinet Hill(Bell of blessing);
#SUBTITLE:;
#ARTIST:Remix by myu;
#TITLETRANSLIT:;
#SUBTITLETRANSLIT:;
#ARTISTTRANSLIT:;
#CREDIT:;
#BANNER:Slinet Hill(Bell of blessing).png;
#BACKGROUND:Slinet Hill(Bell of blessing)-bg.png;
#LYRICSPATH:;
#CDTITLE:cdtitle.png;
#MUSIC:Slinet Hill(Bell of blessing).mp3;
#OFFSET:0.030;
#SAMPLESTART:60.000;
#SAMPLELENGTH:12.000;
#SELECTABLE:YES;
#BPMS:0.000=125.000;
#STOPS:;
#BGCHANGES:;

//---------------dance-single - BASIC----------------
#NOTES:
     dance-single:
     BASIC:
     Easy:
     3:
     0.173,0.225,0.080,0.036,0.000:
0000
0000
0000
0000
,
0000
0000
0000
0000
,
0000
0000
0000
0000
,
0000
0000
0000
0000
,
0000
0000
0000
0000
,
0000
0000
0000
0000
,
0000
0000
0000
0000
,
0000
0000
0000
0000
,
1000
0000
0000
0000
,
0001
0000
0000
0000
,
1000
0000
0000
0000
,
0001
1000
0010
0000
,
1000
0000
0010
0000
,
0100
0000
0001
0000
,
0010
0000
0100
0000
,
1000
0000
0001
1000
,
0001
0010
0100
1000
,
0001
0100
0010
1000
,
0001
0001
0010
0010
,
0100
0100
1000
1000
,
0001
1000
0001
1000
,
0010
0100
0010
0100
,
0001
0000
1000
0000
,
0020
0000
0230
0000
,
0301
0000
0001
0000
,
1000
0000
1000
0000
,
0010
0000
0010
0000
,
0100
0000
0100
0000
,
1000
0010
1000
0010
,
1000
0001
1000
0001
,
1000
0100
1000
0100
,
0020
0000
0230
0000
,
0301
0000
0010
0000
,
1000
0000
0100
0000
,
0001
0000
1000
0000
,
0010
0000
0001
0000
,
1000
0000
0100
0000
,
0001
0000
0010
0000
,
1000
0000
0010
0000
,
0001
0000
1000
0000
,
0001
0100
0010
0100
,
0010
1000
0100
1000
,
0001
0010
0001
0100
,
0010
0100
0010
0010
,
1000
0000
0001
0000
,
0100
0000
0010
0000
,
0010
0000
1000
0000
,
1000
0000
0100
0000
,
1001
0000
0010
0000
,
1001
0000
0100
0000
,
1001
0000
0010
0000
,
1001
0000
0100
0000
,
1001
0000
0010
0000
,
1001
0000
0010
0000
,
1001
0000
0010
0000
,
1001
0000
0100
0010
,
0000
1001
0000
0000
;

//---------------dance-single - TRICK----------------
#NOTES:
     dance-single:
     TRICK:
     Medium:
     6:
     0.324,0.375,0.356,0.133,0.000:
0000
0000
0000
0000
,
0000
0000
0000
0000
,
0000
0000
0000
0000
,
0000
0000
0000
0000
,
0000
0000
0000
0000
,
0000
0000
0000
0000
,
0000
0000
0000
0000
,
0000
0000
0000
0000
,
1000
0010
1001
0001
,
0001
0010
1001
1000
,
1000
0100
1001
0001
,
0001
0010
1000
1001
,
1000
0010
0010
0000
0010
0100
0100
0000
,
0100
0001
0001
0000
0001
0010
0010
0000
,
0010
0100
0100
0000
0100
1000
1000
0000
,
1000
0001
1000
0001
1000
0000
1001
0000
,
0002
0000
0010
0010
0010
0000
1000
0000
,
0100
1000
0010
1000
,
2003
3020
0100
0100
,
0100
0100
0100
0130
0000
0000
0100
0000
,
1001
0000
1000
0100
0001
0000
1000
0000
,
0001
0100
0011
0100
,
1000
0010
1000
0000
0010
0100
0001
0000
,
0010
1001
0100
0110
,
2000
3001
0002
1003
,
0020
0130
0200
0310
,
0020
1030
0020
0031
,
0200
1300
0200
0301
,
1000
0010
1000
0000
1100
0000
0011
0000
,
0001
0100
1000
0100
0001
0000
0001
0000
,
1000
1100
0011
0100
,
0010
0000
1001
0110
,
1001
0001
0010
0000
,
1000
0000
0100
0010
,
1000
0000
1000
0100
,
0001
0000
0001
0010
,
1000
0000
0100
0100
,
0000
0010
1000
1000
,
0000
0100
0010
0000
,
0001
0000
1000
0000
,
0001
0110
0010
1001
,
0010
1000
0100
0001
0100
1000
0010
0000
,
0010
0011
0101
1100
,
0110
0110
1001
0010
,
1000
0000
0001
0000
1000
0000
0010
0010
,
0100
1001
0010
0101
,
0010
1000
0100
1000
0010
0100
0001
1000
,
0001
0000
0100
0000
,
2001
0000
3010
0000
,
1002
0000
0013
0000
,
2001
0100
3010
0000
,
1002
0100
0013
0000
,
1001
0100
0110
0010
,
1001
1000
0110
0001
,
1001
1001
0110
1001
,
1001
0000
0000
1000
0010
0001
0100
1000
,
0000
1001
0000
0000
;

//---------------dance-single - HEAVY----------------
#NOTES:
     dance-single:
     HEAVY:
     Hard:
     8:
     0.490,0.700,0.516,0.231,0.009:
0000
0000
0000
0000
,
0000
0000
0000
0000
,
0000
0000
0000
0000
,
0000
0000
0000
0000
,
0000
0000
0000
0000
,
0000
0000
0000
0000
,
0000
0000
0000
0000
,
0000
0000
0000
0000
,
1000
0010
1000
0100
0010
0001
0100
0010
,
1000
0100
1000
0010
0100
0001
0010
0001
,
0100
0010
1000
0100
1000
0001
1001
0000
,
0001
0010
0100
0010
1000
0100
1001
0000
,
1000
0010
1000
0000
0010
0100
0001
0000
,
0100
0001
0010
0000
0010
1000
0100
0000
,
0010
0100
1000
0000
1000
0010
0001
0000
,
1000
0100
0010
0001
0100
0010
1001
0000
,
0001
0100
0010
0100
1010
1000
0100
0010
,
0001
0100
1000
0010
0000
0010
0001
0100
,
1000
0010
0100
1000
0100
0001
0100
1000
,
0100
0110
1001
0110
0000
0000
1001
0000
,
1001
1000
0100
0010
0001
0100
0010
1000
,
0001
0100
0001
0010
0200
1000
1000
1000
,
0320
0100
0130
0201
0010
0310
1001
0000
,
0110
0000
1001
0000
0100
0000
1000
0001
,
0110
0000
0001
0100
0110
0000
1000
0100
,
0110
0000
1000
0010
0011
0000
0001
0010
,
1010
0000
1000
0010
0001
0100
1000
0100
,
0001
0010
1000
0010
0001
0100
1000
0000
,
1000
0010
0001
0000
0011
0000
0011
0000
,
0001
0100
1000
0000
1100
0000
1100
0000
,
2000
0010
3100
0100
0010
1000
0200
0010
,
0310
0001
0110
0000
1001
1001
0010
0100
,
1001
2000
3020
0001
,
2030
0010
3200
0302
,
2003
0100
3020
0032
,
0203
0010
0302
0203
,
2300
0010
3002
0203
,
1000
0320
0032
0203
,
1000
0302
0023
1000
,
0032
0100
0023
1000
,
0031
0100
1000
0010
0001
0000
1001
0000
,
0010
0100
1001
0001
0100
1000
0010
0000
,
0010
0001
0100
1000
0010
1000
0100
0001
,
0010
0100
0110
0000
1001
0000
0110
0000
,
1000
0001
0000
0000
0001
1000
0000
0000
1000
0000
0010
0000
0100
0000
0001
0000
,
1000
0000
1001
1000
0100
0000
0101
0000
,
0010
1000
0100
0001
0100
1000
0010
0001
,
0100
1000
0010
0001
0010
1000
0100
0001
,
1001
0000
0010
0000
0110
0100
0100
0000
,
1001
0000
0010
0000
0110
0100
0100
0000
,
1001
0000
0010
0000
0110
0001
1000
0000
,
1001
0000
0100
0000
0110
1000
0001
0000
,
0011
0010
0100
0010
0110
1000
0100
0010
,
1001
0100
0010
1000
0110
0001
0100
0010
,
1001
1001
1001
0110
0110
0110
1001
1001
,
1001
0010
1100
0010
0101
0010
1100
0010
,
0000
1001
0000
0000
;

//---------------dance-single - ONI----------------
#NOTES:
     dance-single:
     ONI:
     Challenge:
     9:
     0.597,0.750,0.685,0.053,0.373: // measure 1
0000
0000
0000
0000
,  // measure 2
0000
0000
0000
0000
,  // measure 3
0000
0000
0000
0000
,  // measure 4
0000
0000
0000
0000
,  // measure 5
0000
0000
0000
0000
,  // measure 6
0000
0000
0000
0000
,  // measure 7
0000
0000
0000
0000
,  // measure 8
0000
0000
0000
0000
,  // measure 9
1000
0010
0000
0000
1000
0100
0000
0000
0010
0001
0000
0000
0100
0010
0000
0000
,  // measure 10
1000
0100
0000
0000
0010
0001
0000
0000
0001
0100
0000
0000
0001
0010
0000
0000
,  // measure 11
0001
1000
0000
0000
1000
0100
0000
0000
0010
0001
0000
0000
1001
0000
0000
0000
,  // measure 12
0001
0100
0000
0000
0100
1000
0000
0000
1000
0010
0000
0000
1001
0000
0000
0000
,  // measure 13
1000
0010
1000
0010
1000
0000
0100
0000
0110
0000
0010
0000
0001
0000
0100
0000
,  // measure 14
0100
0001
0100
0001
1000
0000
0100
0000
1100
0000
1000
0000
0010
0000
0100
0000
,  // measure 15
0010
1000
0001
1000
0100
0000
1000
0000
1010
0000
0010
0000
1000
0001
1000
0100
,  // measure 16
0010
0001
0100
0010
1001
0110
1001
0110
,  // measure 17
0001
1000
0100
0000
1000
0000
0010
0000
0101
0000
0001
0000
1000
0000
0010
0000
,  // measure 18
1000
0010
0100
0000
0100
0000
0010
0000
1001
0000
0010
0000
0001
0000
0100
0000
,  // measure 19
1000
0100
1000
0000
0010
0000
1000
0000
1001
0000
0001
0000
0100
0000
1000
0000
,  // measure 20
0100
0110
1001
0110
0010
0100
1001
0001
,  // measure 21
1000
0100
1000
0000
0010
0100
0010
0000
1000
0100
0000
0000
0010
0001
0000
0000
,  // measure 22
0001
0100
0001
0000
1000
0010
1000
0000
0200
0000
1000
0000
0001
0000
1000
0000
,  // measure 23
0320
0100
0130
1001
0010
0100
1001
0000
,  // measure 24
1000
0010
0000
0000
1000
0100
0000
0000
0001
0010
0000
0000
0001
0100
0000
0000
,  // measure 25
0120
1000
0001
0000
0130
0000
0110
0000
,  // measure 26
0120
0001
1000
0000
0130
0000
0010
0010
,  // measure 27
0110
1001
0110
0000
1001
0001
1000
0001
,  // measure 28
1001
1000
1100
0100
0101
0001
0011
0010
,  // measure 29
1010
0000
1000
0000
0100
0010
0000
0000
1000
0100
1000
0000
1000
0100
0000
0000
,  // measure 30
0011
0000
0001
0000
0100
0010
0000
0000
0001
0100
0001
0000
0001
0100
0000
0000
,  // measure 31
1000
0010
0000
0000
0010
1000
0100
1000
0010
0000
1000
0000
0100
0000
0010
0001
,  // measure 32
0010
0010
0120
0000
1000
0100
0001
0130
,  // measure 33
1001
0000
0000
0000
1000
0100
0000
0000
0010
0001
0000
0000
0001
0100
0000
0000
,  // measure 34
0100
0010
0000
0000
0010
1000
0000
0000
1001
0000
0000
0000
0110
0000
0000
0000
,  // measure 35
1001
0000
0000
0000
0010
0100
0000
0000
0100
0010
0000
0000
0100
0000
0000
0000
,  // measure 36
0100
1000
0000
0000
1000
0010
0000
0000
0001
0100
0000
0000
1000
0010
0000
0000
,  // measure 37
1001
0000
0000
0000
0100
0000
0000
0000
0001
0100
0000
0000
0100
0010
0000
0000
,  // measure 38
0010
1000
0000
0000
1000
0001
0000
0000
0001
0100
0000
0000
0100
1000
0000
0000
,  // measure 39
1000
1001
0110
0001
,  // measure 40
0001
0100
0000
0000
0100
1000
0000
0000
1000
0010
0000
0000
0001
0100
0000
0000
,  // measure 41
1001
0000
0100
0000
0010
0000
1000
0000
0110
0000
0100
0000
1001
0000
1000
0001
,  // measure 42
1000
0100
1001
0001
0100
1000
0010
0000
,  // measure 43
0010
1000
0100
0001
0010
1000
0010
0001
,  // measure 44
0010
1000
0010
0001
0010
1000
0100
0001
1000
0000
0000
0000
0110
0000
0000
0000
,  // measure 45
1000
0100
0000
0000
0010
0001
0000
0000
1001
0000
0000
0000
0100
0001
0000
0000
,  // measure 46
0001
1000
0000
0000
1001
0000
1000
0000
0100
0000
0010
0000
0101
0000
0000
0000
,  // measure 47
0010
1000
0100
0001
0201
0000
0310
1000
,  // measure 48
1010
0001
0010
1000
0010
1000
0100
0001
,  // measure 49
1001
0000
0000
0000
0010
0100
0010
0000
0110
0000
0100
0000
0100
0000
0000
0000
,  // measure 50
1001
0001
0010
1000
0110
0100
0100
0000
,  // measure 51
1001
0000
1000
0000
0001
1000
0001
0000
0110
0000
0001
0000
1000
0001
1000
0000
,  // measure 52
1001
0000
0100
0000
0110
1001
1001
0000
,  // measure 53
0011
0000
0010
0001
0100
0000
0010
0000
0110
0000
1000
0001
0100
0000
0010
0000
,  // measure 54
1001
0000
0001
0010
0100
0000
1000
0000
1100
0000
1000
0001
0100
0000
0010
0000
,  // measure 55
1001
0000
1000
0001
1000
0000
0110
0000
0100
0010
0100
0000
0110
0000
0000
0000
,  // measure 56
1001
1001
1001
1001
0110
0110
0110
1001
,  // measure 57
1001
1001
1001
0000
0000
0000
0000
0000
;
