#TITLE:Schwarzschild Radius;
#SUBTITLE:;
#ARTIST:sman;
#TITLETRANSLIT:;
#SUBTITLETRANSLIT:;
#ARTISTTRANSLIT:;
#CREDIT:;
#BANNER:Schwarzschild Radius.png;
#BACKGROUND:Schwarzschild Radius-bg.png;
#LYRICSPATH:;
#CDTITLE:cdtitle.png;
#MUSIC:Schwarzschild Radius.mp3;
#OFFSET:0.000;
#SAMPLESTART:55.600;
#SAMPLELENGTH:12.000;
#SELECTABLE:YES;
#BPMS:0.000=140.000;
#STOPS:;
#BGCHANGES:0.000=Schwarzschild Radius.avi=1.000=1=1=0,
533.000=Schwarzschild Radius-bg.png=1.000=0=0=1,
99999=-nosongbg-=1.000=0=0=0 // don't automatically add -songbackground-
;

//---------------dance-single - BASIC----------------
#NOTES:
     dance-single:
     BASIC:
     Easy:
     3:
     0.174,0.287,0.035,0.087,0.000:
0000
0000
0000
0000
,
0000
0000
0000
0000
,
0000
0000
0000
0000
,
0000
0000
0000
0000
,
0000
0000
0000
0000
,
0000
0000
0000
0000
,
0000
0000
0000
0000
,
0000
0000
0000
0000
,
0000
0000
0000
0000
,
0000
0000
0000
0000
,
0000
0000
0000
0000
,
0000
0000
0000
0000
,
0000
0000
0000
0000
,
0000
0000
0000
0000
,
0000
0000
0000
0000
,
0000
0000
0000
0000
,
0000
0000
0000
0000
,
0000
0000
0000
0000
,
0000
0000
0000
0000
,
0000
0000
0000
0000
,
0001
0001
0000
0000
,
1000
1000
0000
0000
,
0001
0001
0000
0000
,
1000
1000
0000
0000
,
0010
0010
0100
0000
,
0001
0001
1000
0000
,
0100
0100
0010
0000
,
1000
1000
0001
0000
,
0010
0010
0100
0000
,
1000
1000
0001
0000
,
0100
0100
0010
0000
,
0001
0001
1000
0000
,
1001
1000
0100
1000
,
0010
0100
0001
0010
,
0001
0010
0001
0100
,
0010
1000
0100
1000
,
1001
0001
0100
0001
,
0010
0100
1000
0010
,
1000
0010
1000
0100
,
0010
0001
0100
0001
,
2000
0000
0010
0000
,
0001
0000
0010
0000
,
3002
0000
0010
0000
,
1000
0000
0010
0000
,
2003
0000
0010
0000
,
0001
0000
0010
0000
,
3002
0000
0010
0000
,
1000
0000
0010
0000
,
1003
0000
0100
0100
,
0001
0000
0010
0010
,
1000
0000
0100
0100
,
0001
0000
1000
1000
,
0010
0000
0001
0001
,
0100
0000
1000
1000
,
0010
0000
0001
0001
,
1000
0000
0001
1000
,
1001
0000
1000
0000
,
0001
0000
0100
0000
,
0001
0000
1000
0000
,
0010
0000
0100
0000
,
0010
0000
1000
0000
,
0001
0000
0100
0000
,
0010
0000
0100
0000
,
0001
0000
1000
0000
,
1001
0000
1000
0000
,
0001
0000
0100
0000
,
0010
0000
0100
0000
,
0001
0000
0100
0000
,
0010
0000
1000
0000
,
0001
0000
1000
0000
,
0100
0000
0010
0000
,
0100
0000
1000
0000
,
0001
0000
1000
0000
,
0001
0000
0010
0000
,
0100
0000
0010
0000
,
0001
0000
1000
0000
,
0001
0000
0100
0000
,
0010
0000
1000
0000
,
0100
0000
0001
0000
,
0010
0000
1000
0000
,
2002
0000
0000
0000
,
0000
0000
0000
0000
,
0000
0000
0000
0000
,
0000
0000
3003
0000
,
2002
0000
0000
0000
,
0000
0000
0000
0000
,
0000
0000
3003
0000
,
2002
0000
3003
0000
,
1000
0001
0100
0001
,
1000
0010
0100
0010
,
1000
0100
0010
0001
,
1000
0010
0100
0001
,
0100
0010
1000
0100
,
0001
1000
0010
0001
,
0100
0010
1000
0100
,
0001
0010
1000
0001
,
1000
0000
0010
0000
,
1000
0000
0001
0000
,
0100
0000
0010
0000
,
1000
0000
0001
0000
,
1000
0000
0010
0000
,
0100
0000
0001
0000
,
0100
0000
0010
0000
,
1000
0000
0100
0000
,
1000
0000
0001
0000
,
0100
0000
0010
0000
,
1000
0000
0001
0000
,
0100
0000
0010
0000
,
1000
0000
0001
0000
,
0100
0000
0010
0000
,
0010
0000
1000
0000
,
0001
0000
1000
0000
,
0002
0000
0010
0000
,
1000
0000
0010
0000
,
2003
0000
0010
0000
,
0001
0000
0010
0000
,
3002
0000
0010
0000
,
1000
0000
0010
0000
,
2003
0000
0010
0000
,
0001
0000
0010
0000
,
3002
0000
0010
0000
,
1000
0000
0010
0000
,
2003
0000
0010
0000
,
0001
0000
0010
0000
,
3002
0000
0010
0000
,
1000
0000
0010
0000
,
2003
0000
0010
0000
,
0001
0000
0010
3000
,
2002
0000
0000
0000
,
0000
0000
0000
0000
,
0000
0000
0000
0000
,
0000
0000
0000
0000
,
3003
0000
0000
0000
;

//---------------dance-single - TRICK----------------
#NOTES:
     dance-single:
     TRICK:
     Medium:
     6:
     0.351,0.488,0.100,0.065,0.000:
0000
0000
0000
0000
,
0000
0000
0000
0000
,
0000
0000
0000
0000
,
0000
0000
0000
0000
,
0000
0000
0000
0000
,
0000
0000
0000
0000
,
0000
0000
0000
0000
,
0000
0000
0000
0000
,
1000
0000
0000
0000
,
1000
0000
0000
0000
,
1000
0000
0000
0000
,
1000
0000
0000
0000
,
0001
0000
0000
0000
,
0001
0000
0000
0000
,
0001
0000
0000
0000
,
0001
0000
0000
0000
,
1000
0000
0000
0000
,
1000
0000
0000
0000
,
1000
0000
0000
0000
,
1000
0000
0000
0000
,
0001
0100
0001
0100
0000
0000
0000
0000
,
1000
0100
1000
0100
1000
0000
1000
0000
,
0001
0100
0001
0100
0000
0000
0000
0000
,
1000
0100
1000
0100
1000
0000
1000
0000
,
0010
0100
0010
0000
0100
0000
1000
0000
,
0001
0100
0001
0000
1000
0000
0010
0000
,
0100
0001
0100
0000
0010
0000
1000
0000
,
1000
0100
1000
0000
0001
0000
0010
0000
,
0010
0100
0010
0000
0100
0000
0001
0000
,
1000
0010
1000
0000
0001
0000
1000
0000
,
0100
0010
0100
0000
0010
0000
1000
0000
,
0001
1000
0001
0000
1000
0001
1000
0000
,
1000
0010
0100
0000
0100
0000
1000
0000
,
0010
0001
0100
0000
0001
0000
0010
0000
,
0001
1000
0010
0000
1000
0000
0100
0000
,
0010
0001
0100
0000
0100
0000
1000
0000
,
1001
0100
0001
0000
0100
0000
0001
0000
,
0010
1000
0100
0000
1000
0000
0001
0000
,
1000
0100
0010
0000
1000
0001
0100
0000
,
0010
1000
0001
0000
0100
0010
0001
0000
,
0020
1000
0100
0100
,
0001
0000
0001
0100
,
0100
1000
0001
1000
,
1000
0100
0100
0000
,
0001
0001
1000
0100
,
0001
1000
0100
0100
,
1000
0100
0100
0000
,
1000
0001
0100
1000
,
0031
1000
0100
0000
0100
0010
0100
0000
,
0001
1000
0100
0000
0010
0100
0010
0000
,
1000
0001
0100
0000
0100
0010
0100
0000
,
0001
1000
0100
0000
0010
0100
0010
0000
,
1000
0001
0100
0000
0001
0100
0001
0000
,
0001
1000
0100
0000
1000
0100
1000
0000
,
1000
0001
0100
0000
0001
0100
0001
0000
,
1000
0001
0100
0000
1000
0100
1000
0000
,
1001
2000
0010
3100
,
1000
0002
0010
0103
,
0001
2000
0010
3100
,
1000
0002
0010
0103
,
0001
1000
0100
0000
0010
0001
0100
0000
,
0100
1000
0010
0000
0010
0001
0100
0000
,
0010
0100
1000
0000
0100
0010
0001
0000
,
0001
0010
1000
0000
1000
0100
0001
0000
,
1001
1000
1000
1000
,
0001
0001
0100
0010
,
0010
1000
0100
0100
,
0001
0001
0100
0100
,
1000
0100
1000
0000
0001
0000
0100
0001
,
0100
0001
0100
1000
,
0100
0010
0100
0000
0010
0000
1000
0100
,
1000
0010
1000
0100
,
1000
0010
0100
0000
0001
0000
0100
0010
,
0001
1000
0100
0010
,
1000
0100
1000
0000
0010
0000
0100
0010
,
1000
0001
0100
1000
,
1000
0100
0010
0000
0110
0000
0101
0000
,
0100
0010
1000
0000
1010
0000
1000
0010
,
0100
0000
0100
0010
0001
0000
1001
0000
,
0010
1000
0100
0000
1000
0100
0001
0000
,
2002
0000
0000
0000
,
0000
0000
0000
0000
,
0000
0000
0000
0000
,
0000
0000
3003
0000
,
2002
0000
0000
0000
,
0000
0000
0000
0000
,
0000
0000
3003
0000
,
1000
0010
0100
0001
0010
1000
0100
0001
,
1000
0010
0100
0000
0100
0010
0001
0000
,
0010
1000
0010
0000
0010
1000
0100
0000
,
0001
0010
0100
0000
0100
0010
1000
0000
,
0010
0001
0010
0000
0010
0001
0100
0000
,
0010
1000
0010
0000
0010
1000
0100
0000
,
1000
0100
0001
0000
0001
0010
1000
0000
,
0010
0001
0010
0000
0010
0001
0100
0000
,
0001
0100
1000
0000
1000
0010
0001
0000
,
2000
3010
1010
1001
,
0002
0103
0011
1001
,
0001
0110
0100
0100
,
0010
1000
0001
0101
,
0002
0013
0011
1001
,
2000
3010
1010
1001
,
1000
0110
0100
0100
,
0010
0001
1000
1100
,
1001
1000
0100
0100
,
0001
0001
0100
0100
,
1000
1000
0010
1000
,
0100
0001
0100
0010
,
0010
1000
0001
0100
,
0010
0010
1000
0100
,
1000
0010
0010
0001
,
1000
0100
0100
0010
,
0010
0010
0010
0010
,
1000
0001
1000
0001
,
0010
0010
0010
0010
,
0010
1000
0010
0000
0010
0001
0010
0000
,
0010
0000
0010
0000
0010
0000
0010
1000
,
0010
0001
0010
1000
0010
0001
0010
1000
,
0010
1000
0010
0001
0010
0001
0010
0100
,
0010
0100
0010
0100
0010
0001
0010
1000
,
0010
0010
0010
0010
,
0001
1000
0001
1000
,
0010
0010
0010
0010
,
0010
0001
0010
0000
0010
1000
0010
0000
,
0010
0000
0010
0000
0010
0001
0010
1000
,
0010
0001
0010
1000
0010
0001
0010
0001
,
0010
1000
0010
1000
0010
0100
0010
0100
,
0010
0100
0010
1000
0010
0001
0010
0000
,
2002
0000
0000
0000
,
0000
0000
0000
0000
,
0000
0000
0000
0000
,
0000
0000
0000
0000
,
3003
0000
0000
0000
;

//---------------dance-single - HEAVY----------------
#NOTES:
     dance-single:
     HEAVY:
     Hard:
     8:
     0.551,0.631,0.109,0.078,0.163:
0000
0000
0000
0000
,
0000
0000
0000
0000
,
0000
0000
0000
0000
,
0000
0000
0000
0000
,
0000
0000
0000
0000
,
0000
0000
0000
0000
,
0000
0000
0000
0000
,
0000
0000
0000
0000
,
1000
0100
0001
0010
,
1000
0100
0001
0010
,
1000
0100
0001
0010
,
1000
0100
0001
0010
,
1000
0100
0001
0010
,
1000
0100
0001
0010
,
1000
0100
0001
0010
,
1000
0100
0001
0010
,
1000
0100
0001
0010
,
1000
0010
0001
0100
,
1000
0010
0001
0100
,
1000
0010
0001
0100
,
1001
0100
0001
0100
0000
0000
1001
0000
,
1000
0100
1000
0100
1000
0000
1001
0000
,
0001
0100
0001
0100
0000
0000
1001
0000
,
0001
0100
0001
0100
0001
0000
1001
0000
,
0010
0000
0100
0000
0001
0000
1000
0010
0000
0000
0010
0000
1000
0000
0001
0000
,
0010
0000
0100
0000
1000
0000
0001
0010
0000
0000
0010
0000
0001
0000
1000
0000
,
0010
0000
0100
0000
0001
0000
1000
0010
0000
0000
0010
0000
1000
0000
0001
0000
,
0010
0000
0100
0000
1000
0000
0001
0010
0000
0000
0010
0000
0001
0000
1000
0000
,
0010
0000
0100
0000
0010
0000
1000
0100
0000
0000
0100
0000
1000
0000
0001
0000
,
0010
0000
0100
0000
0010
0000
0001
0100
0000
0000
0100
0000
0001
0000
1000
0000
,
0010
0000
0100
0000
0010
0000
1000
0100
0000
0000
0100
0000
1000
0000
0001
0000
,
0100
0000
0010
0000
0100
0000
0001
1000
0000
0000
0001
0000
1000
0000
0001
0000
,
1001
1000
0100
0010
0100
1000
0100
0010
,
0001
0100
1000
0100
0001
0010
1000
0001
,
0010
1000
0100
0010
1000
0100
0001
0010
,
1000
0001
1000
0010
0100
1000
0010
0100
,
1001
0001
0100
0010
0100
0001
0100
0010
,
1000
0100
0001
0100
1000
0010
0001
1000
,
0010
0001
0100
0010
0001
0100
1000
0010
,
0100
1000
0010
0001
0100
1000
0100
0001
,
0010
0100
0010
0100
0010
0001
0010
1000
,
0010
0001
0010
1000
0010
0100
0010
0100
,
0010
1000
0010
0001
0010
1000
0010
0000
,
0010
0000
0010
1000
0010
1000
0010
0001
,
0010
0001
0010
1000
0010
0001
0010
1000
,
0010
0001
0010
1000
0010
0001
0010
0000
,
0010
0010
0010
0010
,
0010
0100
0010
0100
0010
0100
0010
0000
,
1000
0100
1000
0000
0010
0100
0000
0000
0100
0001
1000
0000
0100
0000
0010
0000
,
0001
0100
0001
0000
0010
0100
0000
0000
0100
1000
0001
0000
0100
0000
0010
0000
,
1000
0100
1000
0000
0010
0100
0000
0000
0100
0001
1000
0000
0100
0000
0010
0000
,
0001
0100
0001
0000
0010
0100
0000
0000
0100
1000
0001
0000
0100
0000
0010
0000
,
1000
0100
1000
0000
1000
0010
0000
0000
0010
1000
0010
0000
1000
0000
1000
0000
,
0001
0100
0001
0000
0001
0010
0000
0000
0010
0001
0010
0000
0001
0000
0001
0000
,
1000
0100
1000
0000
1000
0010
0000
0000
0010
1000
0010
0000
1000
0000
1000
0000
,
0001
0100
0001
0000
0001
0010
0000
0000
0010
0001
0010
0000
0001
0000
0001
0000
,
1001
1000
0010
1000
0100
0010
0001
0100
,
0010
0100
0010
1000
0100
0010
0001
0010
,
1000
0010
0001
0100
0010
1000
0100
1000
,
0010
0100
0001
0010
1000
0010
0001
1000
,
0001
1000
0100
0010
0001
0100
0010
1000
,
0100
0001
0100
1000
0010
0100
0010
1000
,
0010
0001
0010
1000
0100
0010
0001
0010
,
0100
0010
0001
0100
0010
1000
0100
0001
,
1001
1000
0001
1000
,
0001
0100
0000
0001
0000
0100
0010
0000
0100
0000
0010
0000
1000
0010
1000
0000
,
0100
0010
0000
0001
0000
1000
0001
0000
0100
0000
0010
0000
0100
0001
1000
0000
,
0001
0100
0000
0010
0000
1000
0100
0000
1000
0000
0010
0000
0100
0001
1000
0000
,
0001
0100
0001
0100
0010
1000
0100
0001
,
0100
1000
0001
0000
0101
0000
1000
0010
,
0100
0001
0100
0010
1000
0100
1000
0100
,
1000
0010
0100
0001
1000
0000
1100
0000
,
1000
0010
0100
0001
0010
0100
0010
1000
,
0010
0001
1000
0100
0010
0000
0011
0000
,
1000
0100
1000
0010
0100
0001
0100
0010
,
1000
0100
0010
0001
0100
0000
0101
0000
,
1001
1000
0010
0100
0110
0000
0101
0000
,
0101
0001
1000
0010
1010
0000
1100
0000
,
1100
1000
0001
0100
0101
0000
1001
0001
,
0010
1000
0100
0001
0010
1000
0100
0010
,
1001
0000
0000
0000
1000
0000
0000
0001
0000
0000
0100
0000
0010
0000
1000
0000
,
0001
0000
0000
0000
0100
0000
0000
0010
0000
0000
0100
0000
1000
0000
0001
0000
,
0100
0000
0000
0000
0010
0000
0000
0100
0000
0000
0001
0000
0100
0000
0010
0000
,
0001
0000
0000
0000
0100
0000
0000
1000
0000
0000
0100
0000
0001
0000
0010
0000
,
1001
0000
0000
0000
1000
0000
0000
0100
0000
0000
0010
0000
0001
0000
1000
0000
,
0010
0000
0000
0000
1000
0000
0000
0100
0000
0000
0010
0000
0001
0000
0100
0000
,
0010
0000
0000
0000
1000
0000
0000
0001
0000
0000
0010
0000
0001
0000
0100
0000
,
0001
0100
0010
0001
0100
1000
0001
1000
,
0001
0010
0100
0010
0001
0010
1000
0010
,
0001
0100
0010
0100
0010
0100
0001
0010
,
1000
0010
0001
0010
0100
0010
0001
0100
,
0001
0100
0010
1000
0001
0100
0001
0100
,
0001
1000
0010
1000
0001
1000
0100
0010
,
0001
0100
0001
0010
0001
0010
1000
0010
,
0001
0100
0010
1000
0010
0100
0001
0010
,
0001
0100
1000
0100
0001
0010
0100
0010
,
0001
0000
1000
0000
0000
0000
1000
0010
0000
0010
1000
0000
0001
0000
1000
0000
,
0000
0000
0001
0000
0000
0000
0001
0010
0000
0010
0001
0000
1000
0000
0001
0000
,
0000
0000
1000
0010
0000
0000
1000
0010
1000
0010
1000
0000
0001
0000
1000
0000
,
0000
0000
0001
0010
0000
0000
0001
0010
0000
0010
0001
0000
1000
0001
0000
1000
,
0000
0000
0001
0000
0000
0000
0001
0010
0000
0010
0001
0000
1000
0000
0001
0000
,
0000
0000
1000
0000
0000
0000
1000
0010
0000
0010
1000
0000
0001
0000
1000
0000
,
0000
0000
0001
0010
0000
0000
0001
0010
0001
0010
0001
0000
1000
0000
0001
0000
,
0000
0000
1000
0010
0000
0000
1000
0010
0000
0010
1000
0000
0001
1000
0000
1000
,
0002
0103
2000
3100
,
0002
0103
2000
3100
,
2000
3010
0002
0013
,
2000
3010
0002
0013
,
2000
3100
0002
0103
,
2000
3010
0002
0013
,
2000
3100
0002
0013
,
2000
3100
0002
0013
,
0010
0100
0010
0100
0010
0001
0010
1000
,
0010
0001
0010
1000
0010
0100
0010
0100
,
0010
1000
0010
0001
0010
1000
0010
0000
,
0010
0000
0010
1000
0010
1000
0010
0001
,
0010
0001
0010
1000
0010
0001
0010
1000
,
0010
0001
0010
1000
0010
0001
0010
0000
,
0010
0010
0010
0010
,
0010
0100
0010
0100
0010
0100
0010
0000
,
0010
0100
0010
0100
0010
1000
0010
0001
,
0010
1000
0010
0001
0010
0100
0010
0100
,
0010
0001
0010
1000
0010
0001
0010
0000
,
0010
0000
0010
0001
0010
0001
0010
1000
,
0010
1000
0010
0001
0010
1000
0010
0001
,
0010
1000
0010
0001
0010
1000
0010
0001
,
0010
1000
0010
0001
0010
1000
0010
0001
,
0010
0100
0010
0100
0010
0100
0010
0010
,
2002
0000
0000
0000
,
0000
0000
0000
0000
,
0000
0000
0000
0000
,
0000
0000
0000
0000
,
3003
0000
0000
0000
;

//---------------dance-single - ONI----------------
#NOTES:
     dance-single:
     ONI:
     Challenge:
     10:
     0.773,0.975,0.096,0.630,0.739: // measure 1
0000
0000
0000
0000
,  // measure 2
0000
0000
0000
0000
,  // measure 3
0000
0000
0000
0000
,  // measure 4
0000
0000
0000
0000
,  // measure 5
0000
0000
0000
0000
,  // measure 6
0000
0000
0000
0000
,  // measure 7
0000
0000
0000
0000
,  // measure 8
0000
0000
0000
0000
,  // measure 9
2000
3200
0302
0023
,  // measure 10
2030
3200
0302
0023
,  // measure 11
2030
3200
0302
0023
,  // measure 12
2030
3200
0302
0023
,  // measure 13
2030
3200
0302
0023
,  // measure 14
2030
3200
0302
0023
,  // measure 15
2030
3200
0302
0023
,  // measure 16
2030
3200
0302
0023
,  // measure 17
2030
3200
0302
0023
,  // measure 18
2030
3020
0032
0203
,  // measure 19
2300
3020
0032
0203
,  // measure 20
2300
3020
0032
0103
,  // measure 21
1001
0100
0001
0100
0001
1000
1001
1000
,  // measure 22
1000
0100
1000
0100
1000
0001
1001
0001
,  // measure 23
0001
0100
0001
0100
0001
1000
1001
0001
,  // measure 24
0001
0100
0001
0100
0001
0001
1001
0000
,  // measure 25
0010
0000
0100
0000
0001
0000
1000
0010
0000
0010
1000
0000
1000
0000
0001
0000
,  // measure 26
0010
0000
0100
0000
1000
0000
0001
0010
0000
0010
0001
0000
0001
0000
1000
0000
,  // measure 27
0010
0000
0100
0001
0000
0000
0001
1000
0010
1000
0010
0000
1000
0000
0001
0000
,  // measure 28
0010
0000
0100
0000
1000
0000
0001
0010
0000
0010
0001
0000
0001
0000
1000
0000
,  // measure 29
0010
0000
0100
0000
0010
0000
1000
0100
0000
0100
1000
0000
1000
0000
0001
0000
,  // measure 30
0010
0000
0100
0000
0010
0000
0001
0100
0000
0100
0001
0000
0001
0000
1000
0000
,  // measure 31
0010
0000
0100
0010
0000
0000
0010
1000
0100
1000
0100
0000
1000
0000
0001
0000
,  // measure 32
0100
0000
0010
0000
0100
0000
0001
1000
0000
1000
0001
0000
1000
0001
0000
1000
,  // measure 33
0001
0100
0000
0100
0010
0000
0010
1000
0000
1000
0100
0000
0010
0000
0001
0000
,  // measure 34
0001
0100
0000
0100
0010
0000
0010
1000
0000
1000
0001
0000
1000
0000
0100
0000
,  // measure 35
0010
0001
0000
0001
0100
0000
0100
0010
0000
0010
0100
0000
0001
0000
1000
0000
,  // measure 36
1000
0001
0000
0001
1000
0000
1000
0010
0000
0010
0100
0000
0001
0000
1000
0000
,  // measure 37
1000
0001
0000
0001
0100
0000
0100
0010
0000
0010
1000
0000
0100
0000
0010
0000
,  // measure 38
0001
1000
0000
1000
0001
0000
0001
0100
0000
0100
0010
0000
1000
0000
0001
0000
,  // measure 39
0010
0001
0000
0001
0100
0000
0100
0010
0000
0010
1000
0000
0001
0000
1000
0000
,  // measure 40
0010
1000
0000
1000
0100
0000
0100
0010
0000
0010
0001
0000
1000
0000
0100
0000
,  // measure 41
0010
0001
0100
0000
0010
1000
0100
0000
0010
0001
1000
0000
0010
1000
0001
0000
,  // measure 42
0100
1000
0010
0000
0100
0001
0010
0000
0100
1000
0001
0000
0100
0001
1000
0000
,  // measure 43
0010
0100
1000
0000
0010
0100
0001
0000
0010
1000
0010
0001
0010
0000
0100
0000
,  // measure 44
0010
1000
0100
0000
0010
0001
0100
0000
0010
1000
0010
0000
0010
0001
0010
0000
,  // measure 45
0010
1000
0010
0001
0010
1000
0010
0001
0010
1000
0010
0000
0010
1000
0100
0000
,  // measure 46
0010
0001
0100
0000
0010
1000
0001
0000
0010
0001
1000
0000
0010
1000
0100
0000
,  // measure 47
0010
0001
0100
0000
0010
1000
0100
0000
0010
0001
0100
0000
0010
1000
0100
0000
,  // measure 48
0010
0100
1000
0100
0010
0001
0010
0100
1000
0010
0100
0001
0100
0010
1000
0000
,  // measure 49
1000
0100
1000
0000
0010
0100
0000
0000
0100
0001
1000
0000
0100
0000
0010
0000
,  // measure 50
0001
0100
0001
0000
0010
0100
0000
0000
0100
1000
0001
0000
0100
0000
0010
0000
,  // measure 51
1000
0100
1000
0000
0010
0100
0000
0000
0100
0001
1000
0000
0100
0000
0010
0000
,  // measure 52
0001
0100
0001
0000
0010
0100
0000
0000
0100
1000
0001
0000
0100
0000
0010
0000
,  // measure 53
1000
0100
1000
0000
1000
0010
0000
0000
0010
1000
0010
0000
1000
0001
1000
0000
,  // measure 54
0001
0100
0001
0000
0001
0010
0000
0000
0010
0001
0010
0000
0001
1000
0001
0000
,  // measure 55
1000
0100
1000
0000
1000
0010
0000
0000
0010
1000
0010
0000
1000
0001
1000
0000
,  // measure 56
0001
0100
0001
0000
0001
0010
0000
0000
0010
0001
0010
0000
0001
1000
0001
0000
,  // measure 57
1001
0000
0000
0000
0000
0000
0000
0000
0000
0000
0000
0000
0000
0000
0000
0000
0000
0000
0000
0000
0000
0000
0000
0000
2000
3000
0000
0000
0000
0000
0000
0000
0000
0000
0000
0000
0000
0000
0000
0000
0000
0000
0000
0000
0000
0000
0000
0000
0020
0030
0000
0000
0000
0000
0000
0000
0000
0000
0000
0000
0000
0000
0000
0000
0000
0000
0000
0000
0000
0000
0000
0000
2000
3000
0000
0000
0000
0000
0000
0000
0000
0000
0000
0000
0000
0000
0000
0000
0000
0000
0000
0000
0000
0000
0000
0000
0200
0300
0000
0000
0000
0000
0000
0000
0000
0000
0000
0000
0000
0000
0000
0000
0000
0000
0000
0000
0000
0000
0000
0000
0020
0030
0000
0000
0000
0000
0000
0000
0000
0000
0000
0000
0000
0000
0000
0000
0000
0000
0000
0000
0000
0000
0000
0000
0002
0003
0000
0000
0000
0000
0000
0000
0000
0000
0000
0000
0000
0000
0000
0000
0000
0000
0000
0000
0000
0000
0000
0000
0200
0300
0000
0000
0000
0000
0000
0000
0000
0000
0000
0000
0000
0000
0000
0000
0000
0000
0000
0000
0000
0000
0000
0000
,  // measure 58
0020
0030
0000
0000
0000
0000
0000
0000
0000
0000
0000
0000
0000
0000
0000
0000
0000
0000
0000
0000
0000
0000
0000
0000
0200
0300
0000
0000
0000
0000
0000
0000
0000
0000
0000
0000
0000
0000
0000
0000
0000
0000
0000
0000
0000
0000
0000
0000
0020
0030
0000
0000
0000
0000
0000
0000
0000
0000
0000
0000
0000
0000
0000
0000
0000
0000
0000
0000
0000
0000
0000
0000
2000
3000
0000
0000
0000
0000
0000
0000
0000
0000
0000
0000
0000
0000
0000
0000
0000
0000
0000
0000
0000
0000
0000
0000
0200
0300
0000
0000
0000
0000
0000
0000
0000
0000
0000
0000
0000
0000
0000
0000
0000
0000
0000
0000
0000
0000
0000
0000
0020
0030
0000
0000
0000
0000
0000
0000
0000
0000
0000
0000
0000
0000
0000
0000
0000
0000
0000
0000
0000
0000
0000
0000
0002
0003
0000
0000
0000
0000
0000
0000
0000
0000
0000
0000
0000
0000
0000
0000
0000
0000
0000
0000
0000
0000
0000
0000
0020
0030
0000
0000
0000
0000
0000
0000
0000
0000
0000
0000
0000
0000
0000
0000
0000
0000
0000
0000
0000
0000
0000
0000
,  // measure 59
2000
3000
0000
0000
0000
0000
0000
0000
0000
0000
0000
0000
0000
0000
0000
0000
0000
0000
0000
0000
0000
0000
0000
0000
0020
0030
0000
0000
0000
0000
0000
0000
0000
0000
0000
0000
0000
0000
0000
0000
0000
0000
0000
0000
0000
0000
0000
0000
0002
0003
0000
0000
0000
0000
0000
0000
0000
0000
0000
0000
0000
0000
0000
0000
0000
0000
0000
0000
0000
0000
0000
0000
0200
0300
0000
0000
0000
0000
0000
0000
0000
0000
0000
0000
0000
0000
0000
0000
0000
0000
0000
0000
0000
0000
0000
0000
0020
0030
0000
0000
0000
0000
0000
0000
0000
0000
0000
0000
0000
0000
0000
0000
0000
0000
0000
0000
0000
0000
0000
0000
2000
3000
0000
0000
0000
0000
0000
0000
0000
0000
0000
0000
0000
0000
0000
0000
0000
0000
0000
0000
0000
0000
0000
0000
0200
0300
0000
0000
0000
0000
0000
0000
0000
0000
0000
0000
0000
0000
0000
0000
0000
0000
0000
0000
0000
0000
0000
0000
2000
3000
0000
0000
0000
0000
0000
0000
0000
0000
0000
0000
0000
0000
0000
0000
0000
0000
0000
0000
0000
0000
0000
0000
,  // measure 60
0020
0030
0000
0000
0000
0000
0000
0000
0000
0000
0000
0000
0000
0000
0000
0000
0000
0000
0000
0000
0000
0000
0000
0000
0200
0300
0000
0000
0000
0000
0000
0000
0000
0000
0000
0000
0000
0000
0000
0000
0000
0000
0000
0000
0000
0000
0000
0000
0002
0003
0000
0000
0000
0000
0000
0000
0000
0000
0000
0000
0000
0000
0000
0000
0000
0000
0000
0000
0000
0000
0000
0000
0020
0030
0000
0000
0000
0000
0000
0000
0000
0000
0000
0000
0000
0000
0000
0000
0000
0000
0000
0000
0000
0000
0000
0000
2000
3000
0000
0000
0000
0000
0000
0000
0000
0000
0000
0000
0000
0000
0000
0000
0000
0000
0000
0000
0000
0000
0000
0000
0020
0030
0000
0000
0000
0000
0000
0000
0000
0000
0000
0000
0000
0000
0000
0000
0000
0000
0000
0000
0000
0000
0000
0000
0002
0003
0000
0000
0000
0000
0000
0000
0000
0000
0000
0000
0000
0000
0000
0000
0000
0000
0000
0000
0000
0000
0000
0000
2000
3000
0000
0000
0000
0000
0000
0000
0000
0000
0000
0000
0000
0000
0000
0000
0000
0000
0000
0000
0000
0000
0000
0000
,  // measure 61
0002
0003
0000
0000
0000
0000
0000
0000
0000
0000
0000
0000
0000
0000
0000
0000
0000
0000
0000
0000
0000
0000
0000
0000
2000
3000
0000
0000
0000
0000
0000
0000
0000
0000
0000
0000
0000
0000
0000
0000
0000
0000
0000
0000
0000
0000
0000
0000
0200
0300
0000
0000
0000
0000
0000
0000
0000
0000
0000
0000
0000
0000
0000
0000
0000
0000
0000
0000
0000
0000
0000
0000
0020
0030
0000
0000
0000
0000
0000
0000
0000
0000
0000
0000
0000
0000
0000
0000
0000
0000
0000
0000
0000
0000
0000
0000
0002
0003
0000
0000
0000
0000
0000
0000
0000
0000
0000
0000
0000
0000
0000
0000
0000
0000
0000
0000
0000
0000
0000
0000
0200
0300
0000
0000
0000
0000
0000
0000
0000
0000
0000
0000
0000
0000
0000
0000
0000
0000
0000
0000
0000
0000
0000
0000
0020
0030
0000
0000
0000
0000
0000
0000
0000
0000
0000
0000
0000
0000
0000
0000
0000
0000
0000
0000
0000
0000
0000
0000
2000
3000
0000
0000
0000
0000
0000
0000
0000
0000
0000
0000
0000
0000
0000
0000
0000
0000
0000
0000
0000
0000
0000
0000
,  // measure 62
0200
0300
0000
0000
0000
0000
0000
0000
0000
0000
0000
0000
0000
0000
0000
0000
0000
0000
0000
0000
0000
0000
0000
0000
0002
0003
0000
0000
0000
0000
0000
0000
0000
0000
0000
0000
0000
0000
0000
0000
0000
0000
0000
0000
0000
0000
0000
0000
0200
0300
0000
0000
0000
0000
0000
0000
0000
0000
0000
0000
0000
0000
0000
0000
0000
0000
0000
0000
0000
0000
0000
0000
2000
3000
0000
0000
0000
0000
0000
0000
0000
0000
0000
0000
0000
0000
0000
0000
0000
0000
0000
0000
0000
0000
0000
0000
0020
0030
0000
0000
0000
0000
0000
0000
0000
0000
0000
0000
0000
0000
0000
0000
0000
0000
0000
0000
0000
0000
0000
0000
0200
0300
0000
0000
0000
0000
0000
0000
0000
0000
0000
0000
0000
0000
0000
0000
0000
0000
0000
0000
0000
0000
0000
0000
0020
0030
0000
0000
0000
0000
0000
0000
0000
0000
0000
0000
0000
0000
0000
0000
0000
0000
0000
0000
0000
0000
0000
0000
2000
3000
0000
0000
0000
0000
0000
0000
0000
0000
0000
0000
0000
0000
0000
0000
0000
0000
0000
0000
0000
0000
0000
0000
,  // measure 63
0020
0030
0000
0000
0000
0000
0000
0000
0000
0000
0000
0000
0000
0000
0000
0000
0000
0000
0000
0000
0000
0000
0000
0000
0002
0003
0000
0000
0000
0000
0000
0000
0000
0000
0000
0000
0000
0000
0000
0000
0000
0000
0000
0000
0000
0000
0000
0000
0020
0030
0000
0000
0000
0000
0000
0000
0000
0000
0000
0000
0000
0000
0000
0000
0000
0000
0000
0000
0000
0000
0000
0000
2000
3000
0000
0000
0000
0000
0000
0000
0000
0000
0000
0000
0000
0000
0000
0000
0000
0000
0000
0000
0000
0000
0000
0000
0200
0300
0000
0000
0000
0000
0000
0000
0000
0000
0000
0000
0000
0000
0000
0000
0000
0000
0000
0000
0000
0000
0000
0000
0020
0030
0000
0000
0000
0000
0000
0000
0000
0000
0000
0000
0000
0000
0000
0000
0000
0000
0000
0000
0000
0000
0000
0000
0002
0003
0000
0000
0000
0000
0000
0000
0000
0000
0000
0000
0000
0000
0000
0000
0000
0000
0000
0000
0000
0000
0000
0000
0020
0030
0000
0000
0000
0000
0000
0000
0000
0000
0000
0000
0000
0000
0000
0000
0000
0000
0000
0000
0000
0000
0000
0000
,  // measure 64
0200
0300
0000
0000
0000
0000
0000
0000
0000
0000
0000
0000
0000
0000
0000
0000
0000
0000
0000
0000
0000
0000
0000
0000
0020
0030
0000
0000
0000
0000
0000
0000
0000
0000
0000
0000
0000
0000
0000
0000
0000
0000
0000
0000
0000
0000
0000
0000
0002
0003
0000
0000
0000
0000
0000
0000
0000
0000
0000
0000
0000
0000
0000
0000
0000
0000
0000
0000
0000
0000
0000
0000
0200
0300
0000
0000
0000
0000
0000
0000
0000
0000
0000
0000
0000
0000
0000
0000
0000
0000
0000
0000
0000
0000
0000
0000
0020
0030
0000
0000
0000
0000
0000
0000
0000
0000
0000
0000
0000
0000
0000
0000
0000
0000
0000
0000
0000
0000
0000
0000
2000
3000
0000
0000
0000
0000
0000
0000
0000
0000
0000
0000
0000
0000
0000
0000
0000
0000
0000
0000
0000
0000
0000
0000
0200
0300
0000
0000
0000
0000
0000
0000
0000
0000
0000
0000
0000
0000
0000
0000
0000
0000
0000
0000
0000
0000
0000
0000
0002
0003
0000
0000
0000
0000
0000
0000
0000
0000
0000
0000
0000
0000
0000
0000
0000
0000
0000
0000
0000
0000
0000
0000
,  // measure 65
2002
3003
0000
0000
0000
0000
0000
0000
0000
0000
0000
0000
0000
0000
0000
0000
0000
0000
0000
0000
0000
0000
0000
0000
0000
0000
0000
0000
0000
0000
0000
0000
0000
0000
0000
0000
0000
0000
0000
0000
0000
0000
0000
0000
0000
0000
0000
0000
1000
0000
0000
0000
0000
0000
0000
0000
0000
0000
0000
0000
0000
0000
0000
0000
0000
0000
0000
0000
0000
0000
0000
0000
0000
0000
0000
0000
0000
0000
0000
0000
0000
0000
0000
0000
0000
0000
0000
0000
0000
0000
0000
0000
0000
0000
0000
0000
0001
0000
0000
0000
0000
0000
0000
0000
0000
0000
0000
0000
0000
0000
0000
0000
0000
0000
0000
0000
0000
0000
0000
0000
0000
0000
0000
0000
0000
0000
0000
0000
0000
0000
0000
0000
0000
0000
0000
0000
0000
0000
0000
0000
0000
0000
0000
0000
1000
0000
0000
0000
0000
0000
0000
0000
0000
0000
0000
0000
0000
0000
0000
0000
0000
0000
0000
0000
0000
0000
0000
0000
0000
0000
0000
0000
0000
0000
0000
0000
0000
0000
0000
0000
0000
0000
0000
0000
0000
0000
0000
0000
0000
0000
0000
0000
,  // measure 66
0001
0100
0000
0001
0000
0100
0010
0000
0100
0000
0010
0000
1000
0010
1000
0000
,  // measure 67
0100
0010
0000
0001
0000
1000
0001
0000
0100
0000
0010
0000
0100
0001
1000
0000
,  // measure 68
0001
0100
0000
0010
0000
1000
0100
0000
1000
0000
0010
0000
0100
0001
1000
0000
,  // measure 69
0000
0001
1000
0000
0001
1000
0100
0000
0000
0010
0001
0100
1000
0100
0001
0000
,  // measure 70
0000
0100
0000
0000
0001
0000
0100
0000
0000
1000
0000
0100
0000
0001
0010
0000
,  // measure 71
0000
0100
1000
0000
0010
0100
0001
0000
0000
1000
0010
1000
0100
1000
0001
0000
,  // measure 72
0000
0001
1000
0000
0010
0100
0001
0000
0000
1000
0010
0100
0010
1000
0001
0000
,  // measure 73
0000
1000
0010
0000
0001
0010
1000
0000
0000
0010
0000
0100
0010
1000
0010
0000
,  // measure 74
0000
0010
0000
0000
1000
0000
0100
0000
0000
0010
0000
0001
0000
1000
0001
0000
,  // measure 75
0000
0010
0100
0000
1000
0010
0100
0000
0000
0100
0000
0001
0100
0001
0010
0000
,  // measure 76
0000
0100
1000
0000
1000
0100
0001
0000
0000
0100
1000
0001
0010
0100
1000
0000
,  // measure 77
0000
0001
0100
0000
0001
0100
0010
0000
0000
0100
0000
0010
1000
0010
1000
0000
,  // measure 78
0000
0100
0000
0000
0010
0000
0001
0000
0000
0001
0000
1000
0000
0001
1000
0000
,  // measure 79
0000
0001
0100
0000
0010
1000
0100
0000
0000
1000
0000
0010
0100
0001
1000
0000
,  // measure 80
0000
1000
0100
0000
0010
0001
1000
0000
0000
1000
0100
0010
0001
1000
0001
0000
,  // measure 81
1001
0000
0000
0000
0001
0000
0000
0010
0000
0000
0100
0000
1000
0000
0100
0000
,  // measure 82
0001
0100
0000
0000
0100
0000
0000
0010
0000
0000
0100
0000
1000
0000
0001
0000
,  // measure 83
0100
0010
0000
0000
0010
0000
0000
0100
0000
0000
0001
0000
0100
0000
0010
0000
,  // measure 84
1000
0100
0000
0000
0100
0000
0000
0001
0000
0000
0100
0000
1000
0000
0001
0000
,  // measure 85
1001
0000
0000
0000
0001
0000
0000
0100
0000
0000
0010
0000
1000
0000
0001
0000
,  // measure 86
0010
0001
0000
0000
0001
0000
0000
0100
0000
0000
0010
0000
1000
0000
0100
0000
,  // measure 87
0010
0001
0000
0000
0001
0000
0000
1000
0000
0000
0010
0000
1000
0000
0100
0000
,  // measure 88
1000
0100
0000
0000
0010
0000
0001
0000
0000
0010
0100
0000
1000
0000
0001
0000
,  // measure 89
0001
0100
0000
0100
0010
0000
0010
1000
0000
1000
0100
0000
0010
0000
0001
0000
,  // measure 90
0001
0100
0000
0100
0010
0000
0010
1000
0000
1000
0001
0000
1000
0000
0100
0000
,  // measure 91
0010
0001
0000
0001
0100
0000
0100
0010
0000
0010
0100
0000
0001
0000
1000
0000
,  // measure 92
1000
0001
0000
0001
1000
0000
1000
0010
0000
0010
0100
0000
0001
0000
1000
0000
,  // measure 93
1000
0001
0000
0001
0100
0000
0100
0010
0000
0010
1000
0000
0100
0000
0010
0000
,  // measure 94
0001
1000
0000
1000
0001
0000
0001
0100
0000
0100
0010
0000
1000
0000
0001
0000
,  // measure 95
0010
0001
0000
0001
0100
0000
0100
0010
0000
0010
1000
0000
0001
0000
1000
0000
,  // measure 96
0010
1000
0000
1000
0100
0000
0100
0010
0000
0010
0001
0000
1000
0000
0100
0000
,  // measure 97
1000
0000
1000
0000
0000
0000
1000
0010
0000
0010
1000
0000
1001
0000
1010
0000
,  // measure 98
0000
0000
0001
0000
0000
0000
0001
0010
0000
0010
0001
0000
1001
0000
0011
0000
,  // measure 99
0000
0000
1000
0010
0000
0000
1000
0010
1000
0010
1000
0000
1001
0000
1010
0000
,  // measure 100
0000
0000
0001
0010
0000
0000
0001
0010
0000
0010
0001
0000
1000
0001
0000
1000
,  // measure 101
0000
0000
1001
0000
0000
0000
0001
0010
0000
0010
0001
0000
1001
0000
0101
0000
,  // measure 102
0000
0000
1001
0000
0000
0000
1000
0010
0000
0010
1000
0000
1001
0000
1100
0000
,  // measure 103
0000
0000
0001
0010
0000
0000
0001
0010
0001
0010
0001
0000
1000
0000
0001
0000
,  // measure 104
0000
0000
1000
0010
0000
0000
1000
0010
0000
0010
1000
0000
0001
1000
0000
1000
,  // measure 105
0002
0203
2300
3200
,  // measure 106
0302
0023
2030
3020
,  // measure 107
2030
3200
0302
0203
,  // measure 108
2300
3020
0032
0023
,  // measure 109
2030
3200
0302
0023
,  // measure 110
2030
3200
0302
0203
,  // measure 111
2300
3020
0032
0023
,  // measure 112
2030
3200
0302
0013
,  // measure 113
0010
0001
0100
0000
0010
1000
0100
0000
0010
0001
1000
0000
0010
1000
0001
0000
,  // measure 114
0100
1000
0010
0000
0100
0001
0010
0000
0100
1000
0001
0000
0100
0001
1000
0000
,  // measure 115
0010
0100
1000
0000
0010
0100
0001
0000
0010
1000
0010
0001
0010
0000
0100
0000
,  // measure 116
0010
1000
0100
0000
0010
0001
0100
0000
0010
1000
0010
0000
0010
0001
0010
0000
,  // measure 117
0010
1000
0010
0001
0010
1000
0010
0001
0010
1000
0010
0000
0010
1000
0100
0000
,  // measure 118
0010
0001
0100
0000
0010
1000
0001
0000
0010
0001
1000
0000
0010
1000
0100
0000
,  // measure 119
0010
0001
0100
0000
0010
1000
0100
0000
0010
0001
0100
0000
0010
1000
0100
0000
,  // measure 120
0010
0100
1000
0100
0010
0001
0010
0100
1000
0100
0010
0001
0010
0100
1000
0000
,  // measure 121
0010
0001
0100
0000
0010
1000
0100
0000
0010
0001
1000
0000
0010
1000
0001
0000
,  // measure 122
0100
1000
0010
0000
0100
0001
0010
0000
0100
1000
0001
0000
0100
0001
1000
0000
,  // measure 123
0010
0100
1000
0000
0010
0100
0001
0000
0010
1000
0010
0001
0010
0000
0100
0000
,  // measure 124
0010
1000
0100
0000
0010
0001
0100
0000
0010
1000
0010
0000
0010
0001
0010
0000
,  // measure 125
0010
1000
0010
0001
0010
1000
0010
0001
0010
1000
0010
0100
0010
1000
0100
0010
,  // measure 126
0001
0100
0010
1000
0100
0010
0001
0010
0100
0010
0001
0010
0100
1000
0100
0010
,  // measure 127
0100
1000
0100
0010
0100
1000
0100
0010
0001
0010
0100
1000
0010
0100
0001
0010
,  // measure 128
0100
1000
0010
0100
0001
0010
0100
1000
0010
0100
0001
1000
0100
1000
0001
0000
,  // measure 129
2002
0000
0000
0000
,  // measure 130
0000
0000
0000
0000
,  // measure 131
0000
0000
0000
0000
,  // measure 132
0000
0000
0000
0000
,  // measure 133
3003
0000
0000
0000
;
