#TITLE:SUNDAY;
#SUBTITLE:-But I'm busy! MiX-;
#ARTIST:MIKE Remixed by Nitrix;
#TITLETRANSLIT:;
#SUBTITLETRANSLIT:;
#ARTISTTRANSLIT:;
#CREDIT:;
#BANNER:SUNDAY -But I'm busy! MiX-.png;
#BACKGROUND:SUNDAY -But I'm busy! MiX--bg.png;
#LYRICSPATH:;
#CDTITLE:cdtitle.png;
#MUSIC:SUNDAY -But I'm busy! MiX-.mp3;
#OFFSET:-8.650;
#SAMPLESTART:93.160;
#SAMPLELENGTH:12.000;
#SELECTABLE:YES;
#BPMS:0.000=125.000,16.000=250.001;
#STOPS:;
#BGCHANGES:;

//---------------dance-single - BASIC----------------
#NOTES:
     dance-single:
     BASIC:
     Easy:
     4:
     0.251,0.338,0.338,0.000,0.000:
0000
0000
0000
0000
,
0000
0000
0000
0000
,
0000
0000
0000
0000
,
0000
0000
0000
0000
,
1001
0000
0000
1000
,
1000
0000
0000
0001
,
0001
0000
0000
1000
,
1000
0000
0000
0000
,
1000
0000
0000
0001
,
0001
0000
0000
1000
,
1000
0000
0000
0001
,
0001
0000
0000
0000
,
0001
0000
0000
1000
,
1000
0000
0000
0010
,
0010
0000
0000
1000
,
1000
0000
0000
0000
,
0001
0000
0000
0001
,
0001
0000
0000
0010
,
0100
0000
0000
0000
,
1001
0000
0000
0000
,
0001
0000
0100
0000
,
0010
0000
0100
0000
,
0001
0000
1000
0000
,
0010
0000
1000
0000
,
0001
0000
0100
0000
,
0010
0000
1000
0000
,
0001
0000
1000
0000
,
0100
0000
0010
0000
,
0001
0000
1000
0000
,
0100
0000
1000
0000
,
0001
0000
0010
0000
,
0100
0000
1000
0000
,
0001
0000
1000
0000
,
0010
0000
0100
0000
,
0001
0000
1000
0000
,
1001
0000
0000
0000
,
1001
0000
0010
0000
,
1001
0000
0000
0000
,
1001
0000
0100
0000
,
1001
0000
0000
0000
,
1001
0000
0010
0000
,
1001
0000
0000
0000
,
1001
0000
0100
0000
,
1001
0000
0000
0000
,
1001
0000
0010
0000
,
1001
0000
0000
0000
,
1001
0000
0010
0000
,
1001
0000
0000
0000
,
1001
0000
0100
0000
,
1001
0000
0000
0000
,
1001
0000
0010
0000
,
1001
0000
0000
0000
,
1001
0000
0000
0000
,
1000
0000
0000
0000
,
0010
0000
0000
0000
,
0100
0000
0000
0000
,
0100
0000
0000
0000
,
0001
0000
0000
0000
,
0010
0000
0000
0000
,
0100
0000
0000
0000
,
1000
0000
0001
0000
,
0100
0000
0010
0000
,
1000
0000
0001
0000
,
0100
0000
0010
0000
,
1000
0000
1000
0000
,
0001
0000
0001
0000
,
0010
0000
0100
0000
,
1001
0000
0000
0000
,
1001
0000
1000
0000
,
0010
0000
0100
0000
,
0001
0000
0010
0000
,
0100
0000
0010
0000
,
0001
0000
1000
0000
,
0001
0000
0100
0000
,
0010
0000
1000
0000
,
0100
0000
1000
0000
,
0001
0000
1000
0000
,
0010
0000
0100
0000
,
0001
0000
1000
0000
,
0100
0000
1000
0000
,
0001
0000
0010
0000
,
0100
0000
1000
0000
,
0001
0000
1000
0000
,
1001
0000
0000
0000
,
1001
0000
1000
0000
,
1001
0000
0010
0000
,
1001
0000
0001
0000
,
1001
0000
0100
0000
,
1001
0000
1000
0000
,
1001
0000
0010
0000
,
1001
0000
0001
0000
,
1001
0000
0100
0000
,
1001
0000
1000
0000
,
1001
0000
0100
0000
,
1001
0000
0001
0000
,
1001
0000
0010
0000
,
1001
0000
0001
0000
,
1001
0000
0100
0000
,
1001
0000
0010
0000
,
1001
0000
0000
0000
,
1001
0000
0000
0000
;

//---------------dance-single - TRICK----------------
#NOTES:
     dance-single:
     TRICK:
     Medium:
     6:
     0.476,0.508,0.787,0.034,0.000:
0000
0000
0000
0000
,
0000
0000
0000
0000
,
0000
0000
0000
0000
,
0000
0000
0000
0000
,
1001
0000
0000
1001
,
1001
0000
0000
1001
,
1001
0000
0000
1001
,
1001
0000
0000
1001
0000
0000
1001
0000
,
1001
0000
0000
1001
,
1001
0000
0000
1001
,
1001
0000
0000
1001
,
1001
0000
0000
0110
0000
0000
1001
0000
,
1001
0000
0000
1001
,
1001
0000
0000
0110
,
0110
0000
0000
1001
,
1001
0000
0000
0110
0000
0000
0110
0000
,
0110
0000
0000
1001
,
1001
0000
0000
1001
0000
0000
0110
0000
,
0110
1000
0100
0010
,
1001
0000
0000
0000
,
0001
0100
0010
1000
,
0100
0010
0100
1000
,
0001
0010
0100
1000
,
0001
1000
0010
1000
,
0001
1000
0100
0010
,
0001
0010
0100
0010
,
0001
1000
0010
0100
,
0001
1000
0100
0010
,
0100
1000
0001
1000
,
0010
0100
0001
0010
,
0100
1000
0100
0010
,
0001
0010
1000
0100
,
0001
0010
0100
1000
,
0010
1000
0001
0100
,
0010
1000
0100
0010
,
1001
0000
0000
1001
0000
0000
1001
0000
,
1000
0100
0001
0000
,
1001
0000
0110
0000
,
0001
0100
1000
0000
,
1001
0000
0110
0000
,
1000
0010
0001
0000
,
1001
0000
0110
0000
,
0001
0100
1000
0000
,
1001
0110
1001
0110
,
1000
0010
0001
0000
,
1001
0000
0110
0000
,
0001
0100
1000
0000
,
1001
0000
0110
0000
,
1000
0010
0001
0000
,
1001
0000
0110
0000
,
0001
0010
1000
0000
,
1001
0000
0000
0110
0000
0000
0110
0000
,
1001
0000
1000
0000
,
2000
0000
3000
0000
,
0010
0000
0010
0000
,
0020
0000
0030
0000
,
0100
0000
0100
0000
,
0200
0000
0300
0000
,
0001
0010
0100
1000
,
0002
0000
0003
0000
,
1000
0100
0001
0100
,
1000
0010
0001
0010
,
1000
0010
0100
0001
,
0100
0010
1000
0100
,
1001
0000
0110
0000
,
1001
0000
0110
0000
,
1001
1000
0100
0001
,
1001
0000
0010
0000
,
0001
0010
1000
0010
,
0001
0100
0010
1000
,
0001
1000
0010
1000
,
0100
0010
0001
0100
,
0010
1000
0001
1000
,
0001
0010
0100
1000
,
0010
0100
1000
0100
,
0001
0010
0100
0001
,
0100
1000
0010
1000
,
0001
0100
0010
1000
,
0001
1000
0100
0010
,
0001
1000
0010
0100
,
0001
1000
0100
0010
,
0100
1000
0001
0010
,
1000
0010
0001
1000
,
1001
0000
0000
1001
0000
0000
0110
0000
,
1000
0010
0001
0000
,
1001
0110
1001
0000
,
0001
0100
1000
0000
,
1001
0110
1001
0000
,
0010
0010
0100
0000
,
1001
1001
1001
0000
,
1000
0010
0001
0100
,
1001
0010
1000
0100
,
1001
0100
1000
0000
,
1001
0110
1001
0000
,
1001
0100
0001
0000
,
1001
0110
1001
0000
,
1001
0010
1000
0000
,
1001
0110
1001
0000
,
1001
0010
0001
0000
,
1001
0000
0000
1100
0000
0000
0011
0000
,
1001
0000
0000
0000
;

//---------------dance-single - HEAVY----------------
#NOTES:
     dance-single:
     HEAVY:
     Hard:
     8:
     0.676,0.762,0.965,0.034,0.017:
0000
0000
0000
0000
,
0000
0000
0000
0000
,
0000
0000
0000
0000
,
0000
0000
0000
0000
,
1001
0000
1000
0010
0000
0000
1001
0000
,
0110
0000
0100
0001
0000
0000
1001
0000
,
1001
0000
0001
1000
0000
0000
1001
0000
,
1001
0000
0000
0110
0000
0000
1001
0000
,
1001
0000
1000
0001
0000
0000
1001
0000
,
0110
0000
0010
0100
0000
0000
1001
0000
,
0110
0000
0010
1000
0000
0000
1001
0000
,
1010
0000
0000
1001
0000
0000
0101
0000
,
1001
0000
1000
0001
0000
0000
0011
0000
,
1100
0000
1000
0010
0000
0000
0101
0000
,
1001
0000
0001
0010
0000
0000
0110
0000
,
1001
0000
0000
1010
0000
0000
0101
0000
,
1001
0000
1000
0001
0000
0000
1001
0000
,
1001
0000
0000
1001
0000
0000
0110
0000
,
0001
0010
0100
1000
0010
0100
0001
1000
,
2002
0000
0000
3003
,
1000
0000
0100
0000
0010
0001
0100
0000
,
0001
0000
1000
0000
0010
0100
0001
0000
,
0100
0000
1000
0000
0100
0001
0010
0000
,
0100
0000
1000
0000
0010
0100
0001
0010
,
0100
0000
1000
0000
0010
0100
1000
0000
,
0001
0000
1000
0000
0100
0010
0001
0000
,
0010
0000
1000
0000
0001
0010
0100
0000
,
0010
0000
0001
0000
0100
0001
0010
0100
,
1000
0000
0001
0010
0001
0000
1000
0001
,
1000
0000
0010
0100
0010
0000
1000
0010
,
1000
0000
0010
0100
0010
0000
1000
0100
,
1000
0000
0001
0100
0001
0000
1000
0100
,
1000
0000
0001
0100
0010
0000
1000
0100
,
0010
0000
0001
0100
0010
0000
1000
0001
,
0100
0000
0010
1000
0100
0000
0010
0000
,
1001
0000
0000
0110
0000
0000
1001
0000
,
1001
0110
1001
0000
,
1000
0010
1000
0001
0100
0000
0100
0000
,
1001
0110
1001
0000
,
0001
0010
0000
0100
1000
0000
1000
0000
,
1001
0110
1001
0000
,
0001
0010
0001
1000
0100
0000
0001
0000
,
1001
0000
0110
0000
1001
0000
1000
0001
,
1000
0001
1000
0001
1000
0001
1000
0000
,
1001
0110
1001
0000
,
0001
0010
0001
1000
0010
0000
0010
0000
,
1001
0110
1001
0000
,
1000
0010
0000
0100
0001
0000
0001
0000
,
1001
0110
1001
0000
,
1000
0010
1000
0001
0010
0000
1000
0000
,
1001
0000
0110
0000
1001
0000
0001
1000
,
0001
1000
0001
1000
0001
1000
0001
0000
,
1001
1000
1000
1000
,
1000
0000
1000
0100
0000
0100
0010
0000
,
0010
0010
0010
0010
,
0010
0000
0010
0001
0000
0001
0100
0000
,
0100
0100
0100
0100
,
0100
0000
0010
0000
0000
1000
0000
0000
0001
0000
0000
0100
,
0000
0001
0010
0000
0100
0000
1000
0000
,
0001
0010
0100
1000
0001
0000
1000
0000
,
1001
1000
0001
0100
,
1000
0001
1000
0100
,
0001
1000
0100
0001
,
1000
0001
0100
1000
,
1001
1001
0110
0110
,
1001
1001
0110
1001
,
0110
1000
0100
0001
,
2002
0000
0000
3003
,
1001
0000
0001
0000
0100
0010
1000
0000
,
0001
0000
0100
0000
0010
1000
0001
0000
,
0100
0000
0010
0000
1000
0001
0100
0000
,
0010
0000
1000
0000
0100
0010
0001
0000
,
1000
0000
0010
0000
0100
0010
0001
0000
,
0010
0000
1000
0000
0001
1000
0100
0000
,
0010
0000
0001
0000
1000
0001
0100
0000
,
0010
0000
0100
0000
1000
0100
0001
0000
,
0100
0000
0010
0000
1000
0001
0100
0000
,
0010
0000
1000
0000
0100
0010
0001
0000
,
1000
0000
0010
0000
0100
0001
1000
0000
,
0010
0000
0100
0000
0001
0010
0100
0000
,
1000
0000
0100
0000
0010
0001
1000
0000
,
0010
0000
0100
0000
0001
1000
0100
0000
,
0010
0000
0100
0000
1000
0010
0100
0000
,
1001
0000
0000
0110
0000
0000
1001
0000
,
1001
0110
1001
1000
,
0001
0010
0100
1000
0001
0000
0001
0000
,
1001
0110
1001
1000
,
1000
0010
0000
0100
0001
0000
0001
0000
,
1001
0110
1001
0001
,
1000
0010
0100
0001
1000
0000
1000
0000
,
1001
0000
0110
0000
1001
0000
1000
0001
,
1000
0001
1000
0001
1000
0001
1000
0000
,
1001
0110
1001
1000
,
1010
1001
1010
1000
,
1001
0110
1001
0001
,
0011
1001
0011
0001
,
1001
0110
1001
1000
,
1010
0110
0101
0001
,
1001
0110
1001
0001
,
1001
0110
1001
0110
,
1001
0000
0000
0000
;

//---------------dance-single - ONI----------------
#NOTES:
     dance-single:
     ONI:
     Challenge:
     10:
     0.812,0.888,1.000,0.017,0.157: // measure 1
0000
0000
0000
0000
,  // measure 2
0000
0000
0000
0000
,  // measure 3
0000
0000
0000
0000
,  // measure 4
0000
0000
0000
0000
,  // measure 5
1001
0000
0001
1000
0001
0000
1001
0000
,  // measure 6
0110
0000
0100
0010
0100
0000
1001
0000
,  // measure 7
1001
0000
0010
0100
0010
0000
1001
0000
,  // measure 8
1001
0000
0010
0110
0000
1000
1001
0000
,  // measure 9
1001
0000
1000
0001
1000
0000
1001
0000
,  // measure 10
0110
0000
0010
0100
0010
0000
1001
0000
,  // measure 11
0110
0000
0001
1000
0001
0000
1001
0000
,  // measure 12
1010
0000
1000
0110
0000
0100
0101
0000
,  // measure 13
1001
0000
0001
1000
0001
0000
0011
0000
,  // measure 14
1100
0000
1000
0010
1000
0000
0101
0000
,  // measure 15
1001
0000
0001
0010
0100
0000
0110
0000
,  // measure 16
1001
0000
1000
1010
0000
0001
0101
0000
,  // measure 17
1001
0000
1000
0001
1000
0000
1001
0000
,  // measure 18
1001
0000
0001
1001
0000
0100
0110
0000
,  // measure 19
0001
0000
0010
0000
0100
0000
1000
0000
0010
0000
0100
0000
0001
0000
1000
0002
,  // measure 20
2000
0000
0000
3003
,  // measure 21
1000
0001
0100
0000
0100
0001
1000
0100
,  // measure 22
0001
0100
1000
0000
0010
1000
0001
0010
,  // measure 23
0100
0001
1000
0000
0100
1000
0010
0100
,  // measure 24
0001
1000
0001
0000
0010
0100
1000
0010
,  // measure 25
1000
0001
0100
0000
0010
0100
0001
0010
,  // measure 26
0001
0100
0010
0000
0100
0001
0010
1000
,  // measure 27
0010
0100
1000
0000
0001
0010
0100
1000
,  // measure 28
0010
1000
0001
0000
0010
0100
1000
0001
,  // measure 29
1000
0100
0010
0001
0100
0010
1000
0100
,  // measure 30
1000
0001
0100
0010
0100
0001
0010
0100
,  // measure 31
1000
0010
0100
1000
0100
0001
0100
0010
,  // measure 32
1000
0100
0001
0100
1000
0010
0100
0010
,  // measure 33
1000
0001
0100
1000
0100
0001
0010
0100
,  // measure 34
0010
0001
0100
0010
0100
1000
0100
0010
,  // measure 35
0001
0010
1000
0100
0010
0001
0100
0010
,  // measure 36
1001
0000
0000
0110
0000
0000
1001
0000
,  // measure 37
1001
0100
0010
0100
1001
0000
0001
0000
,  // measure 38
1000
0010
1000
0001
0100
0010
0100
0000
,  // measure 39
1001
0010
0100
0010
1001
0000
1000
0000
,  // measure 40
0011
0010
0000
0100
1100
0000
1000
0000
,  // measure 41
1001
0010
0100
0010
1001
0000
0001
0000
,  // measure 42
0001
0010
0001
1000
0100
0000
0001
0000
,  // measure 43
1001
0100
0010
0100
1001
0000
1000
0001
,  // measure 44
1000
0001
1000
0001
1000
0001
1000
0000
,  // measure 45
1001
0010
0100
0010
1001
0000
1000
0000
,  // measure 46
0001
0010
0001
1000
0010
0100
0010
0000
,  // measure 47
1001
0010
0100
0010
1001
0000
1000
0000
,  // measure 48
1010
0010
0000
0100
0101
0000
0001
0000
,  // measure 49
1001
0100
0010
0100
1001
0000
0001
0000
,  // measure 50
1000
0010
1000
0001
0010
0000
1000
0000
,  // measure 51
1001
0100
0010
0100
1001
0000
0001
1000
,  // measure 52
0001
1000
0001
1000
0001
1000
0001
0000
,  // measure 53
1001
0000
0000
0010
0000
1000
0010
0000
0000
0010
0000
0100
,  // measure 54
0010
0000
0000
0000
0000
0000
0010
0000
0000
1000
0000
0000
0000
0000
0000
0000
1000
0000
0010
0000
0000
0000
0010
0000
,  // measure 55
0100
0000
0000
0100
0000
0100
0010
0000
0000
0010
0000
0001
,  // measure 56
0010
0000
0000
0000
0000
0000
0010
0000
0000
1000
0000
0000
0000
0000
0000
0000
0001
0000
0100
0000
0000
0000
1000
0000
,  // measure 57
0100
0000
0000
0100
0000
0010
0100
0000
0000
0100
0000
0001
,  // measure 58
0100
0000
0000
0000
0010
0000
0000
0000
0000
0000
0100
0000
0000
0000
0000
0000
1000
0000
0000
0000
1000
0100
0000
0000
,  // measure 59
0000
0000
0000
0001
0000
0000
0100
0000
0100
1000
0000
0100
,  // measure 60
0001
0000
0010
0100
0000
0100
0010
0000
0000
0100
0000
0000
,  // measure 61
1001
0000
1000
0100
0000
1000
0001
0000
1000
0100
0000
1000
,  // measure 62
0001
0000
0000
0000
0000
0000
0001
0000
0000
1000
0000
0000
0000
0000
0000
0000
1000
0000
0001
0000
0000
0000
0000
0000
,  // measure 63
1000
0000
0001
0100
0000
0001
1000
0000
0001
0100
0000
0001
,  // measure 64
1000
0000
0000
0000
0000
0000
1000
0000
0000
0001
0000
0000
0000
0000
0000
0000
0001
0000
1000
0000
0000
0000
0000
0000
,  // measure 65
0001
0000
0000
0000
0010
0100
0010
0100
0010
0000
0000
0000
0100
0010
0100
0010
,  // measure 66
0100
0000
0000
0000
0001
1000
0001
1000
0001
0000
0000
0000
1000
0001
1000
0001
,  // measure 67
1000
0010
0010
0010
,  // measure 68
1000
0100
0010
0001
1000
0000
1001
0000
,  // measure 69
1000
0000
0001
0000
0100
0010
0000
1000
,  // measure 70
0001
0000
0010
0100
0000
1000
0001
0000
,  // measure 71
0001
0000
0010
0000
0100
1000
0000
0100
,  // measure 72
0010
0000
0001
0010
0000
0010
0001
0010
,  // measure 73
1000
0000
0010
0000
0100
0010
0000
0001
,  // measure 74
0010
0000
0100
1000
0000
0001
0100
0000
,  // measure 75
0010
0000
1000
0000
0010
0100
0000
0001
,  // measure 76
0010
0000
0100
1000
0000
1000
0010
0100
,  // measure 77
0010
0000
0010
0000
1000
0001
0000
0010
,  // measure 78
0100
0000
1000
0100
0000
0010
0001
0000
,  // measure 79
1000
0000
0010
0000
0100
0001
0000
0100
,  // measure 80
0010
0000
1000
0100
0000
0010
0100
1000
,  // measure 81
0100
0000
0100
0000
0010
0001
0000
0100
,  // measure 82
0010
0000
1000
0100
0000
0010
0001
0000
,  // measure 83
0010
0000
0100
0000
1000
0010
0000
0100
,  // measure 84
1001
0000
0000
0110
0000
0000
0110
0000
,  // measure 85
1001
1001
1001
0110
,  // measure 86
0101
1010
0101
0110
,  // measure 87
1001
1001
1001
0110
,  // measure 88
0011
1100
0011
0110
,  // measure 89
1001
1001
1001
0110
,  // measure 90
1010
0101
1010
0110
,  // measure 91
1001
1001
1001
0110
,  // measure 92
1001
0110
0011
1100
,  // measure 93
1001
1001
1001
0110
,  // measure 94
0011
1100
0011
0110
,  // measure 95
1001
1001
1001
0110
,  // measure 96
1010
0101
1010
0110
,  // measure 97
1001
1001
1001
0110
,  // measure 98
1010
0011
1010
0110
,  // measure 99
1001
1001
1001
0110
,  // measure 100
1100
0000
1000
0001
0101
0000
1010
0000
,  // measure 101
1001
0000
0000
0000
;
