#TITLE:SIN √sublimity;
#SUBTITLE:;
#ARTIST:ESTi remixed by celas;
#TITLETRANSLIT:;
#SUBTITLETRANSLIT:;
#ARTISTTRANSLIT:;
#CREDIT:;
#BANNER:SIN sublimity-bn.png;
#BACKGROUND:SIN sublimity-bg.png;
#LYRICSPATH:;
#CDTITLE:;
#MUSIC:SIN sublimity.mp3;
#OFFSET:-3.933;
#SAMPLESTART:83.041;
#SAMPLELENGTH:12.000;
#SELECTABLE:YES;
#BPMS:0.000=185.000,132.000=92.500,136.000=46.250,137.000=370.000,145.000=185.000,209.000=92.500,225.000=370.000,226.000=185.000,377.000=370.000,389.000=740.000,393.000=185.000;
#STOPS:225.000=0.162
,379.000=0.081
,381.500=0.081
,384.000=0.081
,386.500=0.081
,393.000=0.486
;
#BGCHANGES:;

//---------------dance-single - heavy----------------
#NOTES:
     dance-single:
     heavy:
     Hard:
     9:
     0.675,0.969,0.056,0.274,0.113: // measure 1
0000
0000
0000
0000
,  // measure 2
0000
0000
0000
0000
,  // measure 3
0000
0000
0000
0000
,  // measure 4
0000
0000
0000
0000
,  // measure 5
0000
0000
0000
0000
,  // measure 6
0000
0000
0000
0000
,  // measure 7
0000
0000
0000
0000
,  // measure 8
0000
0000
0000
0000
,  // measure 9
0200
0000
1000
0300
0100
1000
0100
0001
,  // measure 10
0200
0000
0010
0000
0310
0001
0010
0000
,  // measure 11
0010
1000
0010
0001
0020
0000
0100
0000
,  // measure 12
0130
0000
0001
0100
1000
0100
0001
0100
,  // measure 13
1000
0000
1000
0010
0001
0010
1000
0000
,  // measure 14
0001
1000
0010
0001
0010
1000
0010
0001
,  // measure 15
0010
0000
0100
1000
0100
0001
0100
0000
,  // measure 16
1000
0100
0001
0100
1000
0001
0100
1000
,  // measure 17
0200
0001
0010
1300
,  // measure 18
0001
1000
0001
0100
0010
0100
0001
0000
,  // measure 19
0200
1000
0320
0001
,  // measure 20
2030
0100
3002
0010
,  // measure 21
1003
0000
0100
0010
0001
0010
0100
0000
,  // measure 22
1000
0100
0010
0100
1000
0100
0010
0001
,  // measure 23
0010
0000
0100
1000
0100
0010
0001
0010
,  // measure 24
0100
0001
0100
0010
1000
0010
0100
0000
,  // measure 25
0001
0100
1000
0100
0001
0100
1000
0010
,  // measure 26
0001
0010
0100
0000
1000
0100
0010
0000
,  // measure 27
0010
0001
0010
0100
1000
0100
0010
0000
,  // measure 28
1001
0000
0100
0010
0000
1000
0100
0000
,  // measure 29
0001
0010
1000
0100
0001
0000
0100
0000
,  // measure 30
1000
0010
0001
0010
1000
0000
1000
0100
,  // measure 31
1000
0010
0001
0000
0001
0100
0010
0100
,  // measure 32
0001
0000
0100
0000
0010
0000
1000
0000
0100
0000
0000
0001
0010
0000
0000
0000
,  // measure 33
0100
1000
0001
0100
0001
1000
0010
1000
,  // measure 34
0200
0010
1000
0001
,  // measure 35
2300
0002
0000
0000
,  // measure 36
0000
0000
0000
0000
,  // measure 37
3003
0000
1000
0100
0010
0001
1000
0100
,  // measure 38
0010
0100
1000
0001
0100
0010
1000
0001
,  // measure 39
0100
0010
0100
0001
1000
0010
0100
0001
,  // measure 40
1000
0001
1000
0100
1000
0001
0010
0100
,  // measure 41
0010
0001
0010
1000
0010
0001
0010
1000
,  // measure 42
0100
1000
0100
0001
0100
1000
0100
0010
,  // measure 43
0100
0001
0100
0010
1000
0010
0001
0010
,  // measure 44
0001
0010
1000
0100
1000
0010
1000
0100
,  // measure 45
0010
0001
0100
0010
0100
0001
0100
0001
,  // measure 46
0100
1000
0100
0001
0100
1000
0010
1000
,  // measure 47
0010
1000
0010
0001
0010
0100
0010
0001
,  // measure 48
0010
1000
0010
1000
0010
0001
0100
0010
,  // measure 49
0100
0001
1000
0100
1000
0010
1000
0010
,  // measure 50
1000
0100
0010
0100
0001
0100
1000
0100
,  // measure 51
1000
0010
0200
0000
0002
0300
0020
0003
,  // measure 52
2000
0000
0030
0000
3001
0000
0100
0000
0010
0000
1000
0000
0001
0100
0001
0000
,  // measure 53
1000
0010
1000
0000
0010
0000
0000
0001
0100
0010
1000
0010
0200
0000
0302
0000
,  // measure 54
0023
0000
2030
0000
3100
0000
0000
1000
0010
0100
0001
0100
0020
0000
2030
0000
,  // measure 55
3200
0000
0302
0000
1003
0000
0000
0100
0010
0000
0001
0010
0100
0000
0001
1000
,  // measure 56
0010
0000
0100
1000
0010
0001
0010
0100
1000
0100
0010
0000
1000
0100
0010
0100
,  // measure 57
1000
0010
0001
0000
0000
0000
0000
0000
1001
0000
0000
0000
0100
0000
0010
0000
,  // measure 58
0100
0000
1000
0100
0010
0100
1000
0100
,  // measure 59
0010
0000
0001
0010
0100
0010
0001
0010
,  // measure 60
1000
0010
0001
0100
0010
0100
0001
0100
,  // measure 61
1000
0000
0100
0001
1000
0000
0100
0001
,  // measure 62
0010
0100
0010
0001
0010
0100
1000
0010
,  // measure 63
0001
0000
0010
1000
0010
0001
0100
1000
,  // measure 64
0010
1000
0100
1000
0010
0100
0010
1000
,  // measure 65
0010
0000
0100
0001
0110
0000
0010
0100
,  // measure 66
0001
0010
0100
0001
0010
1000
0001
0100
,  // measure 67
0010
0100
0000
0100
1000
0000
0010
0100
,  // measure 68
1000
0010
0100
1000
0010
0001
1000
0100
,  // measure 69
0010
0100
0000
1000
0010
0000
0100
0010
,  // measure 70
0001
0100
0010
0001
0100
1000
0001
0010
,  // measure 71
0001
0100
0000
0100
0010
0000
0100
0010
,  // measure 72
1000
0100
0010
1000
0100
0001
1000
0100
,  // measure 73
1000
0010
0000
0000
1001
0000
0010
0001
,  // measure 74
0010
0000
1000
0100
0001
0100
1000
0010
,  // measure 75
0001
0000
2000
0000
0100
0000
3010
0100
,  // measure 76
1000
0000
0010
0000
0200
0000
0000
0310
0002
0000
0000
0103
2000
0000
0000
3001
,  // measure 77
0020
0000
0000
1030
0200
0000
0000
0000
0301
0000
0100
0000
2000
0000
0000
0000
,  // measure 78
3100
1000
0020
0000
1030
0010
0002
0000
,  // measure 79
0013
0001
0200
0000
1300
0100
0001
0010
,  // measure 80
1000
0000
0100
0001
0110
1000
0100
0001
,  // measure 81
0110
0000
2000
0000
0001
0000
3010
0100
,  // measure 82
1000
0000
0010
0000
1000
0000
0000
0100
0010
0000
0000
0001
0010
0000
0000
1000
,  // measure 83
0010
0000
0000
0001
0010
0000
0000
0100
1000
0000
0010
0000
0000
0000
0100
0000
,  // measure 84
1001
0100
0001
0010
1000
0001
0100
0010
,  // measure 85
0001
0010
1000
0000
0010
0001
0100
1000
,  // measure 86
0100
0001
0020
0000
1030
0010
0002
0000
,  // measure 87
1003
0100
0001
0010
1000
0100
0010
0010
,  // measure 88
0001
0000
0100
1000
0010
1000
0100
1000
,  // measure 89
0010
0000
0001
0010
1000
0100
0001
0010
,  // measure 90
1000
0000
0100
0000
0010
0000
0000
0001
0010
0000
0000
1000
0100
0000
0000
0001
,  // measure 91
0100
0000
0000
0010
0200
0000
1000
0000
0301
0000
0010
0000
1000
0000
0100
0000
,  // measure 92
1000
0010
0001
0010
1000
0010
0001
0100
,  // measure 93
0001
0010
1000
0100
0010
1000
0010
0001
,  // measure 94
1000
0100
0001
0010
1000
0100
0010
1000
,  // measure 95
0001
0010
1000
0000
0100
0010
0100
0010
,  // measure 96
0000
0001
0100
0001
0100
0000
1000
0100
,  // measure 97
1000
0100
0000
0001
0010
0001
0010
0000
,  // measure 98
0100
0020
0200
0000
0000
0000
0000
0000
,  // measure 99
0000
0000
0330
1001
0000
0000
0000
0000
;

//---------------dance-single - standard----------------
#NOTES:
     dance-single:
     standard:
     Medium:
     6:
     0.456,0.658,0.162,0.401,0.004:
0000
0000
0000
0000
,
0000
0000
0000
0000
,
0000
0000
0000
0000
,
0000
0000
0000
0000
,
0000
0000
0000
0000
,
0000
0000
0000
0000
,
0000
0000
0000
0000
,
0000
0000
0000
0000
,
0200
1000
0302
0100
,
0023
0001
2030
0010
,
3200
1000
0302
0100
,
2003
0100
3002
1000
,
0203
0001
2300
0100
,
3020
0001
2030
0010
,
3002
0010
2003
0100
,
3002
1000
0203
1000
,
0301
0000
0100
0000
1000
0100
0001
0000
,
1000
0100
0001
0100
,
1000
0000
0010
0000
0100
0001
0010
0000
,
0200
0000
2300
0000
,
3010
0000
0001
0000
1000
0100
0001
0000
,
1000
0100
0010
0001
,
1000
0001
0100
0000
0001
0000
1000
0000
,
0100
0000
0010
0001
0100
0010
1000
0000
,
0100
0110
0100
1000
,
0001
0100
0001
1000
,
0100
1000
0010
0001
,
0010
0000
1000
0100
0010
0000
0001
0000
,
0010
0000
1000
0000
0010
0000
0001
0100
,
1000
0010
0001
0100
,
0010
0000
0100
0000
1000
0000
0010
1000
,
0100
0010
0001
0100
,
0001
0000
0010
0000
1000
0000
0000
0000
0010
0000
0000
0100
0000
0000
1000
0000
,
0002
0100
0100
0010
,
0023
0030
0000
0000
,
0000
0000
0000
0000
,
0000
1000
0000
0001
,
0000
1000
0001
0100
,
1000
0001
1000
0010
,
0001
0000
0010
0000
1000
0000
0010
0001
,
0010
1000
0010
0000
0001
0000
0010
0000
,
1000
0100
0001
1000
,
0001
0100
0100
0100
,
0100
0100
0010
0000
0010
0000
0010
0000
,
1001
0010
0100
1000
,
0001
0100
1000
0100
,
0001
1000
0100
0001
,
0010
0001
0000
0000
0100
0000
0010
0000
,
1000
0010
0010
0000
0001
0000
0010
0000
,
1000
0001
0001
0000
1000
0000
0100
0000
,
0001
0100
0200
0000
2300
0000
3002
0000
,
0203
0310
0110
1001
,
0110
0000
2000
0000
0100
0100
3200
0000
,
0001
0001
0302
0000
0100
0100
0203
0000
,
0010
0010
0320
0000
0230
0000
0302
0000
,
2003
0000
0100
3200
0010
0320
0100
0230
,
0020
0000
0330
1000
,
0100
0001
0100
1000
,
0100
1001
0100
0001
,
0100
1000
0100
0001
,
0100
1000
0101
1000
,
0100
0001
0100
1000
,
0011
1000
0010
0001
,
0010
1000
0011
1000
,
0100
0001
1100
0001
,
1000
0100
0010
0100
,
0001
0000
0100
0000
0010
0000
0100
1000
,
0100
0010
0100
0001
,
0100
0010
0100
0000
1000
0000
0100
0000
,
0010
0000
0100
0000
0001
0000
0010
0100
,
0010
0001
0010
0100
,
0010
2000
0100
3001
,
1100
0001
0100
1000
,
0010
0001
0100
0010
,
0001
1000
0100
0001
,
0010
2000
3200
0302
,
0203
0320
1000
0032
,
1000
0203
0001
2300
,
0001
3002
0100
1000
,
0013
2000
3200
0302
,
0023
0130
0110
1000
,
0001
0100
1000
0101
,
1000
0101
1000
0100
,
0001
0010
1100
0010
,
0100
1000
0001
0100
,
0110
1000
0001
0010
,
1100
0001
1100
0001
,
1000
0001
0100
1001
,
0101
1000
0100
0010
,
1100
0020
0032
0203
,
2300
3200
0310
1000
,
1001
0000
0100
0001
0010
0000
1000
0100
,
0010
0000
1000
0001
0010
0000
0100
1000
,
0010
0100
0010
0000
1000
0000
0001
0010
,
0100
0000
1000
0000
0000
0000
0001
0100
,
0000
0000
0000
0010
1000
0000
0000
0000
,
0100
0010
0000
0000
0000
0001
0100
0000
,
0000
0220
0000
0000
,
0000
0000
0000
0330
0000
0000
0000
0000
;

//---------------dance-single - light----------------
#NOTES:
     dance-single:
     light:
     Easy:
     3:
     0.258,0.415,0.042,0.183,0.000:
0000
0000
0000
0000
,
0000
0000
0000
0000
,
0000
0000
0000
0000
,
0000
0000
0000
0000
,
0000
0000
0000
0000
,
0000
0000
0000
0000
,
0000
0000
0000
0000
,
0000
0000
0000
0000
,
0200
0000
1000
0000
,
0302
0000
0010
0000
,
0203
0000
0001
0000
,
2300
0000
0010
0000
,
3002
0000
0100
0000
,
0023
0000
1000
0000
,
0032
0000
1000
0000
,
0203
0000
0010
0000
,
2300
0000
0000
0000
,
0002
0000
0000
3003
,
0200
0000
0010
0000
,
0001
0000
1000
0000
,
0310
0000
1001
0000
,
0100
0000
0001
0000
,
1000
0000
0100
0000
,
0001
0100
1000
0010
,
0000
1100
0000
0001
,
0100
0000
1000
0000
,
0100
0000
0001
0010
,
1000
0000
0001
0000
,
1000
0000
0100
0010
,
0001
0000
0010
0000
,
0001
0000
1000
0100
,
1000
0000
0010
0000
,
1000
0000
0001
0100
,
0002
0000
2000
0000
,
3003
0000
0000
0000
,
0000
0000
0000
0000
,
0000
0010
0000
0001
,
0000
1000
0001
1000
,
0000
0100
0000
1000
,
0000
0001
0100
0001
,
0000
0010
0001
0010
,
0000
1000
0000
0010
,
0000
1000
0000
0001
,
0000
0010
0100
0010
,
0001
1000
0000
0100
,
0000
1000
0001
0001
,
0000
0100
0000
0001
,
0000
0100
0010
0010
,
0000
1000
0000
0001
,
0000
0010
0001
0001
,
0000
0020
1000
1000
,
1030
0000
0200
0001
,
1300
0020
0001
0230
,
1000
0320
0001
0230
,
1000
0302
0100
2003
,
0010
3200
0010
0302
,
2000
3003
0000
0010
,
0000
1000
0001
1000
,
0000
0100
0010
0100
,
0000
0001
1000
0001
,
0000
1000
0100
1000
,
0000
0001
0010
0001
,
0000
0100
0010
0100
,
0000
0001
0010
1000
,
0000
0010
0011
0000
,
1000
0000
0001
0000
,
0100
0001
1000
0000
,
0100
0000
1000
0001
,
0010
0000
0001
0000
,
1000
0000
0010
1000
,
0001
0000
0100
0000
,
0010
0000
0100
0001
,
1000
0000
0100
0000
,
0010
0000
0001
0000
,
1000
0010
1000
0000
,
0001
0000
0010
0000
,
0100
1000
0001
0000
,
0100
0000
0001
1000
,
0100
0010
0001
0000
,
0100
0000
1000
0100
,
0010
1001
0100
0000
,
0001
0000
0010
0001
,
1000
0000
0001
0000
,
0100
0000
1000
0001
,
0100
0000
1000
0000
,
0001
0000
0010
1000
,
0001
0000
1000
0000
,
0010
0000
0001
1000
,
0010
0000
0100
0000
,
0010
0000
0001
0010
,
0100
1001
0000
1000
,
0000
0100
0001
0010
,
1000
0100
0001
0100
,
1000
0001
0100
1000
,
0010
0000
0100
0000
0000
0000
0000
0001
,
0000
0000
1000
0000
,
0000
0100
0000
0000
0000
0000
0010
0000
,
0000
2002
0000
0000
,
0000
0000
0000
3003
0000
0000
0000
0000
;

//---------------dance-single - beginner----------------
#NOTES:
     dance-single:
     beginner:
     Beginner:
     2:
     0.106,0.171,0.007,0.000,0.000:
0000
0000
0000
0000
,
0000
0000
0000
0000
,
0000
0000
0000
0000
,
0000
0000
0000
0000
,
0000
0000
0000
0000
,
0000
0000
0000
0000
,
0000
0000
0000
0000
,
0000
0000
0000
0000
,
1000
0000
0000
0000
,
0001
0000
0000
0000
,
0001
0000
0000
0000
,
1000
0000
0000
0000
,
0001
0000
0000
0000
,
1000
0000
0000
0000
,
1000
0000
0000
0000
,
0001
0000
0000
0000
,
0100
0000
0000
0000
,
0010
0000
0000
0000
,
0100
0000
0010
0000
,
0001
0000
1000
0000
,
0100
0000
0000
0000
,
1000
0000
0000
0000
,
0001
0000
0000
0000
,
0100
0000
0010
0000
,
0100
0000
0100
0000
,
0100
0000
0000
0000
,
0010
0000
1000
0000
,
0001
0000
0000
0000
,
0001
0000
1000
0000
,
0001
0000
0000
0000
,
0100
0000
0000
0000
,
1000
0000
0000
0000
,
0010
0000
0100
0000
,
0100
0000
0000
0000
,
0010
0000
0000
0000
,
0000
0000
0000
0000
,
0000
0010
0000
0000
,
0000
0000
0000
0000
,
0000
0001
0000
0000
,
0000
0000
0000
0000
,
0000
1000
0000
0000
,
0000
0000
0000
0000
,
0000
0001
0000
0000
,
0000
0100
0000
0000
,
0000
1000
0000
0000
,
0000
0000
0000
0000
,
0000
1000
0000
0000
,
0000
0010
0000
0000
,
0000
0001
0000
0000
,
0000
0000
0000
0000
,
0000
0001
0000
0000
,
0000
0010
0000
0100
,
0000
0100
0000
1000
,
0000
0100
0000
0001
,
0000
1000
0000
0010
,
0000
0001
0001
0001
,
0000
0000
0100
0000
,
0000
0000
0000
0000
,
0000
0010
0000
0000
,
0000
1000
0000
0000
,
0000
0001
0000
0000
,
0000
0010
0000
0000
,
0000
1000
0000
0001
,
0000
0010
0000
1000
,
0000
0000
0001
0000
,
0000
1000
0000
0000
,
0000
0000
0100
0000
,
0000
0010
0000
0000
,
0000
0000
1000
0000
,
0000
0001
0000
0000
,
0000
0000
0100
0000
,
0000
0001
0000
1000
,
0000
0010
0000
0000
,
0000
0000
0000
1000
,
0000
0001
0000
0000
,
0000
0100
0000
1000
,
0000
0100
0000
0000
,
0000
0010
0000
0000
,
0000
0001
0000
0000
,
0000
0100
0000
0100
,
0000
1000
0000
0000
,
0000
0100
0000
0001
,
0000
0001
0000
0000
,
0000
0010
0000
1000
,
0000
0001
0000
0000
,
0000
0100
0000
1000
,
0000
0100
0000
0000
,
0000
0001
0000
0000
,
0000
0010
0000
0000
,
0000
0010
0000
1000
,
0000
0001
0000
0000
,
0000
0100
0000
0000
,
0000
1000
0000
0000
,
0000
0001
0000
0000
,
0000
0001
0000
0000
,
0000
0000
0000
0000
,
0000
0000
0000
1000
,
0000
1001
0000
0000
;

//---------------dance-single - challenge----------------
#NOTES:
     dance-single:
     challenge:
     Challenge:
     12:
     1.000,1.000,0.457,0.887,0.728: // measure 1
0000
0000
0000
0000
,  // measure 2
0000
0000
0000
0000
,  // measure 3
0000
0000
0000
0000
,  // measure 4
0000
0000
0000
0000
,  // measure 5
0000
0000
0000
0000
,  // measure 6
0000
0000
0000
0000
,  // measure 7
0000
0000
0000
0000
,  // measure 8
0000
0000
0000
0000
,  // measure 9
1100
0100
1000
1100
0100
1000
0100
0101
,  // measure 10
0001
0101
0100
0001
0101
1100
1000
0100
,  // measure 11
0101
0100
1000
1100
0100
0001
0100
1100
,  // measure 12
0100
1100
0101
0001
0101
1100
1000
1100
,  // measure 13
0101
0100
0001
0101
0001
0100
1000
1100
,  // measure 14
1000
0100
0001
0100
0101
1100
1000
0100
,  // measure 15
0101
0001
0100
0101
0100
1000
0100
0101
,  // measure 16
0001
0101
0100
1100
0100
0001
0100
0101
,  // measure 17
2000
0000
0010
0100
3020
0100
1000
0100
,  // measure 18
0032
0000
0100
0010
0203
0001
0010
0001
,  // measure 19
0320
0000
1000
0100
2030
0000
0100
0001
,  // measure 20
3200
0000
0001
0010
0302
0000
0010
1000
,  // measure 21
0013
0000
0000
0001
0100
0000
0000
1000
0100
0000
0000
1000
0010
0000
0000
0100
,  // measure 22
0001
0000
0000
0010
0100
0000
0000
1000
0001
0000
0100
0010
0100
0000
1000
0100
,  // measure 23
1000
0000
0001
0010
0001
0000
1000
0001
1000
0000
0010
0100
0010
0000
1000
0001
,  // measure 24
1000
0100
0010
0100
1000
0000
0001
0100
0010
0100
0001
0000
0010
0100
1000
0100
,  // measure 25
0010
0000
0001
1000
0100
1000
0001
0000
0100
0010
1000
0010
0100
0010
0001
0010
,  // measure 26
0200
1000
1300
0100
0020
0001
0031
0010
,  // measure 27
0200
0001
0301
0100
2000
0010
3010
1000
,  // measure 28
0002
0100
0103
2000
0100
3100
0020
0001
,  // measure 29
0031
2000
0010
3010
0200
0001
2300
0100
,  // measure 30
3020
0001
0031
0010
0200
1000
1300
0100
,  // measure 31
2000
0001
3001
1000
0200
0010
0310
0100
,  // measure 32
0002
0010
0013
0200
1000
1300
0020
0001
,  // measure 33
0031
0200
1000
1300
0002
0100
2003
0100
,  // measure 34
3020
0001
0100
0001
0230
1000
0010
1000
0320
1000
0100
1000
0230
0001
0010
0001
,  // measure 35
1300
0100
0010
0001
1000
0010
0100
0001
1000
0001
0100
0010
1000
0001
0010
0100
1000
0000
0000
0000
0000
0000
0000
0000
0001
0000
0000
0000
0000
0000
0000
0000
1000
0000
0000
0000
0000
0000
0000
0000
0001
0000
0000
0000
0000
0000
0000
0000
0100
0000
0000
0000
0000
0000
0000
0000
0010
0000
0000
0000
0000
0000
0000
0000
,  // measure 36
0100
0010
0001
1000
0100
0010
0001
1000
,  // measure 37
0010
0100
0102
1000
0103
0000
0100
1000
,  // measure 38
1200
0001
0301
0100
0001
0201
1000
1300
,  // measure 39
0100
1000
1200
0001
0301
0100
1000
0100
,  // measure 40
0201
1000
1300
0100
0001
0010
0001
0100
,  // measure 41
1000
0010
0201
1000
1300
0100
0001
0100
,  // measure 42
0201
1000
1300
0100
0001
0100
1200
0001
,  // measure 43
0301
0100
1000
0100
0201
1000
1300
0100
,  // measure 44
0001
0100
1200
0001
0301
0100
1001
0100
,  // measure 45
1001
0010
0021
1000
1030
0010
0001
0010
,  // measure 46
1000
0010
1020
0001
0031
0010
1000
0010
,  // measure 47
0001
0010
0021
1000
1030
0010
1000
0010
,  // measure 48
0001
0010
1001
0100
0001
0100
1001
0010
,  // measure 49
1000
0010
0021
1000
1030
0010
0100
1000
,  // measure 50
0100
0001
1020
0001
0031
0010
0100
0001
,  // measure 51
1000
0000
0000
0000
0100
0000
0000
0000
2010
0000
0000
0000
0100
0000
0000
3000
0012
0000
0000
0000
0100
0000
0000
0003
2010
0000
0000
0000
0100
0000
0000
3000
,  // measure 52
0012
0000
0103
0000
1100
0000
0001
0000
0011
0000
1000
0000
0001
0100
0001
0100
,  // measure 53
1000
0010
0001
0100
0020
0000
1000
0100
1030
0010
0001
0100
0002
0010
0203
0010
,  // measure 54
2300
0010
3200
0010
0302
0000
0100
1000
0103
0001
1000
0100
0002
1000
0023
1000
,  // measure 55
0032
1000
0023
1000
0230
0000
0301
0100
0002
0000
0013
0001
0020
0000
1030
0010
,  // measure 56
2000
0000
3100
1000
0010
0001
0020
0000
1000
0100
2030
0000
0001
0010
3002
0000
,  // measure 57
1000
0100
2000
0000
0000
0000
3003
0000
0110
0000
0000
2000
0100
0000
0000
3020
,  // measure 58
1000
0000
0000
0230
0010
0000
0000
2300
0100
0000
0000
3020
1000
0000
0000
0032
,  // measure 59
0010
0000
0000
0203
0001
0000
0000
2300
0100
0000
0000
3200
1000
0000
0000
0302
,  // measure 60
0100
0000
0000
2003
0001
0000
0000
3020
1000
0000
0000
0230
0010
0000
0000
2300
,  // measure 61
0100
0000
0000
3002
1000
0000
0000
0203
0001
0000
0000
2300
0100
0000
0000
3020
,  // measure 62
1000
0000
0000
2030
0010
0000
0000
3002
1000
0000
0000
0023
0001
0000
0000
2030
,  // measure 63
0010
0000
0000
3002
1000
0000
0000
0203
0001
0000
0000
2300
0100
0000
0000
3020
,  // measure 64
1000
0000
0000
0230
0010
0000
0000
0302
0100
0000
0000
2003
0001
0000
0000
3200
,  // measure 65
1000
0000
0000
0301
0010
0000
0100
1000
0100
0000
0001
0000
0100
0001
0100
0000
,  // measure 66
0001
0000
0100
0000
1000
0010
1000
0000
0100
0000
0001
0010
0001
0000
0100
0001
,  // measure 67
0100
0000
0101
0000
0100
0001
0100
0000
1100
0000
0100
1000
0100
0000
0001
0000
,  // measure 68
0100
0001
0100
0000
1000
0000
0100
1000
0100
0000
0010
0000
0001
0010
0001
0000
,  // measure 69
1000
0010
1000
0000
0100
0000
0010
1000
0010
0000
0100
0000
0010
0001
0010
0000
,  // measure 70
0100
0000
0001
0010
0001
0000
0100
0000
1000
0010
1000
0000
0001
0010
0001
0000
,  // measure 71
1000
0100
1000
0000
0001
0000
1000
0100
1000
0000
0001
0000
1000
0010
1000
0000
,  // measure 72
0100
0001
2001
0100
3002
0100
2003
0100
,  // measure 73
3002
0000
0013
0000
1100
0000
0001
0010
0001
0000
0100
0000
1000
0100
1000
0000
,  // measure 74
0010
0000
0001
1000
0001
0000
0100
0010
0100
0000
1000
0100
1000
0100
1000
0000
,  // measure 75
0001
0010
0001
0000
0100
0010
0100
0010
0100
0000
0001
1000
0001
1000
0001
0000
,  // measure 76
0100
1000
0100
1000
0002
0000
0010
1000
0023
0000
1000
0100
2030
0000
0100
0001
,  // measure 77
3200
0000
0001
0010
0301
0000
0100
0001
2000
0000
0100
0010
3100
0000
1000
0001
,  // measure 78
0020
0000
1000
0100
1030
0000
1000
0100
0020
0000
0001
0100
0031
0000
0100
0001
,  // measure 79
2000
0000
0010
0100
3010
0000
0001
0100
0020
0000
1000
0100
1030
0000
0001
0010
,  // measure 80
0100
0000
1000
0200
0001
0010
0302
0000
1000
0100
2003
0000
0001
0100
3002
0000
,  // measure 81
1000
0010
1003
0000
1001
0000
0100
1000
0010
0000
1001
0000
0001
0000
0100
0001
,  // measure 82
0010
0000
1000
0100
0020
0000
0001
0100
0032
0000
0100
1000
0203
0000
1000
0010
,  // measure 83
2300
0000
0010
0001
3010
0000
0100
0001
0100
0000
1010
0000
0011
0000
0100
0010
,  // measure 84
0100
0000
1100
0000
0101
0000
1000
0100
1000
0000
0001
0010
0001
0100
0001
0100
,  // measure 85
0001
0000
0100
1000
0100
0000
1100
0000
0001
0100
1000
0000
0100
0000
0101
0000
,  // measure 86
1000
0100
0001
0000
0010
0000
1000
0010
1000
0010
0001
0010
0001
0010
0100
0010
,  // measure 87
0100
0010
0100
1000
0001
0000
0100
1000
0010
0000
0001
0000
0010
1000
0100
0000
,  // measure 88
0001
0000
1000
0000
0100
0001
0010
0000
1000
0000
0010
0001
0100
0000
1000
0000
,  // measure 89
0001
0000
0110
0000
1000
0001
0100
0000
0010
0000
1000
0100
0010
0000
0001
0000
,  // measure 90
0100
0010
1000
0000
0100
0010
0001
0000
0100
0000
0010
1000
0100
0000
0010
0000
,  // measure 91
0001
0100
0010
0000
0100
0000
0001
1000
0100
0000
0010
0001
0100
0000
0010
0000
,  // measure 92
1000
0001
0100
0010
0001
0100
0010
1000
0100
1000
0010
0001
0100
0010
1000
0100
,  // measure 93
1000
0001
1000
0100
1000
0000
0010
0100
0001
0000
0010
0000
0100
1000
0001
0000
,  // measure 94
0100
0000
0010
0000
1000
0001
1000
0100
0010
0000
0001
0100
0001
1000
0100
0000
,  // measure 95
0010
0000
0001
0100
1000
0000
0001
0000
0100
0000
0010
0000
0100
0000
0010
0000
,  // measure 96
0001
1000
0100
1000
0100
0001
0010
1000
,  // measure 97
0010
1000
0010
0001
1000
0001
1000
0001
,  // measure 98
0010
0100
0020
0000
0230
0000
2300
0000
,  // measure 99
0002
0000
0000
0000
0000
3003
2002
0000
0000
0000
0000
0000
0000
0000
0000
0000
,  // measure 100
0000
0000
0000
0000
,  // measure 101
0000
0000
3003
0000
;

//---------------dance-double - BASIC----------------
#NOTES:
     dance-double:
     BASIC:
     Easy:
     5:
     0.267,0.415,0.106,0.049,0.000:
00000000
00000000
00000000
00000000
,
00000000
00000000
00000000
00000000
,
00000000
00000000
00000000
00000000
,
00000000
00000000
00000000
00000000
,
00000000
00000000
00000000
00000000
,
00000000
00000000
00000000
00000000
,
00000000
00000000
00000000
00000000
,
00000000
00000000
00000000
00000000
,
10000000
00000000
01000000
00000000
,
00010000
00001000
00001000
00000010
,
00000001
00000000
00000100
00000000
,
00001000
00010000
00010000
00100000
,
10000000
00000000
00010000
00100000
,
00001000
00001000
00000010
00000001
,
00000100
00001000
00010000
00100000
,
01000000
00010000
10000000
01000000
,
00010000
00000000
00010000
00000000
,
00001000
00000000
00000010
00000000
,
00001000
00000000
00100000
00000000
,
01000000
00000000
10000000
00000000
,
01000000
00000000
00010000
00000000
,
00001000
00000000
00010000
00000000
,
00000100
00000000
00000010
00000000
,
00000001
00000000
00000000
00001000
00000000
00000000
00000100
00000000
,
00000000
00010000
00000000
00000000
00001000
00000000
00010000
00000000
,
00011000
00010000
00001000
00001000
,
00100000
01000000
10000000
01000000
,
00010000
00010000
00001000
00001000
,
00000010
00000001
00000200
00000000
,
00000310
00010000
00001000
01000000
,
00100000
10000000
01000000
01000000
,
00100000
00010000
00001000
00000100
,
00000001
00000010
00010000
00001000
,
00011000
00000000
00000000
00000000
,
00000020
00000030
00000000
00000000
,
00000000
00000000
00000000
00000000
,
00000000
01000000
00000000
00010000
,
00000000
10000000
00000000
01000000
,
00100000
00010000
00000000
00001000
,
00000000
00000100
00000001
00000010
,
00001000
00001000
00000000
00010000
,
00000000
00100000
00000000
01000000
,
10000000
00010000
00000000
00001000
,
00000000
00000100
00000001
00000100
,
00010000
00100000
00000000
10000000
,
00000000
00010000
00000000
01000000
,
00100000
10000000
00000000
00010000
,
00000000
00001000
00001000
00000100
,
00000001
00000010
00000000
00001000
,
00000000
00010000
00000000
00100000
,
10000000
11000000
00000000
00110000
,
00000000
00001100
00000000
00000011
,
00000000
00000001
00000000
00001000
,
00000000
00000010
00000000
10000000
,
00000000
00010000
00000000
00100000
,
00000000
00001000
00010000
00011000
,
00000000
00010000
00001000
00001000
,
00010000
00100000
00010000
00100000
,
00010000
00001000
00001000
00010000
,
00010000
00000100
00000100
00010000
,
00010000
00001000
00010000
00010000
,
00001000
00100000
00100000
00001000
,
00001000
00010000
00000100
00100000
,
00001000
00010000
00010000
00000100
,
00000100
00000020
00000030
00000000
,
00000001
00000000
00000100
00000000
,
00010000
00000000
10000000
00000000
,
00001000
00000000
00100000
00000000
,
00010000
00000000
00000100
00000000
,
00010000
00000000
01000000
00000000
,
00000100
00000000
00010000
00000000
,
00100000
00010000
00000010
00001000
,
00010000
00011000
00000000
00100000
,
00000000
11000000
00000000
00001000
,
00000100
00000010
00000000
00000001
,
00000000
00010000
00000100
00001000
,
00010000
10010000
00000000
00011000
,
00000000
00001001
00000000
00011000
,
00000000
00200000
00000000
00000000
,
00300000
00100000
00100000
10000000
,
01000000
00010000
00000000
00001000
,
00000000
00000001
00000010
00000010
,
00001000
00010000
00000000
01000000
,
00000000
10000000
00000000
01000000
,
00000000
00001000
00000000
00010000
,
00001000
00100000
00000000
10000000
,
01000000
00010000
00000000
00001000
,
00000000
00000001
00000100
00010000
,
01000000
10000000
00000000
01000000
,
00000000
00010000
00100000
00000100
,
00001000
00000020
00000100
00020030
,
00001000
00230000
01000000
10300000
,
01000000
00010000
00000000
00001000
,
00000000
00000100
00000000
00011000
,
00000000
00100000
00000000
00000000
,
00000000
00000000
00000000
00000000
,
00000010
00000000
00000000
00000000
,
00000000
00000000
00000000
00000000
,
00000000
00000000
00000000
00011000
00000000
00000000
00000000
00000000
;

//---------------dance-double - HEAVY----------------
#NOTES:
     dance-double:
     HEAVY:
     Hard:
     9:
     0.590,0.692,0.232,0.127,0.053:
00000000
00000000
00000000
00000000
,
00000000
00000000
00000000
00000000
,
00000000
00000000
00000000
00000000
,
00000000
00000000
00000000
00000000
,
00000000
00000000
00000000
00000000
,
00000000
00000000
00000000
00000000
,
00000000
00000000
00000000
00000000
,
00000000
00000000
00000000
00000000
,
00000001
00000000
00000100
00001000
00000000
00001000
00000000
00010000
,
00000000
00100000
00000000
10000000
01000000
01000000
00000000
00010000
,
00001000
00000000
00000100
00000001
00000000
00000100
00000000
00001000
,
00000000
00100000
00000000
10000000
00100000
00100000
00000000
00010000
,
01000000
00000000
01000000
00100000
00000000
10000000
00000000
01000000
,
00000000
00010000
00000000
00000100
00000010
00000010
00000000
00000001
,
00000100
00000000
00000100
00000010
00000000
00001000
00000000
00100000
,
00000000
10000000
00000000
00010000
00000000
00001000
00000100
00010000
,
00021000
00100000
00001000
00100000
,
00030200
00000001
00000320
00001000
,
00020030
00100000
10000000
00100000
,
01000000
00100000
00001000
00100000
,
20030000
00010000
01000000
00001000
,
30020000
00001000
00001000
00000010
,
00030002
00000100
00000100
00010000
,
00001003
00000000
00000100
00010000
00000000
00000000
00100000
00000000
10000000
01000000
00000000
00000000
00100000
00000000
00010000
00001000
,
00000000
00000000
00000100
00000000
00000010
00000000
00000001
00000000
00001000
00000010
00000100
00000000
00010000
00100000
00001000
00000000
,
00011000
00001000
00100000
00010000
10000000
01000000
00100000
10000000
,
00100000
00010000
00001000
00000100
00000010
00000100
00000001
00000100
,
00001000
00010000
00100000
01000000
00100000
00001000
00010000
00000010
,
00000100
00001000
00000100
00000001
00000100
00000010
00001000
00000100
,
00001000
00000001
00000100
00000010
00010000
00001000
00100000
00001000
,
00010000
01000000
10000000
00010000
00100000
00001000
00010000
00000010
,
00000100
00000000
00000001
00000000
00000100
00000000
00010000
00000000
00100000
00000000
01000000
00000000
10000000
01000000
00100000
00000000
,
00001000
00000010
00000100
00000000
00000010
00000001
00000100
00000000
00000010
00010000
00001000
00000000
00100000
00000000
01000000
00000000
,
20000000
30020000
00032000
00003002
,
00000003
00022000
00000000
00000000
,
00000000
00000000
00000000
00000000
,
00033000
00000000
00010000
00000000
00000100
00001000
00000010
00000000
,
00001000
00010000
01000000
00000000
10000000
01000000
00010000
00000000
,
00001000
00000010
00000100
00000000
00001000
00000100
00000001
00000000
,
00001000
00000000
00100000
01000000
00010000
10000000
01000000
00010000
,
00001000
00000010
00000001
00000000
00000010
00001000
00010000
00000000
,
00100000
00001000
00000100
00000000
00001000
00000100
00000001
00000000
,
00000100
00010000
00001000
00000000
00100000
00000000
00010000
00000000
,
10000000
00000000
01000000
00100000
00001000
00010000
00000010
00000100
,
00000001
00000100
00010000
00000000
00000100
00000001
00000010
00000000
,
00001000
00010000
01000000
00000000
00100000
01000000
10000000
00000000
,
01000000
00010000
00001000
00000000
00000010
00000001
00000100
00000000
,
00010000
00000000
01000000
00100000
10000000
00100000
01000000
00010000
,
00000100
00000010
00001000
00000000
00000001
00000010
00000100
00000000
,
00001000
00010000
00100000
00000000
00010000
00001000
00000100
00000000
,
00010000
01000000
10000000
00000000
11000000
00000000
00110000
00000000
,
00001100
00000000
00000011
00000010
00000001
00000001
00000100
00000010
,
00001000
00000000
00100000
00000000
10000000
00000000
00000000
00010000
01010000
00000000
00001000
00000000
00000020
00000000
00000001
00000000
,
00000100
00000000
00001000
00000000
00010030
00000000
00000000
00100000
00101000
00000000
00001000
00000000
02000000
00000000
00100000
00000000
,
00010000
00000000
10000000
00000000
03001000
00000000
00000000
00000010
00000011
00000000
00000000
00000000
00001000
00100000
00010000
01000000
,
10000000
00000000
01000000
00010000
00000001
00001000
00100000
00000000
,
00022000
00000000
00033000
00000000
00100000
00010000
00001000
00010000
,
00000010
00010000
00001000
00010000
00100000
00010000
10000000
00010000
,
00100000
00010000
01000000
00010000
01000000
00010000
10000000
00010000
,
01000000
00010000
00100000
00010000
00100000
00000000
00001100
00000000
,
00110000
00000000
00000100
00001000
00000100
00001000
00000010
00001000
,
00010000
00001000
00100000
00001000
00100000
00001000
00010000
00001000
,
00000100
00001000
00010000
00001000
00000010
00001000
00000001
00001000
,
00000100
00001000
00010000
00001000
00100000
00001000
00010000
00001000
,
00000001
00000000
00001000
00000100
00000010
00001000
00000100
00000010
,
00001000
00000100
00000010
00001000
00000100
00000010
00001000
00000100
,
00000010
00001000
00010000
00100000
01000000
00010000
00100000
01000000
,
00010000
00100000
01000000
00010000
00100000
01000000
00010000
00000010
,
00000100
00000010
00010000
00100000
10000000
10000000
00100000
00010000
,
00001000
00000010
00000001
00000001
00000010
00001000
00010000
00100000
,
00001000
00100000
00010000
00000100
00000001
00000001
00000100
00001000
,
00010000
01000000
10000000
10000000
01000000
00010000
00001000
00000100
,
00001000
00000100
00000010
00000000
00001000
00000000
00000101
00000000
,
00000010
00000000
00001000
00010000
00000100
00000000
00100000
00010000
,
01000000
00000000
11000000
00000000
00110000
00000000
00000100
00001000
,
00000001
00001000
00000100
00000000
00100000
00000000
01000000
00000000
,
00010000
00000100
00000011
00000100
,
00001010
00100000
10010000
01000000
,
00010100
00000000
00001000
00000001
00000100
00000000
00000010
00000100
,
00001000
00000000
00010000
00100000
10000000
00001000
00010000
00000010
,
00000100
00000001
00001001
00000000
00000010
00000000
00010000
00000000
,
00001000
00000000
00010000
01000000
00100000
00000000
00000000
00000000
10000000
00000000
00000000
00000000
00001000
00000000
00000000
00000000
,
00000010
00000000
00001001
00000000
00000010
00010000
00000000
00010000
,
00001000
01000000
10000000
00000000
00010000
00000000
00000110
00000000
,
00001000
00000000
10000000
00000000
01000000
00100000
00010000
00000000
,
00011000
00001100
00000010
00000001
,
00000100
00001010
00010000
00010000
,
01100000
00000000
10000000
01000000
00010000
00001000
00000001
00000100
,
00010000
00100000
10000000
00000000
00100000
00000000
00100000
00000000
,
00011000
00000010
00100000
01000000
,
00000100
00000000
00011000
00010000
00001000
00100000
00000100
00010000
,
00001000
00100000
01000000
00001000
00000010
00000001
00001000
00010000
,
00100000
10000000
00010000
00000000
00010000
00000000
00001100
00000000
,
00000100
00000000
00000011
00000000
00001000
00010000
00100000
00000000
,
10010000
00000000
10000000
00000000
00000000
00000000
00100000
00010000
,
00000000
00000000
00000000
00001000
00000010
00000000
00000000
00000000
,
00000001
00000100
00000000
00000000
00000000
00010000
00100000
00000000
,
00000000
20000000
00000000
00000000
,
00000000
00000000
30000000
00000011
00000000
00000000
00000000
00000000
;

//---------------dance-double - TRICK----------------
#NOTES:
     dance-double:
     TRICK:
     Medium:
     7:
     0.467,0.623,0.676,0.211,0.007:
00000000
00000000
00000000
00000000
,
00000000
00000000
00000000
00000000
,
00000000
00000000
00000000
00000000
,
00000000
00000000
00000000
00000000
,
00000000
00000000
00000000
00000000
,
00000000
00000000
00000000
00000000
,
00000000
00000000
00000000
00000000
,
00000000
00000000
00000000
00000000
,
00010000
00100000
00001000
00100000
,
01000000
00100000
10000000
00100000
,
00010000
00010000
00001000
00001000
,
00000010
00000010
00000100
00000100
,
00001000
00000100
00010000
00000100
,
00000010
00000100
00000001
00000100
,
00001000
00001000
00010000
00010000
,
00100000
01000000
10000000
01000000
,
00020000
00000000
00000000
00000000
,
02030000
00000000
23000000
00000000
,
30200000
00000000
00001000
00000000
,
10000000
00000000
00001000
00000000
,
02300000
00000000
00000000
00000000
,
03020000
00000000
00032000
00000000
,
00003020
00000000
00000000
00000000
,
00000130
00001000
00000000
00010000
01000000
00000000
00001000
00000100
,
00000000
00010000
00100000
00000000
00011000
00000000
00011000
00000000
,
00010000
00000000
00001000
00000100
00000000
00000000
00000010
00000000
,
00000000
00000001
00000000
00000001
00000100
00000000
00001000
00000000
,
00010000
00000000
00000000
01100000
00000000
00000000
10010000
00000000
,
00000000
00000000
00000000
00000000
00000000
00000000
00000000
00000000
10000000
00000000
00000000
01000000
00000000
00000000
00100000
00000000
,
00010000
00000000
00000000
00001000
00000000
00001000
00000100
00000000
,
00000100
00000000
00000000
00000000
00000100
00000000
00000000
00000000
00000001
00000000
00000000
00000100
00000000
00000000
00010000
00000000
,
00100000
01000000
10000000
00100000
,
00011000
00110000
00001010
00011000
,
00020000
00032000
00003010
01000000
,
00100100
00022000
00000000
00000000
,
00000000
00000000
00000000
00000000
,
00033000
00010000
01000000
10000000
,
01000000
00010000
00001000
00001000
,
00000010
00000011
00000001
00001010
,
00001000
00010100
00001000
00110000
,
10010000
01100000
01000000
10000000
,
01000000
10000000
01000000
01000000
,
00010000
00001100
00000100
00000011
,
00000010
00001001
00000100
00011000
,
00010000
00100000
01000000
00000000
10000000
00000000
00010000
00000000
,
00100000
00001000
00010000
00010000
,
00100000
10100000
01000000
00101000
,
00010000
00110000
00010000
00011000
,
00001001
00001100
00000010
00000001
,
00001000
00010000
00000010
00010000
,
00001000
00000001
00000011
00001100
,
00110000
21000000
00000000
00000000
,
00000000
00000000
31000000
00000000
10010000
00000000
00100000
00100000
,
00010000
00010000
00000010
00000000
00001001
00000000
00000100
00000100
,
00001000
00001000
00100000
00000000
11000000
00000000
01000000
00000000
,
00010100
00000000
00000100
00000100
00100000
00100000
00001000
00000000
,
00010000
00011000
00011000
01100000
,
01100000
10010000
10010000
01100000
,
01100000
00011000
00011000
00000110
,
00000110
00011000
00001001
00011000
,
10010000
01100000
01100000
10010000
,
10010000
01100000
01100000
00011000
,
00011000
00001001
00001001
00000110
,
00000110
00011000
01100000
00011000
,
00000110
00022000
00033000
01000000
,
10010000
00100000
00011000
00000100
,
00001010
00000100
00000011
00000100
,
00001010
00010000
00101000
01000000
,
10010000
01000000
10100000
01000000
,
00110000
00001000
00010100
00001000
,
00000110
00000001
00000110
00001000
,
00010100
00001000
00110000
01100000
,
10010000
01000000
10000000
01000000
,
01000000
00010000
00001000
00010000
,
00010000
00000010
00000100
00000010
,
00000010
00000000
00010000
00001000
00100000
00000000
00001000
00010000
,
00000100
00020000
00100000
00032000
,
00000100
00023000
10000000
00032000
,
00000001
00023000
00001000
00031000
,
00010000
01010000
00010010
00101000
,
00010100
00000000
00001000
00000000
00010000
00000000
00100000
01000000
,
00010000
00000000
02000000
00000000
10000000
00000000
03010000
00100000
,
01000000
00010000
00010000
00001000
,
00001000
00000000
00000010
00000100
00000001
00000000
00001000
00000010
,
00000100
00001000
00010000
00100000
,
10000000
00110000
00011000
00001100
,
00000002
00001003
20000000
30010000
,
00001000
00011000
01000010
00100100
,
00011000
00010000
00001000
00100000
,
01000000
10000000
00010000
00000000
01000000
00000000
10000000
00000000
,
00110000
00002000
00000001
00023000
,
10000000
00032000
00000001
00023000
,
10000000
00032000
00000100
00023000
,
00100000
00031000
00001000
00000100
,
00000010
00000000
00000100
00000000
00000000
00000000
00000000
00010000
,
00000000
00000000
00000100
00000000
,
00000000
00000010
00000000
00000000
00000000
00000000
00001000
00000000
,
00000000
00020000
00000000
00000000
,
00000000
00000000
00030000
00011000
00000000
00000000
00000000
00000000
;

//---------------dance-double - ONI----------------
#NOTES:
     dance-double:
     ONI:
     Challenge:
     12:
     0.949,1.000,0.324,0.310,0.637: // measure 1
00000000
00000000
00000000
00000000
,  // measure 2
00000000
00000000
00000000
00000000
,  // measure 3
00000000
00000000
00000000
00000000
,  // measure 4
00000000
00000000
00000000
00000000
,  // measure 5
00000000
00000000
00000000
00000000
,  // measure 6
00000000
00000000
00000000
00000000
,  // measure 7
00000000
00000000
00000000
00000000
,  // measure 8
00000000
00000000
00000000
00000000
,  // measure 9
00000010
00010000
00001000
00010000
00100000
00010000
10000000
00010000
,  // measure 10
01000000
00010000
00100000
00010000
01000000
00010000
10000000
00010000
,  // measure 11
01000000
00010000
00001000
00010000
00100000
00010000
00000010
00010000
,  // measure 12
00000100
00010000
00100000
00010000
00000100
00010000
00100000
00010000
,  // measure 13
00000010
00001000
00000010
00001000
00000001
00001000
00000100
00001000
,  // measure 14
00000010
00001000
00100000
00001000
00010000
00001000
00000100
00001000
,  // measure 15
00010000
00001000
00000010
00001000
00000001
00001000
00000100
00001000
,  // measure 16
00010000
00001000
00100000
00001000
00010000
00001000
00000010
00000100
,  // measure 17
00001000
00010000
00100000
00010000
00001000
00010000
00000010
00010000
,  // measure 18
00001000
00010000
00100000
00010000
10000000
00010000
00100000
00010000
,  // measure 19
01000000
00010000
01000000
00010000
10000000
00010000
01000000
00010000
,  // measure 20
00100000
00010000
00100000
00010000
00000100
00010000
00100000
00010000
,  // measure 21
00000100
00001000
00000100
00001000
00000010
00001000
00010000
00001000
,  // measure 22
00100000
00001000
00100000
00001000
00010000
00001000
00000100
00001000
,  // measure 23
00010000
00001000
00000010
00001000
00000001
00001000
00000100
00000000
,  // measure 24
00000100
00001000
00010000
00001000
00000100
00000000
00010000
00001000
00010000
00001000
00010000
00000000
00100000
00010000
00001000
00010000
,  // measure 25
00100000
00000000
00010000
00001000
00000100
00001000
00010000
00000000
00001000
00000010
00000100
00000000
00100000
00010000
00001000
00000000
,  // measure 26
00011000
00001000
00100000
00010000
10000000
01000000
00100000
10000000
,  // measure 27
00100000
00010000
00001000
00000100
00000010
00000100
00000001
00000100
,  // measure 28
00001000
00010000
00100000
01000000
00100000
00001000
00010000
00000010
,  // measure 29
00000100
00001000
00000100
00000001
00000100
00000010
00001000
00000100
,  // measure 30
00001000
00000001
00000100
00000010
00010000
00001000
00100000
00001000
,  // measure 31
00010000
01000000
10000000
00010000
00100000
00001000
00010000
00000010
,  // measure 32
00000100
00000000
00000001
00000000
00000100
00000000
00010000
00000000
00100000
00000000
01000000
00000000
10000000
01000000
00100000
00000000
,  // measure 33
00001000
00000010
00000100
00000000
00000010
00000001
00000100
00000000
00000010
00010000
00001000
01000000
00100000
10000000
01000000
00100000
,  // measure 34
00010000
00000000
10000000
01000000
10000000
00000000
01000000
00000000
00010000
00100000
00010000
00000000
00010000
00000000
00001000
00000000
00001000
00010000
00000100
00000000
00000010
00000000
00000010
00000000
00000001
00001000
00000010
00000000
00010000
00000100
00001000
00000000
,  // measure 35
00000100
00010000
00001000
00100000
01000000
10000000
01000000
00100000
00010000
00001000
00000100
00000010
00000001
00000010
00001000
00010000
00011000
00000000
00000000
00000000
00000000
00000000
00000000
00000000
00010000
00000000
00000000
00000000
00000000
00000000
00000000
00000000
00001000
00000000
00000000
00000000
00000000
00000000
00000000
00000000
00100000
00000000
00000000
00000000
00000000
00000000
00000000
00000000
01000000
00000000
00000000
00000000
00000000
00000000
00000000
00000000
10000000
00000000
00000000
00000000
00000000
00000000
00000000
00000000
,  // measure 36
01000000
00100000
00010000
00001000
00000100
00000010
00000001
00001000
,  // measure 37
00000100
00010000
00001000
00100000
00000100
00001000
00000010
00010000
,  // measure 38
00001000
00010000
01000000
00100000
00010000
01000000
00010000
00100000
,  // measure 39
00001000
00000010
00000100
00010000
00001000
00000100
00000001
00000100
,  // measure 40
00001000
00010000
00100000
01000000
00010000
10000000
01000000
00010000
,  // measure 41
00001000
00000010
00000001
00000100
00000010
00001000
00010000
01000000
,  // measure 42
00100000
00001000
00000100
00010000
00001000
00000100
00000001
00001000
,  // measure 43
00000100
00010000
00001000
01000000
00100000
01000000
00010000
00100000
,  // measure 44
10000000
00010000
01000000
00100000
00001000
00010000
00000010
00000100
,  // measure 45
00000001
00000100
00010000
00001000
00000100
00000001
00000010
00000100
,  // measure 46
00001000
00010000
01000000
10000000
00100000
01000000
10000000
00010000
,  // measure 47
00100000
01000000
00001000
00000100
00000010
00000001
00000010
00001000
,  // measure 48
00010000
00100000
01000000
00100000
10000000
00100000
01000000
00010000
,  // measure 49
00000100
00000010
00001000
00010000
00000001
00000010
00000100
00010000
,  // measure 50
00001000
00010000
00100000
01000000
00010000
00001000
00000100
00100000
,  // measure 51
00010000
00000000
10000000
00000000
01000000
10000000
01000000
00000000
00100000
01000000
00100000
00000000
00010000
00100000
00010000
00000000
,  // measure 52
00000010
00001000
00000010
00000000
00000100
00000010
00000100
00000000
00000001
00000010
00000001
00000000
00000100
00000010
00000100
00000001
,  // measure 53
00001000
00000000
00000100
00000000
00010000
00000000
00001000
00000000
00100000
00000000
00000000
00000000
00000000
00000000
00010000
01000000
00010000
00000000
00010000
00000000
00001000
00000000
00000100
00000000
00000010
00000000
00000100
00000000
00000001
00000000
00000100
00000000
,  // measure 54
00000010
00000000
00000100
00000000
00001000
00000000
00000100
00000000
00010000
00000000
00000000
00000000
00000000
00000000
00100000
00001000
00100000
00000000
00010000
00000000
00001000
00000000
00100000
00000000
01000000
00000000
00100000
00000000
10000000
00000000
00100000
00000000
,  // measure 55
01000000
00000000
00100000
00000000
00010000
00000000
00100000
00000000
00001000
00000000
00000000
00000000
00000000
00000000
00000010
00000001
00000010
00000000
00000000
00000000
00000000
00000000
00000000
00000000
00001000
00000000
00100000
00000000
00010000
00000000
01000000
00000000
,  // measure 56
10000000
00000000
00000000
00000000
01000000
00100000
00010000
00001000
00000001
00000100
00001000
00010000
00100000
00000000
00000000
00011000
,  // measure 57
00022000
00000000
00033000
00000000
00002000
00000000
00013000
00000000
00200000
00000000
00000000
00310000
00002000
00000000
00000000
00013000
,  // measure 58
00000020
00000000
00000000
00010000
00002030
00000000
00000000
00010000
00203000
00000000
00000000
00010000
20300000
00000000
00000000
00010000
,  // measure 59
30200000
00000000
00000000
00010000
20300000
00000000
00000000
00010000
32000000
00000000
00000000
00010000
23000000
00000000
00000000
00010000
,  // measure 60
32000000
00000000
00000000
00010000
23000000
00000000
00000000
00010000
30200000
00000000
00000000
00001000
00300200
00000000
00000000
00010000
,  // measure 61
00200300
00000000
00000000
00001000
00300020
00000000
00000000
00001000
00000230
00000000
00000000
00001000
00000320
00000000
00000000
00001000
,  // measure 62
00020030
00000000
00000000
00001000
02030000
00000000
00000000
00001000
03200000
00000000
00000000
00001000
00320000
00000000
00000000
00001000
,  // measure 63
00030200
00000000
00000000
00001000
00020300
00000000
00000000
00001000
00030020
00000000
00000000
00001000
00000032
00000000
00000000
00001000
,  // measure 64
00000203
00000000
00000000
00001000
00020300
00000000
00000000
00001000
00230000
00000000
00000000
00001000
00320000
00000000
00000000
00001000
,  // measure 65
00030020
00000000
00010030
00001000
00100100
00010000
00001000
00100100
,  // measure 66
00010000
00001000
00100100
00010000
00001000
00100100
00010000
00001000
,  // measure 67
00000100
00001000
00010000
00001000
01000010
00001000
00010000
01000010
,  // measure 68
00001000
00010000
01000010
00001000
00010000
01000010
00001000
00010000
,  // measure 69
00100000
00010000
00001000
00010000
00100100
00010000
00001000
01000010
,  // measure 70
00001000
00010000
00100100
00010000
00001000
01000010
00011000
00110000
,  // measure 71
00011000
00010100
00001000
00000100
00010010
00000100
00001000
00100100
,  // measure 72
00001000
00010000
01001000
11000000
01100000
11000000
01100000
00110000
,  // measure 73
00001000
00000000
00000100
00000000
00000010
00000100
00001000
00000000
00001000
00000000
00000100
00000000
00000001
00000010
00000001
00000000
,  // measure 74
00000010
00000000
00000100
00000000
00001000
00010000
01000000
00000000
00000100
00010000
00001000
00000000
00100000
00000000
00010000
00000000
,  // measure 75
11000000
00000000
01100000
00000000
11000000
00000000
01000000
00000000
00010000
01000000
00010000
00000000
00000100
00000000
00001000
00000000
,  // measure 76
00000001
00000010
00000100
00000000
00000100
00001000
00010000
00000000
00100000
01000000
10000000
00000000
01000000
00100000
00010000
00000000
,  // measure 77
00001000
00000100
00000010
00000000
00000011
00000000
00000010
00000000
00000001
00001000
00000010
00000000
00000110
00000000
00001000
00000000
,  // measure 78
00000100
00010000
00001000
00000000
00101000
00000000
00010000
00000000
10000000
01000000
00100000
00000000
00010000
00000000
00011000
00000000
,  // measure 79
00001100
00000000
00000110
00000000
00000100
00000001
00000100
00000000
00000010
00001000
00000010
00000000
00010000
00001000
00010000
00000000
,  // measure 80
00001000
00010000
00001000
00000000
00010000
00100000
01000000
10000000
00100000
01000000
00001000
00010000
00000100
00001000
00000010
00000100
,  // measure 81
00000001
00001000
00000010
00000100
00001001
00000000
00001000
00000000
00000010
00000000
00000100
00000000
00001000
00000000
00010000
00000000
,  // measure 82
01000000
00100000
00010000
01000000
00100000
00000000
10000000
00000000
10010000
00000000
01000000
00000000
00011000
00000000
00000010
00000000
,  // measure 83
00001001
00000000
00000001
00000000
00001000
00000100
00000000
00000010
00000000
00000100
00010000
00000000
00000000
00001000
00000000
00000000
,  // measure 84
00100000
10000000
00000000
00010000
00000000
01000000
10000000
00000000
00001000
00010000
00000000
00000100
00000010
00000100
00010000
00001000
,  // measure 85
00100000
00010000
01000000
00010000
20000000
00000000
00010000
00000000
00010000
00000000
00100000
00000000
30010000
00000000
00100000
00000000
,  // measure 86
00001000
00010000
00000012
00001000
00000010
00000100
00000203
00001000
,  // measure 87
00002300
00100000
00023000
01000000
01000000
10000000
20030000
00100000
,  // measure 88
30100000
00000000
01000000
00000000
02000000
00010000
00100000
00000000
03020000
00100000
00001000
00000000
00030200
00001000
00010000
00000000
,  // measure 89
00020300
00001000
00100000
00000000
01030000
00100000
00010000
00000000
00100000
00010000
00100000
00000000
00100000
00001000
00010000
00000000
,  // measure 90
00001000
00010000
00001000
00000100
00000010
00000000
00001000
00010000
00100000
00000000
00001000
00100000
00000100
00000000
00001000
00010000
,  // measure 91
00100000
00000000
00000100
00000000
00001000
00010000
00100000
00000100
00001000
00010000
00100000
00001000
00000100
00000010
00010000
00001000
,  // measure 92
00010000
00100000
01000000
00010000
01000000
00100000
00001000
00010000
00000010
00000100
00000001
00010000
00001000
00000100
00010000
01000000
,  // measure 93
00100000
00001000
10000000
01000000
00010000
00000000
00001000
00000000
00010000
00001000
00010000
00000000
00001100
00000000
00001000
00000000
,  // measure 94
00000100
00000010
00000100
00000000
00000011
00000000
00000100
00010000
00001000
00000000
00010000
00001000
00100000
00000000
01000000
00000000
,  // measure 95
10010000
00000000
10000000
01000000
10000000
01000000
00100000
00010000
,  // measure 96
00001000
00010000
00000010
00001000
00000010
00000100
00001000
00000100
,  // measure 97
00000001
00000100
00001000
00010000
00001000
00010000
00100000
01000000
,  // measure 98
10000000
01000000
00010000
00000000
10000000
00000000
00010000
00000000
,  // measure 99
10000000
00000000
01000000
00000011
00000000
00000000
00000000
00000000
;
