#TITLE:Red-rize "B172 mix";
#SUBTITLE:;
#ARTIST:wint;
#TITLETRANSLIT:;
#SUBTITLETRANSLIT:;
#ARTISTTRANSLIT:;
#CREDIT:;
#BANNER:Red-rize (B172 mix).png;
#BACKGROUND:Red-rize (B172 mix)-bg.png;
#LYRICSPATH:;
#CDTITLE:cdtitle.png;
#MUSIC:Red-rize (B172 mix).mp3;
#OFFSET:0.000;
#SAMPLESTART:44.000;
#SAMPLELENGTH:12.000;
#SELECTABLE:YES;
#BPMS:0.000=172.000;
#STOPS:;
#BGCHANGES:0.000=Red-rize (B172 mix).avi=1.000=0=1=1,
377.500=Red-rize (B172 mix)-bg.png=1.000=0=0=1,
99999=-nosongbg-=1.000=0=0=0 // don't automatically add -songbackground-
;

//---------------dance-single - BASIC----------------
#NOTES:
     dance-single:
     BASIC:
     Easy:
     4:
     0.266,0.390,0.248,0.023,0.000: // measure 1
0000
0000
0000
0000
,  // measure 2
0000
0000
0000
0000
,  // measure 3
0000
0000
0000
0000
,  // measure 4
0000
0000
0000
0000
,  // measure 5
0000
0000
0000
0000
,  // measure 6
0000
0000
0000
0000
,  // measure 7
0000
0000
0000
0000
,  // measure 8
0000
0000
0000
0000
,  // measure 9
0000
0000
0000
0000
,  // measure 10
1000
0000
0001
0100
,  // measure 11
0001
0000
1000
0100
,  // measure 12
1000
0000
0001
0100
,  // measure 13
1000
0100
0001
0000
,  // measure 14
0001
0000
1000
0100
,  // measure 15
1000
0000
0001
0100
,  // measure 16
0001
0000
1000
0100
,  // measure 17
0001
0100
1000
0000
,  // measure 18
0001
0100
0000
1001
,  // measure 19
1000
0100
0000
1001
,  // measure 20
0001
0100
0100
0010
,  // measure 21
1000
0100
0000
1001
,  // measure 22
1000
0100
0000
1001
,  // measure 23
0001
0100
0000
1001
,  // measure 24
1000
0100
0100
0010
,  // measure 25
0001
0100
0000
1001
,  // measure 26
1000
0010
0010
0100
,  // measure 27
1000
0001
0100
0100
,  // measure 28
0010
1000
0010
1000
,  // measure 29
0010
0100
0001
0100
,  // measure 30
1000
0010
0010
0100
,  // measure 31
0001
0100
0010
1000
,  // measure 32
0100
0001
0100
0010
,  // measure 33
0100
0001
0100
1000
,  // measure 34
1001
0000
1000
0000
,  // measure 35
0110
0000
0001
0000
,  // measure 36
1001
0000
0010
0000
,  // measure 37
0110
0000
1001
1001
,  // measure 38
1001
0000
0001
0000
,  // measure 39
0110
0000
1000
0000
,  // measure 40
1001
0000
0010
0000
,  // measure 41
0110
0000
1001
1001
,  // measure 42
1000
0000
0000
1001
,  // measure 43
0001
0000
0000
1001
,  // measure 44
1000
0000
0010
0000
,  // measure 45
0001
0000
0100
0000
,  // measure 46
0001
0000
0000
1001
,  // measure 47
1000
0000
0000
1001
,  // measure 48
0001
0000
0010
0000
,  // measure 49
1000
0000
0100
0000
,  // measure 50
1000
0000
0001
0000
,  // measure 51
0110
0000
1001
0110
,  // measure 52
0010
0000
0000
0000
,  // measure 53
0000
0000
0000
0000
,  // measure 54
0000
0000
0000
0000
,  // measure 55
0000
0000
0000
0000
,  // measure 56
0000
0000
0000
0000
,  // measure 57
0000
0000
0000
0000
,  // measure 58
0000
0000
0000
0000
,  // measure 59
0000
0000
0000
0000
,  // measure 60
1000
0000
0001
0100
,  // measure 61
0001
0000
0100
0010
,  // measure 62
1000
0000
0001
0000
,  // measure 63
1000
0000
0110
0000
,  // measure 64
0001
0000
1000
0100
,  // measure 65
1000
0000
0100
0010
,  // measure 66
0001
0000
1000
0000
,  // measure 67
0001
0000
0110
0000
,  // measure 68
1001
0000
0000
0000
,  // measure 69
0010
0000
0000
0000
,  // measure 70
0110
0000
0000
0000
,  // measure 71
0100
0000
0000
0000
,  // measure 72
1001
0000
0000
0000
,  // measure 73
0110
0000
0000
0000
,  // measure 74
1001
0000
0010
0000
,  // measure 75
0200
0000
0300
0000
,  // measure 76
1000
0000
0001
1000
,  // measure 77
0001
0000
1000
0001
,  // measure 78
1000
0000
0001
0100
,  // measure 79
1000
0100
0001
0000
,  // measure 80
1000
0000
0001
1000
,  // measure 81
0001
0000
1000
0001
,  // measure 82
1000
0000
1000
0100
,  // measure 83
0001
0100
1000
0000
,  // measure 84
0001
0100
0010
0010
,  // measure 85
1000
0100
0001
0010
,  // measure 86
0001
0100
0100
0010
,  // measure 87
1000
1000
0001
0100
,  // measure 88
0010
1000
0100
0001
,  // measure 89
0010
0001
0010
1000
,  // measure 90
0010
1000
0100
0100
,  // measure 91
0010
0010
0001
0001
,  // measure 92
0100
0000
0000
0000
,  // measure 93
0010
0000
0000
0000
,  // measure 94
0001
0000
1000
0000
,  // measure 95
2002
0000
0000
3003
0000
0000
0000
0000
;

//---------------dance-single - TRICK----------------
#NOTES:
     dance-single:
     TRICK:
     Medium:
     7:
     0.482,0.531,0.270,0.045,0.045:
0000
0000
0000
0000
,
0000
0000
0000
0000
,
0000
0000
0000
0000
,
0000
0000
0000
0000
,
0000
0000
0000
0000
,
0000
0000
0000
0000
,
0000
0000
0000
0000
,
0000
0000
0000
0000
,
0000
0000
0000
0000
,
1000
0000
0000
0000
0000
0010
0100
0000
,
0001
0000
0000
0000
0000
0010
0100
0000
,
1000
0000
0000
0000
0000
0010
0100
0000
,
1000
1000
0100
0010
0000
0001
1000
0100
,
0001
0000
0000
0000
0000
0010
0100
0000
,
1000
0000
0000
0000
0000
0010
0100
0000
,
0001
0000
0000
0000
0000
0010
0100
0000
,
0001
0001
0100
0010
0000
0001
1000
0100
,
0001
0100
0100
0000
0010
0000
1001
0000
,
1000
0100
0100
0000
0010
0000
1001
0000
,
0001
0001
0100
0000
0100
0000
0010
0000
,
1000
0010
0100
0010
1000
0100
0001
0000
,
1000
1000
0100
0000
0010
0000
1001
0000
,
0001
0001
0100
0000
0010
0000
1001
0000
,
1000
1000
0100
0000
0100
0000
0010
0000
,
0001
0010
0100
0010
0001
0100
1000
0000
,
1000
0010
0010
0000
0010
0000
0100
0000
,
1000
0001
0001
0000
0100
0000
0100
0000
,
0010
1000
0010
0100
0010
1000
0010
1000
,
0001
0100
0100
0001
0001
0010
0100
1000
,
0001
0010
0010
0000
0010
0000
0100
0000
,
0001
1000
1000
0000
0100
0000
0100
0000
,
0010
0001
0010
0100
0010
0001
0010
0001
,
1000
0100
0100
1000
1000
0010
0100
0001
,
1001
1000
1000
0010
,
0110
0001
0001
0100
,
1001
0100
0110
0001
,
0110
0100
1001
1001
,
1001
0001
0001
0010
,
0110
1000
1000
0100
,
1001
0100
0110
1000
,
0110
0100
1001
1001
,
1000
0000
0000
0001
0000
0000
1000
0000
0000
0000
0000
0000
1001
0000
0000
0000
,
0001
0000
0000
1000
0000
0000
0001
0000
0000
0000
0000
0000
1001
0000
0000
0000
,
1000
0010
1000
0000
0010
0001
0100
0000
,
0001
0010
0001
0000
0010
0100
1000
0000
,
0001
0000
0000
1000
0000
0000
0001
0000
0000
0000
0000
0000
1001
0000
0000
0000
,
1000
0000
0000
0001
0000
0000
1000
0000
0000
0000
0000
0000
1001
0000
0000
0000
,
0001
0010
0001
0000
0010
1000
0100
0000
,
1000
0010
1000
0000
0010
0100
0001
0000
,
1000
0100
1000
0000
0001
0100
0001
0000
,
0220
0330
1001
0110
,
1001
0000
0000
0000
,
0000
0000
0000
0000
,
0000
0000
0000
0000
,
0000
0000
0000
0000
,
1000
0000
0000
0000
,
0001
0000
0000
0000
,
0100
0000
0010
0000
,
1000
0001
0100
0010
,
1000
0100
1000
0000
0001
0000
0100
0000
,
0001
0010
0001
0000
1000
0000
0100
0000
,
1000
0010
0100
0010
1000
0010
0010
0100
,
0100
0001
1000
0100
0010
0000
1001
0000
,
0001
0100
0001
0000
1000
0000
0100
0000
,
1000
0100
1000
0000
0001
0000
0100
0000
,
0001
0010
0100
0010
0001
0010
0010
0100
,
0100
1000
0001
0100
0010
0000
1001
0000
,
0010
1000
0100
0001
,
0001
0010
0010
0100
,
0100
1000
0010
1000
,
0100
0100
0010
0001
,
1001
1000
0010
0100
,
0110
0001
0010
0100
,
1001
0100
0110
0001
,
2002
0000
3003
0000
,
1000
0000
0000
0010
0000
0000
1000
0000
0001
0000
0000
0000
1000
0000
0000
0000
,
0001
0000
0000
0010
0000
0000
0001
0000
1000
0000
0000
0000
0001
0000
0000
0000
,
1000
0000
0000
0100
0000
0000
1000
0000
0001
0000
0000
0000
1001
0000
0000
0000
,
1000
0100
0100
0001
0100
0100
1000
0001
,
0001
0000
0000
0010
0000
0000
0001
0000
1000
0000
0000
0000
0001
0000
0000
0000
,
1000
0000
0000
0010
0000
0000
1000
0000
0001
0000
0000
0000
1000
0000
0000
0000
,
0001
0000
0000
0100
0000
0000
0001
0000
1000
0000
0000
0000
1001
0000
0000
0000
,
0001
0100
0100
1000
0100
0100
0001
1000
,
1000
0010
0100
0000
0010
0001
0010
0000
,
1000
0100
0010
0000
0010
0001
0100
0000
,
1000
0001
0100
0000
0010
1000
0001
0000
,
1000
0010
0100
0000
0001
0010
0100
0000
,
1000
0100
0001
0000
0001
0010
1000
0000
,
1000
0010
0100
0000
1000
0010
0001
0000
,
0010
1000
0100
0000
0100
0010
0001
0000
,
0010
0100
0010
1000
0001
0010
0001
1000
,
0100
0000
0000
0010
0000
0000
0100
0000
0000
0000
0000
0000
1000
0000
0000
0000
,
0010
0000
0000
0100
0000
0000
0010
0000
0000
0000
0000
0000
0001
0000
0000
0000
,
0001
0100
0010
0100
1000
0100
0001
1000
,
2002
0000
0000
3003
0000
0000
0000
0000
;

//---------------dance-single - HEAVY----------------
#NOTES:
     dance-single:
     HEAVY:
     Hard:
     8:
     0.645,0.673,0.353,0.015,0.184:
0000
0000
0000
0000
,
0000
0000
0000
0000
,
0000
0000
0000
0000
,
0000
0000
0000
0000
,
0000
0000
0000
0000
,
0000
0000
0000
0000
,
0000
0000
0000
0000
,
0000
0000
0000
0000
,
0000
0000
0000
0000
,
1000
0000
0000
0010
0000
0000
1000
0000
0000
0010
0100
0000
0001
0000
1000
0000
,
0001
0000
0000
0010
0000
0000
0001
0000
0000
0010
0100
0000
1000
0000
0001
0000
,
1000
0000
0000
0010
0000
0000
1000
0000
0000
0010
0100
0000
0001
0000
1000
0000
,
0001
1000
0001
0000
0010
0000
1000
0000
0000
0000
1000
0000
0010
0000
0001
0000
,
0001
0000
0000
0010
0000
0000
0001
0000
0000
0010
0100
0000
1000
0000
0001
0000
,
1000
0000
0000
0010
0000
0000
1000
0000
0000
0010
0100
0000
0001
0000
1000
0000
,
0001
0000
0000
0010
0000
0000
0001
0000
0000
0010
0100
0000
1000
0000
0001
0000
,
1000
0001
1000
0000
0010
0000
0001
0000
0000
0000
0001
0000
0010
0000
1000
0000
,
0001
0000
0000
0100
0000
0000
0010
0000
1000
0000
0100
0000
1001
0000
0000
0000
,
1000
0000
0000
0100
0000
0000
0010
0000
0001
0000
0100
0000
1001
0000
0000
0000
,
0001
0000
0000
0100
0000
0000
0010
0000
1000
0000
0000
0000
0010
0000
0100
0000
,
1000
0010
0100
0000
0100
0000
0010
0000
0000
0000
0100
0000
0001
0000
1000
0000
,
1000
0000
0000
0100
0000
0000
0010
0000
0001
0000
0100
0000
1001
0000
0000
0000
,
0001
0000
0000
0100
0000
0000
0010
0000
1000
0000
0100
0000
1001
0000
0000
0000
,
1000
0000
0000
0100
0000
0000
0010
0000
0001
0000
0000
0000
0010
0000
0100
0000
,
0001
0010
0100
0000
0100
0000
0010
0000
0000
0000
0100
0000
1000
0000
0001
0000
,
1000
0010
0100
1000
0100
0001
0100
1000
,
0100
0010
1000
0100
1000
0010
0100
0001
,
0010
0100
1000
0100
0001
0100
1000
0010
,
0100
1000
0100
0001
0100
1000
0010
0010
,
1000
0010
1000
0100
0001
0100
1000
0010
,
0100
0001
0010
0001
0010
0001
0100
0010
,
1000
0100
0001
0100
1000
0010
0100
0010
,
1000
0100
0001
0100
1000
0010
0010
0000
,
1001
1000
1100
0010
,
0110
0001
1001
0100
,
1000
0100
0010
0100
1000
0010
0001
0010
,
1000
0100
0010
0001
0100
1000
0100
0001
,
1001
0001
0101
0010
,
0110
1000
1001
0100
,
0001
0100
0010
0100
0001
0010
1000
0010
,
0001
0100
0010
1000
0100
0001
0100
1000
,
1010
0000
0000
0110
0000
0000
0101
0000
0100
0000
0000
0000
1001
0000
0000
0000
,
0011
0000
0000
0110
0000
0000
1100
0000
0100
0000
0000
0000
1001
0000
0000
0000
,
0010
1000
0100
0010
0001
0100
0010
1000
,
0100
0001
0100
1000
0010
0100
0001
0010
,
0011
0000
0000
0110
0000
0000
1100
0000
0100
0000
0000
0000
1001
0000
0000
0000
,
1010
0000
0000
0110
0000
0000
0101
0000
0100
0000
0000
0000
1001
0000
0000
0000
,
0010
0001
0100
0010
1000
0100
0010
0001
,
0100
1000
0100
0001
0010
0100
1000
0010
,
1000
0100
1000
0010
0001
0100
1000
0001
,
1000
0100
0001
0010
1000
0000
0110
0000
,
0000
0000
0000
0000
,
0000
0000
0000
0000
,
0000
0000
0000
0000
,
0000
0000
0000
0000
,
1000
0010
0100
0000
0001
0010
0100
0000
,
0001
0100
1000
0000
1000
0010
0100
0000
,
0010
0001
0100
0000
0100
1000
0010
0000
,
1000
0100
0001
0100
1000
0010
0100
0001
,
1000
0100
1000
0001
0101
0000
0110
0000
,
0001
0010
0001
1000
1100
0000
0110
0000
,
1000
0010
0001
0010
1000
0100
0001
0100
,
1000
0010
0001
0100
1000
0001
1000
0000
,
0001
0100
0001
1000
1100
0000
0110
0000
,
1000
0100
1000
0001
0101
0000
0110
0000
,
0001
0010
1000
0010
0001
0100
1000
0100
,
0001
0010
1000
0100
0001
1000
0001
0000
,
1000
0100
1000
0000
0100
0010
0100
0000
,
0001
0010
0001
0000
0100
0010
0100
0000
,
1000
0100
1000
0000
0010
1000
0010
0000
,
0100
0001
0100
0000
0010
1000
0001
0000
,
1001
0001
1000
0000
0010
0000
0100
0000
,
1001
1000
0001
0000
0010
0000
0100
0000
,
1001
0110
1001
0110
,
2002
0000
3003
0000
,
1000
0000
0000
0010
0000
0000
1000
0000
0000
0010
0100
0000
0001
0000
1000
0000
,
0001
0000
0000
0010
0000
0000
0001
0000
0000
0010
0100
0000
1000
0000
0001
0000
,
1000
0000
0000
0010
0000
0000
1000
0000
0000
0010
0100
0000
0001
0000
1000
0000
,
0001
1000
0001
0000
0010
0000
1000
0000
0000
0000
1000
0000
0010
0000
0001
0000
,
0001
0000
0000
0010
0000
0000
0001
0000
0000
0010
0100
0000
1000
0000
0001
0000
,
1000
0000
0000
0010
0000
0000
1000
0000
0000
0010
0100
0000
0001
0000
1000
0000
,
0001
0000
0000
0010
0000
0000
0001
0000
0000
0010
0100
0000
1000
0000
0001
0000
,
1000
0001
1000
0000
0010
0000
0001
0000
0000
0000
0001
0000
0010
0000
1000
0000
,
0001
0100
0010
1000
0100
1000
0010
0100
,
0001
0010
1000
0010
0001
0100
0010
1000
,
0100
0001
0100
1000
0100
1000
0010
0100
,
0001
0010
0001
0100
0010
0010
1000
0001
,
1000
0100
0010
0100
1000
0001
0010
1000
,
0010
0001
0100
1000
0100
0001
0010
0100
,
1000
0010
0100
0001
0010
0100
1000
0010
,
0001
0010
1000
0100
0001
0100
1000
0010
,
0001
0000
0000
0100
0000
0000
1000
0000
0000
0010
0000
0000
0001
0000
0100
0000
,
1000
0000
0000
0010
0000
0000
0001
0000
0000
0100
0000
0000
1000
0000
0010
0000
,
0001
0100
0000
0100
1000
0000
1000
0010
0000
0010
0100
0000
0001
0000
1000
0000
,
1001
0000
0000
0110
0000
0000
1001
0000
0000
0000
0000
0000
0000
0000
0000
0000
;

//---------------dance-single - ONI----------------
#NOTES:
     dance-single:
     ONI:
     Challenge:
     10:
     0.933,1.000,0.705,0.525,0.720:
0000
0000
0000
0000
,
0000
0000
0000
0000
,
0000
0000
0000
0000
,
0000
0000
0000
0000
,
0000
0000
0000
0000
,
0000
0000
0000
0000
,
0000
0000
0000
0000
,
0000
0000
0000
0000
,
0000
0000
0000
0000
,
1000
0000
0000
0010
0000
0000
1000
0000
0000
0010
0100
0000
0101
0000
1001
0000
,
0001
0000
0000
0010
0000
0000
0001
0000
0000
0010
0100
0000
1100
0000
1001
0000
,
1000
0000
0000
0010
0000
0000
1000
0000
0000
0010
0100
0000
0101
0000
1001
0000
,
0001
1000
0001
0000
0010
0000
1001
0000
0000
0000
1001
0000
0010
0000
0001
0000
,
1001
0000
0000
0010
0000
0000
0001
0000
0000
0010
0100
0000
1100
0000
1001
0000
,
1000
0000
0000
0010
0000
0000
1000
0000
0000
0010
0100
0000
0101
0000
1001
0000
,
0001
0000
0000
0010
0000
0000
0001
0000
0000
0010
0100
0000
1100
0000
1001
0000
,
1000
0001
1000
0000
0010
0000
1001
0000
0000
0000
1001
0000
0010
0000
1000
0000
,
0001
0000
0000
0100
0000
0000
0010
0000
0000
1000
0100
0000
1001
0000
0100
0000
,
1000
0000
0000
0100
0000
0000
0010
0000
0000
0001
0100
0000
1001
0000
0100
0000
,
0001
0000
0000
0100
0000
0000
0010
0000
1000
0000
0100
0000
0010
0000
0100
0000
,
1000
0010
0100
0000
0100
0000
0010
0000
0000
0000
0101
0000
0001
0000
1001
0000
,
1000
0000
0000
0100
0000
0000
0010
0000
0000
0001
0100
0000
1001
0000
0100
0000
,
0001
0000
0000
0100
0000
0000
0010
0000
0000
1000
0100
0000
1001
0000
0100
0000
,
1000
0000
0000
0100
0000
0000
0010
0000
0001
0000
0100
0000
0010
0000
0100
0000
,
0001
0010
0100
0000
0100
0000
0010
0000
0000
0000
1100
0000
1000
0000
1001
0000
,
1000
0010
1000
0000
0100
0000
0000
0010
0001
0000
0100
0000
0010
0000
0100
0000
,
0001
0000
0000
0000
0101
0000
0000
1000
0010
1000
0100
0000
0010
0000
0001
0000
,
0100
0000
0001
0100
0000
0100
0000
0000
1000
0000
0010
0100
1000
0100
1000
0000
,
0100
0000
0000
0000
1001
0000
0000
0001
0000
0010
0100
0000
0011
0000
0101
0000
,
0001
0010
0001
0000
0100
0000
0000
0010
1000
0000
0100
0000
0010
0000
0100
0000
,
1000
0000
0000
0000
1100
0000
0000
0001
0010
0001
0100
0000
0010
0000
1000
0000
,
0100
0000
1000
0100
0000
0100
0000
0000
0001
0000
0010
0100
0001
0100
0001
0000
,
0100
0000
0000
0000
1001
0000
0000
1000
0000
0010
0100
0000
1010
0000
1100
0000
,
1000
0000
0010
0000
1000
0100
0000
0010
0000
0000
0100
0000
1000
0000
0001
0000
,
0010
0000
0100
0010
0001
0100
0010
1000
0100
0000
0010
0000
0001
0000
1000
0000
,
0010
0000
1000
0010
1000
0100
1000
0010
1000
0000
0100
0000
0010
0000
0001
0000
,
0100
0000
0010
0000
0100
0000
0000
1000
0000
0100
0010
0000
0100
0000
1000
0000
,
1001
0000
0001
0000
0100
0010
1000
0000
0100
0000
1000
0000
0100
0000
0001
0000
,
0100
0000
1000
0010
0100
0001
0010
0001
0100
0000
0010
0000
1000
0000
0100
0000
,
1000
0000
0010
1000
0100
1000
0010
0001
0010
0000
1000
0000
0100
0000
0001
0000
,
0100
1000
0010
0100
0001
0010
0100
1000
0010
0100
0010
0100
0010
1000
0001
1000
,
1010
0000
0000
0110
0000
0000
0101
0000
1001
0000
0000
0000
1001
0000
0000
0000
,
0011
0000
0000
0110
0000
0000
1100
0000
1001
0000
0000
0000
1001
0000
0000
0000
,
0010
0000
1000
0010
0000
1000
0010
1000
0001
0000
0001
0000
0100
0000
0100
0000
,
0001
0000
0100
0001
0000
0100
0001
0100
0010
0000
0010
0000
1000
0000
0001
0000
,
0011
0000
0000
0110
0000
0000
1100
0000
1001
0000
0000
0000
1001
0000
0000
0000
,
1010
0000
0000
0110
0000
0000
0101
0000
1001
0000
0000
0000
1001
0000
0000
0000
,
0010
0000
0001
0100
0000
0001
0010
0001
1000
0000
1000
0000
0010
0000
0010
0000
,
0010
0000
1000
0010
0000
1000
0100
1000
0001
0000
0001
0000
0010
0000
0010
0000
,
0010
0000
0001
0100
0000
0100
0010
0100
0010
0000
0100
0000
0100
0000
0010
0000
,
0101
0110
0101
0110
1010
0000
0110
0000
,
1001
0000
1000
0000
0100
0000
0100
0010
0000
0000
1000
0000
0100
0000
0010
0000
,
0100
0000
0000
0000
1000
0000
0000
0010
0000
0000
0100
0000
0001
0000
0010
0000
,
0001
0010
0000
0010
0100
0000
0100
1000
0000
1000
0010
0100
0001
0100
0001
0010
,
0100
1000
0000
1000
0100
0000
0100
0020
0000
0000
0000
0000
0000
0000
0000
0000
,
0031
0000
0100
0000
0100
0000
0010
1000
0000
0000
0100
0000
0010
0000
1000
0000
,
0010
0000
0001
0000
0000
0010
0000
0000
0100
0000
1000
0000
0010
0000
1000
0000
,
0010
0100
0000
0100
0001
0000
0001
0010
0100
1000
0100
1000
0010
0100
0001
0100
,
0010
0000
0000
1000
0000
0000
0010
1000
0100
1000
0010
0001
0010
0001
0010
1000
,
0100
0000
1001
0000
0010
0000
0010
0100
0000
0000
0001
0000
0010
0000
1010
0000
,
0010
0000
0000
0000
0101
0000
0000
0110
0000
0000
1010
0000
1000
0000
0100
0000
,
1000
0100
0000
0100
0010
0000
0010
0001
0000
0001
0100
0010
1000
0010
1000
0100
,
0010
0001
0000
0001
0010
0000
0010
0200
0000
0000
1000
0000
1000
0000
0000
0000
,
1300
0000
1010
0000
0010
0000
0100
0001
0000
0000
0010
0000
0100
0000
0101
0000
,
0100
0000
1100
0000
0000
0110
0000
0000
0011
0000
0001
0000
0100
0000
0001
0000
,
0100
0010
0000
0010
1000
0000
1000
0100
0010
0001
0010
0001
0100
0010
1000
0010
,
0100
0000
0000
0001
0000
0000
0100
0001
0010
0001
0100
1000
0100
1000
0100
0001
,
1000
0100
1000
0100
1000
0100
1000
0000
0100
0000
0000
1000
0000
0000
0100
0000
,
0000
0000
0001
0100
0001
0100
0001
0100
0001
0000
0000
0100
0000
0000
0001
0000
,
0000
0000
1000
0001
1000
0001
1000
0001
1000
0000
0000
0001
0000
0000
1000
0000
,
0010
0000
0000
0100
0000
0000
0010
0000
0000
0100
0000
0000
0100
0000
0100
0000
,
0000
0000
0001
0100
0001
0100
0001
0100
0001
0000
0000
0100
0000
0000
0001
0000
,
0000
0000
1000
0100
1000
0100
1000
0100
1000
0000
0000
0100
0000
0000
1000
0000
,
0000
0000
0001
1000
0001
1000
0001
1000
0001
0000
0000
1000
0000
0000
0001
0000
,
0100
0000
0000
0010
0000
0000
0200
0000
0000
0000
0000
0000
0000
0000
0300
0000
,
0001
0000
0000
0100
0000
0000
0010
0000
0000
1000
0100
0000
1001
0000
0010
0000
,
1000
0000
0000
0100
0000
0000
0010
0000
0000
0001
0100
0000
1001
0000
0100
0000
,
0001
0000
0000
0100
0000
0000
0010
0000
1000
0000
0100
0000
0010
0000
0100
0000
,
1000
0010
0100
0000
0100
0000
0010
0000
0000
0000
0101
0000
0001
0000
1001
0000
,
1000
0000
0000
0100
0000
0000
0010
0000
0000
0001
0100
0000
1001
0000
0100
0000
,
0001
0000
0000
0100
0000
0000
0010
0000
0000
1000
0100
0000
1001
0000
0100
0000
,
1000
0000
0000
0100
0000
0000
0010
0000
0001
0000
0100
0000
0010
0000
0100
0000
,
0001
0010
0100
0000
0100
0000
0010
0000
0000
0000
1100
0000
1000
0000
1001
0000
,
0002
0003
0000
0000
0000
0000
0000
0000
0000
0000
0000
0000
0000
0000
0000
0000
0000
0000
0000
0000
0000
0000
0000
0000
0200
0300
0000
0000
0000
0000
0000
0000
0000
0000
0000
0000
0000
0000
0000
0000
0000
0000
0000
0000
0000
0000
0000
0000
0020
0030
0000
0000
0000
0000
0000
0000
0000
0000
0000
0000
0000
0000
0000
0000
0000
0000
0000
0000
0000
0000
0000
0000
2000
3000
0000
0000
0000
0000
0000
0000
0000
0000
0000
0000
0000
0000
0000
0000
0000
0000
0000
0000
0000
0000
0000
0000
0200
0300
0000
0000
0000
0000
0000
0000
0000
0000
0000
0000
0000
0000
0000
0000
0000
0000
0000
0000
0000
0000
0000
0000
2000
3000
0000
0000
0000
0000
0000
0000
0000
0000
0000
0000
0000
0000
0000
0000
0000
0000
0000
0000
0000
0000
0000
0000
0020
0030
0000
0000
0000
0000
0000
0000
0000
0000
0000
0000
0000
0000
0000
0000
0000
0000
0000
0000
0000
0000
0000
0000
0200
0300
0000
0000
0000
0000
0000
0000
0000
0000
0000
0000
0000
0000
0000
0000
0000
0000
0000
0000
0000
0000
0000
0000
,
0002
0003
0000
0000
0000
0000
0000
0000
0000
0000
0000
0000
0000
0000
0000
0000
0000
0000
0000
0000
0000
0000
0000
0000
0020
0030
0000
0000
0000
0000
0000
0000
0000
0000
0000
0000
0000
0000
0000
0000
0000
0000
0000
0000
0000
0000
0000
0000
2000
3000
0000
0000
0000
0000
0000
0000
0000
0000
0000
0000
0000
0000
0000
0000
0000
0000
0000
0000
0000
0000
0000
0000
0020
0030
0000
0000
0000
0000
0000
0000
0000
0000
0000
0000
0000
0000
0000
0000
0000
0000
0000
0000
0000
0000
0000
0000
0002
0003
0000
0000
0000
0000
0000
0000
0000
0000
0000
0000
0000
0000
0000
0000
0000
0000
0000
0000
0000
0000
0000
0000
0200
0300
0000
0000
0000
0000
0000
0000
0000
0000
0000
0000
0000
0000
0000
0000
0000
0000
0000
0000
0000
0000
0000
0000
0020
0030
0000
0000
0000
0000
0000
0000
0000
0000
0000
0000
0000
0000
0000
0000
0000
0000
0000
0000
0000
0000
0000
0000
2000
3000
0000
0000
0000
0000
0000
0000
0000
0000
0000
0000
0000
0000
0000
0000
0000
0000
0000
0000
0000
0000
0000
0000
,
0200
0300
0000
0000
0000
0000
0000
0000
0000
0000
0000
0000
0000
0000
0000
0000
0000
0000
0000
0000
0000
0000
0000
0000
0002
0003
0000
0000
0000
0000
0000
0000
0000
0000
0000
0000
0000
0000
0000
0000
0000
0000
0000
0000
0000
0000
0000
0000
0200
0300
0000
0000
0000
0000
0000
0000
0000
0000
0000
0000
0000
0000
0000
0000
0000
0000
0000
0000
0000
0000
0000
0000
2000
3000
0000
0000
0000
0000
0000
0000
0000
0000
0000
0000
0000
0000
0000
0000
0000
0000
0000
0000
0000
0000
0000
0000
0200
0300
0000
0000
0000
0000
0000
0000
0000
0000
0000
0000
0000
0000
0000
0000
0000
0000
0000
0000
0000
0000
0000
0000
2000
3000
0000
0000
0000
0000
0000
0000
0000
0000
0000
0000
0000
0000
0000
0000
0000
0000
0000
0000
0000
0000
0000
0000
0020
0030
0000
0000
0000
0000
0000
0000
0000
0000
0000
0000
0000
0000
0000
0000
0000
0000
0000
0000
0000
0000
0000
0000
0200
0300
0000
0000
0000
0000
0000
0000
0000
0000
0000
0000
0000
0000
0000
0000
0000
0000
0000
0000
0000
0000
0000
0000
,
0002
0003
0000
0000
0000
0000
0000
0000
0000
0000
0000
0000
0000
0000
0000
0000
0000
0000
0000
0000
0000
0000
0000
0000
0020
0030
0000
0000
0000
0000
0000
0000
0000
0000
0000
0000
0000
0000
0000
0000
0000
0000
0000
0000
0000
0000
0000
0000
0002
0003
0000
0000
0000
0000
0000
0000
0000
0000
0000
0000
0000
0000
0000
0000
0000
0000
0000
0000
0000
0000
0000
0000
0200
0300
0000
0000
0000
0000
0000
0000
0000
0000
0000
0000
0000
0000
0000
0000
0000
0000
0000
0000
0000
0000
0000
0000
0020
0030
0000
0000
0000
0000
0000
0000
0000
0000
0000
0000
0000
0000
0000
0000
0000
0000
0000
0000
0000
0000
0000
0000
0020
0030
0000
0000
0000
0000
0000
0000
0000
0000
0000
0000
0000
0000
0000
0000
0000
0000
0000
0000
0000
0000
0000
0000
2000
3000
0000
0000
0000
0000
0000
0000
0000
0000
0000
0000
0000
0000
0000
0000
0000
0000
0000
0000
0000
0000
0000
0000
0002
0003
0000
0000
0000
0000
0000
0000
0000
0000
0000
0000
0000
0000
0000
0000
0000
0000
0000
0000
0000
0000
0000
0000
,
2000
3000
0000
0000
0000
0000
0000
0000
0000
0000
0000
0000
0000
0000
0000
0000
0000
0000
0000
0000
0000
0000
0000
0000
0200
0300
0000
0000
0000
0000
0000
0000
0000
0000
0000
0000
0000
0000
0000
0000
0000
0000
0000
0000
0000
0000
0000
0000
0020
0030
0000
0000
0000
0000
0000
0000
0000
0000
0000
0000
0000
0000
0000
0000
0000
0000
0000
0000
0000
0000
0000
0000
0200
0300
0000
0000
0000
0000
0000
0000
0000
0000
0000
0000
0000
0000
0000
0000
0000
0000
0000
0000
0000
0000
0000
0000
2000
3000
0000
0000
0000
0000
0000
0000
0000
0000
0000
0000
0000
0000
0000
0000
0000
0000
0000
0000
0000
0000
0000
0000
0002
0003
0000
0000
0000
0000
0000
0000
0000
0000
0000
0000
0000
0000
0000
0000
0000
0000
0000
0000
0000
0000
0000
0000
0020
0030
0000
0000
0000
0000
0000
0000
0000
0000
0000
0000
0000
0000
0000
0000
0000
0000
0000
0000
0000
0000
0000
0000
2000
3000
0000
0000
0000
0000
0000
0000
0000
0000
0000
0000
0000
0000
0000
0000
0000
0000
0000
0000
0000
0000
0000
0000
,
0020
0030
0000
0000
0000
0000
0000
0000
0000
0000
0000
0000
0000
0000
0000
0000
0000
0000
0000
0000
0000
0000
0000
0000
0002
0003
0000
0000
0000
0000
0000
0000
0000
0000
0000
0000
0000
0000
0000
0000
0000
0000
0000
0000
0000
0000
0000
0000
0200
0300
0000
0000
0000
0000
0000
0000
0000
0000
0000
0000
0000
0000
0000
0000
0000
0000
0000
0000
0000
0000
0000
0000
2000
3000
0000
0000
0000
0000
0000
0000
0000
0000
0000
0000
0000
0000
0000
0000
0000
0000
0000
0000
0000
0000
0000
0000
0200
0300
0000
0000
0000
0000
0000
0000
0000
0000
0000
0000
0000
0000
0000
0000
0000
0000
0000
0000
0000
0000
0000
0000
0002
0003
0000
0000
0000
0000
0000
0000
0000
0000
0000
0000
0000
0000
0000
0000
0000
0000
0000
0000
0000
0000
0000
0000
0020
0030
0000
0000
0000
0000
0000
0000
0000
0000
0000
0000
0000
0000
0000
0000
0000
0000
0000
0000
0000
0000
0000
0000
0200
0300
0000
0000
0000
0000
0000
0000
0000
0000
0000
0000
0000
0000
0000
0000
0000
0000
0000
0000
0000
0000
0000
0000
,
2000
3000
0000
0000
0000
0000
0000
0000
0000
0000
0000
0000
0000
0000
0000
0000
0000
0000
0000
0000
0000
0000
0000
0000
0020
0030
0000
0000
0000
0000
0000
0000
0000
0000
0000
0000
0000
0000
0000
0000
0000
0000
0000
0000
0000
0000
0000
0000
0200
0300
0000
0000
0000
0000
0000
0000
0000
0000
0000
0000
0000
0000
0000
0000
0000
0000
0000
0000
0000
0000
0000
0000
0002
0003
0000
0000
0000
0000
0000
0000
0000
0000
0000
0000
0000
0000
0000
0000
0000
0000
0000
0000
0000
0000
0000
0000
0020
0030
0000
0000
0000
0000
0000
0000
0000
0000
0000
0000
0000
0000
0000
0000
0000
0000
0000
0000
0000
0000
0000
0000
0200
0300
0000
0000
0000
0000
0000
0000
0000
0000
0000
0000
0000
0000
0000
0000
0000
0000
0000
0000
0000
0000
0000
0000
2000
3000
0000
0000
0000
0000
0000
0000
0000
0000
0000
0000
0000
0000
0000
0000
0000
0000
0000
0000
0000
0000
0000
0000
0020
0030
0000
0000
0000
0000
0000
0000
0000
0000
0000
0000
0000
0000
0000
0000
0000
0000
0000
0000
0000
0000
0000
0000
,
0002
0003
0000
0000
0000
0000
0000
0000
0000
0000
0000
0000
0000
0000
0000
0000
0000
0000
0000
0000
0000
0000
0000
0000
0020
0030
0000
0000
0000
0000
0000
0000
0000
0000
0000
0000
0000
0000
0000
0000
0000
0000
0000
0000
0000
0000
0000
0000
2000
3000
0000
0000
0000
0000
0000
0000
0000
0000
0000
0000
0000
0000
0000
0000
0000
0000
0000
0000
0000
0000
0000
0000
0200
0300
0000
0000
0000
0000
0000
0000
0000
0000
0000
0000
0000
0000
0000
0000
0000
0000
0000
0000
0000
0000
0000
0000
0002
0003
0000
0000
0000
0000
0000
0000
0000
0000
0000
0000
0000
0000
0000
0000
0000
0000
0000
0000
0000
0000
0000
0000
0200
0300
0000
0000
0000
0000
0000
0000
0000
0000
0000
0000
0000
0000
0000
0000
0000
0000
0000
0000
0000
0000
0000
0000
2000
3000
0000
0000
0000
0000
0000
0000
0000
0000
0000
0000
0000
0000
0000
0000
0000
0000
0000
0000
0000
0000
0000
0000
0020
0030
0000
0000
0000
0000
0000
0000
0000
0000
0000
0000
0000
0000
0000
0000
0000
0000
0000
0000
0000
0000
0000
0000
,
0101
0000
0000
0110
0000
0000
1100
0000
0000
1010
0000
0000
0011
0000
0101
0000
,
1100
0000
0000
1010
0000
0000
0011
0000
0000
0101
0000
0000
1100
0000
1010
0000
,
0001
0100
0000
0100
1000
0000
1000
0010
0000
0010
0100
0000
0002
0000
1003
0000
,
1001
0000
0000
0000
0000
0000
0000
0000
0000
0000
0000
0000
0000
0000
0000
0000
0000
0000
0000
0000
0000
0000
0000
0000
0000
0000
0000
0000
0000
0000
0000
0000
0000
0000
0000
0000
0110
0000
0000
0000
0000
0000
0000
0000
0000
0000
0000
0000
0000
0000
0000
0000
0000
0000
0000
0000
0000
0000
0000
0000
0000
0000
0000
0000
0000
0000
0000
0000
0000
0000
0000
0000
2002
3003
0000
0000
0000
0000
0000
0000
0000
0000
0000
0000
0000
0000
0000
0000
0000
0000
0000
0000
0000
0000
0000
0000
0000
0000
0000
0000
0000
0000
0000
0000
0000
0000
0000
0000
0000
0000
0000
0000
0000
0000
0000
0000
0000
0000
0000
0000
0000
0000
0000
0000
0000
0000
0000
0000
0000
0000
0000
0000
0000
0000
0000
0000
0000
0000
0000
0000
0000
0000
0000
0000
0000
0000
0000
0000
0000
0000
0000
0000
0000
0000
0000
0000
0000
0000
0000
0000
0000
0000
0000
0000
0000
0000
0000
0000
0000
0000
0000
0000
0000
0000
0000
0000
0000
0000
0000
0000
0000
0000
0000
0000
0000
0000
0000
0000
0000
0000
0000
0000
;
