#TITLE:RAY;
#SUBTITLE:;
#ARTIST:MILK;
#TITLETRANSLIT:;
#SUBTITLETRANSLIT:;
#ARTISTTRANSLIT:;
#CREDIT:;
#BANNER:RAY.png;
#BACKGROUND:RAY-bg.png;
#LYRICSPATH:;
#CDTITLE:cdtitle.png;
#MUSIC:RAY.mp3;
#OFFSET:-1.580;
#SAMPLESTART:53.200;
#SAMPLELENGTH:12.000;
#SELECTABLE:YES;
#BPMS:0.000=146.000,28.000=155.000,28.250=160.000,28.375=170.000,28.500=180.000,28.625=185.000,28.750=190.000,28.875=195.000,29.000=200.000,29.250=190.000,29.500=180.000,29.750=160.000,29.875=150.000,30.000=140.000,30.125=120.000,30.250=110.000,30.375=95.000,30.500=80.000,30.625=95.000,30.750=110.000,30.875=115.000,31.000=120.000,31.125=125.000,31.250=130.000,31.375=140.000,31.500=142.000,31.750=144.000,32.000=146.000,96.000=73.000,112.000=146.000,144.000=135.000,144.125=120.000,144.250=110.000,144.313=100.000,144.375=90.000,144.438=80.000,144.500=70.000,144.563=60.000,144.625=50.000,144.688=40.000,144.750=50.000,144.813=80.000,144.875=120.000,144.938=180.000,145.000=200.000,145.125=300.000,145.250=399.999,145.375=499.997,145.500=599.996,147.000=146.000,196.000=292.000,212.000=583.996,244.000=146.000;
#STOPS:147.000=0.280
;
#BGCHANGES:;

//---------------dance-single - BASIC----------------
#NOTES:
     dance-single:
     BASIC:
     Easy:
     4:
     0.234,0.305,0.044,0.071,0.000: // measure 1
0000
0000
0000
0000
,  // measure 2
0000
0000
0000
0000
,  // measure 3
0000
0000
0000
0000
,  // measure 4
0000
0000
0000
0000
,  // measure 5
0000
0000
0000
0000
,  // measure 6
0000
0000
0000
0000
,  // measure 7
0000
0000
0000
0000
,  // measure 8
2002
0000
0000
3003
,  // measure 9
1001
0001
0000
0100
,  // measure 10
0000
0010
0000
1000
,  // measure 11
0000
0001
0000
0100
,  // measure 12
0000
0010
0000
0010
,  // measure 13
0000
1000
0000
0100
,  // measure 14
0000
0100
0000
1000
,  // measure 15
0000
0001
0000
0010
,  // measure 16
0000
0100
0000
0010
,  // measure 17
1000
0010
0100
0100
,  // measure 18
0001
0010
0010
1000
,  // measure 19
0001
0100
1000
0010
,  // measure 20
0100
1000
0010
0010
,  // measure 21
0100
0001
0010
0010
,  // measure 22
1000
0001
0001
1000
,  // measure 23
0100
0100
1000
0010
,  // measure 24
0001
1000
0010
0001
,  // measure 25
2001
0000
0000
0000
,  // measure 26
3002
0000
0000
0000
,  // measure 27
2003
0000
0000
0000
,  // measure 28
3002
0000
0000
0000
,  // measure 29
0003
1000
0000
1000
,  // measure 30
0000
0010
0000
0010
,  // measure 31
0000
1000
0000
1000
,  // measure 32
0000
0001
0000
0001
,  // measure 33
0000
0010
0000
0010
,  // measure 34
0000
0100
0000
0100
,  // measure 35
1000
0010
0100
0001
,  // measure 36
0100
0010
1000
0100
,  // measure 37
2002
0000
0000
3003
,  // measure 38
1000
0001
0010
0010
,  // measure 39
1000
1000
0100
0100
,  // measure 40
0001
1000
0010
0010
,  // measure 41
0100
0100
1000
0001
,  // measure 42
0100
0100
0010
1000
,  // measure 43
0001
0100
0010
1000
,  // measure 44
0100
0001
0010
0010
,  // measure 45
1000
0001
0100
0100
,  // measure 46
0010
0010
0010
0010
,  // measure 47
0010
0010
0010
0010
,  // measure 48
0010
0010
0010
0010
,  // measure 49
0010
0010
0010
0010
,  // measure 50
0010
0000
0010
0000
,  // measure 51
0010
0000
0010
0000
,  // measure 52
0010
0000
0010
0000
,  // measure 53
0010
0000
0010
0000
,  // measure 54
0010
0000
0000
0000
,  // measure 55
0010
0000
0000
0000
,  // measure 56
0010
0000
0000
0000
,  // measure 57
0010
0000
0000
0000
,  // measure 58
0010
0000
0000
0000
,  // measure 59
0010
0000
0000
0000
,  // measure 60
0010
0000
0000
0000
,  // measure 61
0010
0000
0000
0000
,  // measure 62
0010
0010
0100
0001
,  // measure 63
0010
0010
1000
0010
,  // measure 64
0100
0100
0001
0001
,  // measure 65
0010
0010
1000
0100
,  // measure 66
0100
0010
0010
0010
,  // measure 67
0001
0100
0100
0001
,  // measure 68
0010
0100
0100
0010
,  // measure 69
0010
1000
0100
0001
,  // measure 70
1001
0000
0000
0000
;

//---------------dance-single - TRICK----------------
#NOTES:
     dance-single:
     TRICK:
     Medium:
     6:
     0.414,0.549,0.610,0.141,0.000:
0000
0000
0000
0000
,
0000
0000
0000
0000
,
0000
0000
0000
0000
,
0000
0000
0000
0000
,
0000
0000
0000
0000
,
0000
0000
0000
0000
,
0000
0000
0000
0000
,
2002
0000
0000
3003
,
1001
0010
1000
0100
,
0010
0001
0010
0100
,
0010
0001
0010
0100
,
1000
0010
0100
0010
,
1000
1000
0001
0100
,
0100
0010
0010
1000
,
0001
0001
1000
0010
,
0200
0000
0000
0310
,
1000
0000
0010
0100
0100
0000
0100
0000
,
0001
0000
0010
0100
0100
0000
0100
0000
,
1000
0000
0010
0100
0100
0000
0100
0000
,
0001
0000
0010
0100
0100
0000
0100
0000
,
1000
0000
0010
0010
0100
0000
0100
0000
,
0001
0000
0010
0010
0100
0000
0100
0000
,
1000
0000
0010
0100
0100
0000
0001
0010
,
0100
1010
0011
0101
,
2001
0100
0100
0100
,
3002
0010
0010
1000
,
2003
0100
0100
0100
,
3002
0010
0010
1000
,
1003
0010
1000
0000
1000
0100
0001
0000
,
0010
0100
0010
0000
0010
1000
0100
0000
,
1001
1100
0011
1001
,
0001
0100
1000
0000
1000
0010
0001
0000
,
1000
0010
0100
0000
0001
0010
0100
0000
,
1000
0001
0100
0000
0010
1000
0100
0000
,
1000
0100
0010
0001
0100
0010
0100
0010
,
1000
0100
0010
0001
0100
1000
0100
0001
,
2002
0000
0000
3003
,
1000
1001
0010
0011
,
1100
1010
0100
0101
,
0011
1000
0110
0101
,
0100
0100
1010
0001
,
0100
1100
0010
1000
,
0001
0110
0101
1000
,
0100
0011
0010
0110
,
1001
0101
0110
0110
,
1001
1001
1001
1001
,
1001
1001
1001
1001
,
1001
1001
1001
1001
,
1001
1001
1001
1001
,
1001
0000
0110
0000
,
1001
0000
0110
0000
,
1001
0000
0110
0000
,
1001
0000
0110
0000
,
1001
0000
0000
0000
,
1001
0000
0000
0000
,
0110
0000
0000
0000
,
1001
0000
0000
0000
,
0110
0000
0000
0000
,
0110
0000
0000
0000
,
1001
0000
0000
0000
,
1001
0000
0000
0000
,
2001
3010
0200
0301
,
0010
0020
1030
1010
,
0100
0200
0301
0011
,
1010
0020
1030
0100
,
0110
0010
1100
0010
,
0012
0103
0200
0301
,
0010
1000
0100
0001
0100
1000
0010
0001
,
0010
0100
1000
0010
0100
0001
0100
1000
,
1001
0000
0000
0000
;

//---------------dance-single - HEAVY----------------
#NOTES:
     dance-single:
     HEAVY:
     Hard:
     9:
     0.568,0.641,0.849,0.088,0.362:
0000
0000
0000
0000
,
0000
0000
0000
0000
,
0000
0000
0000
0000
,
0000
0000
0000
0000
,
0000
0000
0000
0000
,
0000
0000
0000
0000
,
0000
0000
0000
0000
,
2002
0000
0000
0000
0000
0000
0000
0000
0000
0000
3003
0000
1000
0001
1000
0001
,
1000
0000
1000
0010
0000
1000
0000
1001
0000
0000
0001
0010
0000
0001
0000
1001
,
0000
0000
0001
0100
0000
0001
0000
1001
0000
0000
1000
0100
0000
1000
0000
1001
,
0000
0000
0001
1000
0000
0001
0000
1001
0000
0000
1000
0001
0000
1000
0000
1001
,
0000
0000
0001
0010
0000
0001
0000
0101
0000
0000
1000
0010
0000
1000
0000
1100
,
0000
0000
0001
0100
0000
0001
0000
0101
0000
0000
1000
0100
0000
1000
0000
1100
,
0000
0000
0001
0010
0000
0001
0000
0011
0000
0000
1000
0001
0000
1000
0000
1001
,
0000
0000
0001
1000
0000
0001
0000
1001
0000
0000
0010
0100
0000
0010
0000
0010
,
0200
0001
0010
1300
,
0011
0110
0101
0110
,
1010
1100
0101
0011
,
0101
0110
0110
1001
,
1100
1100
0110
0101
,
0011
1010
1001
0110
,
0011
0110
1001
1010
,
1100
1100
1001
0011
,
1001
1010
0011
0101
,
2001
0000
0000
0100
0100
0000
0000
0000
0001
0000
0000
0100
0100
0000
0000
0000
,
3002
0000
0000
0010
0010
0000
0000
0000
1000
0000
0000
0100
0100
0000
0000
0000
,
2003
0000
0000
0100
0100
0000
0000
0000
0001
0000
0000
0100
0100
0000
0000
0000
,
3002
0000
0000
0010
0010
0000
0000
0000
1000
0000
0000
0000
0100
0100
0000
0000
,
1003
0010
0100
0010
1000
0100
0001
0100
,
1000
0010
0100
0001
0010
1000
0100
0001
,
0100
1000
0100
0001
0010
0100
1000
0010
,
0001
0100
1000
0010
1000
0010
0100
0001
,
0100
0010
0100
0010
1000
0100
0001
0100
,
1000
0001
0100
0010
0100
1000
0100
0001
,
1000
0010
0001
0010
1000
0100
0001
0100
,
1000
0010
0001
0100
1000
0010
0001
1000
,
2002
0000
0000
3003
,
1000
0010
0000
1000
0100
0000
0000
0000
0001
0010
0000
0001
0100
0000
0000
0000
,
1000
0010
0000
1000
0100
0000
0000
0000
0001
0010
0000
0001
0100
0000
0000
0000
,
1000
0001
0000
0001
1000
0000
0000
0000
0001
1000
0000
1000
0001
0000
0000
0000
,
1000
0010
0000
0010
1000
0000
0000
0000
0001
0010
0000
0010
0001
0000
0000
0000
,
1000
0010
0000
1000
0100
0000
0000
0000
0001
0010
0000
0001
0100
0000
0000
0000
,
1000
0010
0000
0001
1000
0000
0000
0000
0001
0010
0000
1000
0001
0000
0000
0000
,
1000
0010
0000
0001
1000
0000
0000
0000
0001
0010
0000
1000
0001
0000
0000
0000
,
0110
0110
0110
0110
,
1010
0011
0101
1100
,
1010
0011
0101
1100
,
1010
0011
0101
1100
,
1010
0011
0101
1100
,
1000
0010
0100
0001
,
0010
0001
0100
0010
,
1000
0100
0001
0100
,
1000
0010
0100
0001
,
1000
0010
0100
0010
,
0100
0001
0100
0010
,
0100
0010
1000
0010
,
0100
0010
0100
0001
,
0010
0100
1000
0100
,
0010
0001
0010
0100
,
1000
0010
0100
0001
,
0010
0100
1000
0001
,
1000
0101
0110
0011
,
1100
0011
1010
0110
,
0101
0110
0101
0011
,
1010
0011
1100
0101
,
0110
1010
1100
0110
,
0011
0110
1100
1001
,
0120
0000
0000
0030
,
0011
0000
0000
0000
1100
0000
0000
0000
0110
0000
0000
0000
1000
0100
0001
0100
,
1001
0000
0000
0000
;

//---------------dance-single - ONI----------------
#NOTES:
     dance-single:
     ONI:
     Challenge:
     11:
     1.000,1.000,1.000,1.000,1.000:
0000
0000
0000
0000
,
0000
0000
0000
0000
,
0000
0000
0000
0000
,
0000
0000
0000
0000
,
0000
0000
0000
0000
,
0000
0000
0000
0000
,
0000
0000
0000
0000
,
2002
0000
0000
0000
3003
0220
0000
0000
0000
0330
0000
2002
0000
0000
0000
0000
0000
0000
0000
0000
3003
0000
0000
0000
1000
0000
0001
0000
1000
0000
0001
0000
,
1001
0000
1000
0010
0000
1010
0000
1001
0000
0000
0001
0010
0000
0011
0000
1001
,
0000
0000
0001
0100
0000
0101
0000
1001
0000
0000
1000
0100
0000
1100
0000
1001
,
0000
0000
0001
1000
0000
1001
0000
1001
0000
0000
1000
0001
0000
1001
0000
1001
,
0000
0000
0001
0010
0000
0011
0000
0101
0000
0000
1000
0010
0000
1010
0000
1100
,
0000
0000
0001
0010
0000
0011
0000
0101
0000
0000
1000
0100
0000
1100
0000
1100
,
0000
0000
0001
0010
0000
0011
0000
0011
0000
0000
1000
0001
0000
1001
0000
1001
,
0000
0000
0001
1000
0000
1001
0000
1001
0000
0000
0010
0100
0000
0110
0000
0110
,
0000
0000
1000
0001
0000
1001
0000
1001
0000
0000
1000
0001
0000
1001
0000
0000
,
1001
0001
0101
0100
0110
0010
1010
1000
,
1100
0100
0110
0010
0011
0001
0101
0100
,
0110
0010
1010
1000
1100
0100
0110
0010
,
0011
0001
0101
0100
0110
0110
0000
0110
,
1001
0001
0101
0100
0110
0010
1010
1000
,
1100
0100
0110
0010
0011
0001
0101
0100
,
0110
0010
1010
1000
1100
0100
0110
0010
,
0011
0000
0000
0000
0101
0000
0000
0000
1100
0000
0000
0000
0220
0330
2002
3003
,
1000
0001
1000
0001
1000
0001
1000
0000
0010
0100
0010
0100
0010
0100
0010
0000
1000
0100
1000
0100
1000
0100
1000
0000
0001
0100
0001
0100
1000
0100
0001
0100
,
0001
0100
0001
0100
0001
0100
0001
0000
0100
0010
0100
0010
0100
0010
0100
0000
0001
1000
0001
1000
0001
1000
0001
0000
1000
0100
1000
0100
0001
0100
1000
0100
,
1000
0100
1000
0100
1000
0100
1000
0000
0010
0100
0010
0100
0010
0100
0010
0000
1000
0001
1000
0001
1000
0001
1000
0000
0001
0100
0001
0100
1000
0100
0001
0100
,
0001
0100
0001
0100
0001
0100
0001
0000
0100
0010
0100
0010
0100
0010
0100
0000
0001
1000
0001
1000
0001
1000
0001
0000
1000
0100
1000
0100
0001
0100
1000
0100
,
1000
0010
0100
0010
1000
0010
1000
0000
0001
0100
0001
0100
0001
1000
0001
0000
,
1000
0010
0100
0010
1000
0100
1000
0000
0001
0010
0100
0010
0001
0100
0001
1000
,
0001
0100
0001
0100
0010
0100
0001
0000
1000
0010
0100
0010
1000
0100
1000
0000
,
0001
0010
0100
0010
0001
0100
0001
0000
1000
0100
0010
0100
1000
0100
1000
0100
,
1000
0010
0100
0010
1000
0100
1000
0000
0001
0010
0100
0010
0001
1000
0001
0000
,
1000
0010
0100
0010
1000
0001
1000
0000
0001
0100
1000
0100
0001
0010
0001
0100
,
0001
0100
0010
1000
0100
0010
0001
0100
0010
1000
0100
0010
0001
0010
0100
1000
,
0010
0100
0001
0010
0100
1000
0010
0100
0001
1000
0001
0010
0100
0010
0001
1000
,
2002
0000
0000
0000
0000
0000
0000
0000
3003
0000
0000
0000
0000
0000
2002
0000
0000
0000
0000
0000
0000
0000
0000
0000
0000
0000
0000
0000
0000
0000
0000
0000
0000
0000
0000
0000
0000
0000
0000
0000
0000
0000
0000
0000
0000
0000
0000
0000
0000
3003
0000
0000
0000
0000
0000
0000
0000
0000
0000
0000
0000
0000
0000
0000
,
1001
1000
1010
0010
0110
0100
0101
0001
,
0011
0010
0110
0100
1100
1000
1010
0010
,
0110
0100
0101
0001
0011
0010
0110
0100
,
1100
1000
1010
0010
0110
0100
0101
0001
,
0011
0010
1010
1000
1100
0100
1100
1000
,
1010
0010
0011
0001
0101
0100
0101
0001
,
0011
0010
0011
0001
1001
1000
2002
3003
,
0220
0000
0330
0000
2002
0000
0003
0000
3100
0010
0100
0010
0100
0010
0100
0010
,
1000
0010
1000
0010
1000
0010
1000
0010
1000
0010
1000
0010
1000
0010
1000
0010
,
1000
0010
1000
0010
1000
0010
1000
0010
1000
0010
1000
0010
1000
0010
1000
0010
,
1000
0001
0100
0001
0100
0001
0100
0001
0100
0001
0100
0001
0100
0001
0100
0001
,
0100
0001
0100
0001
0100
0001
0100
0001
0100
0001
0100
0001
0100
0001
0100
0001
,
1000
0100
1000
0100
1000
0100
1000
0100
,
1000
0100
1000
0100
1000
0100
1000
0100
,
1000
0100
1000
0100
1000
0100
1000
0100
,
1000
0100
1000
0100
1000
0100
1000
0100
,
2000
3020
2030
3002
,
0203
0320
2030
3200
,
0320
0032
0203
0320
,
2030
3002
2003
3002
,
0023
0230
2300
3200
,
0320
0032
0023
0230
,
2300
3020
0230
0302
,
0023
0000
0000
0000
0000
0000
0000
0000
0000
0000
0000
0000
0000
0000
0000
0000
0230
0000
0000
0000
0000
0000
0000
0000
0000
0000
0000
0000
0000
0000
0000
0000
2300
0000
0000
0000
0000
0000
0000
0000
0000
0000
0000
0000
0000
0000
0000
0000
0002
3003
0000
0000
0000
0000
0000
0000
0000
0000
0000
0000
0000
0000
0000
0000
,
2002
3003
0202
0303
0220
0330
0022
0033
,
2200
3300
0022
0033
2020
3030
0220
0330
,
0202
0303
0220
0330
0202
0303
0022
0033
,
2020
3030
0022
0033
2200
3300
0202
0303
,
0220
0330
2020
3030
2200
3300
0220
0330
,
0022
0033
0220
0330
2200
3300
2002
3003
,
0220
0000
0000
0000
0330
0000
2002
3003
0220
0000
0000
0000
0330
0000
0220
0330
,
0022
0000
0000
0000
0000
0000
0000
0000
0033
0000
0000
0000
0000
0000
0000
0000
2200
0000
0000
0000
0000
0000
0000
0000
3300
0000
0000
0000
0000
0000
0000
0000
0220
0000
0000
0000
0000
0000
0000
0000
0330
0000
0000
0000
0000
0000
0000
0000
2000
3000
0000
0000
0200
0300
0000
0000
0002
0003
0000
0000
0200
0300
0000
0000
,
2002
0000
0000
3003
;
