#TITLE:Planet Pulsation;
#SUBTITLE:;
#ARTIST:syatten;
#TITLETRANSLIT:;
#SUBTITLETRANSLIT:;
#ARTISTTRANSLIT:;
#CREDIT:;
#BANNER:Planct Pulsation.PNG;
#BACKGROUND:Planct Pulsation-bg.PNG;
#LYRICSPATH:;
#CDTITLE:cdtitle.png;
#MUSIC:Planct Pulsation.mp3;
#OFFSET:-1.680;
#SAMPLESTART:29.000;
#SAMPLELENGTH:12.000;
#SELECTABLE:YES;
#DISPLAYBPM:90.000:144.000;
#BPMS:0.000=144.000,128.000=-100.000,136.000=100.000,145.060=-90.000,153.060=90.000,164.000=92.000,164.500=93.000,165.000=94.000,165.500=95.000,166.000=100.000,166.500=105.000,167.000=115.000,167.500=120.000,168.000=144.000;
#STOPS:128.000=6.100
,162.000=1.100
,163.000=1.140
;
#BGCHANGES:-4.000=Planet Pulsation.avi=1.000=1=1=0,
320.000=Planet Pulsation-bg.png=1.000=1=0=1,
99999=-nosongbg-=1.000=0=0=0 // don't automatically add -songbackground-
;

//---------------dance-single - BASIC----------------
#NOTES:
     dance-single:
     BASIC:
     Easy:
     3:
     0.156,0.276,0.028,0.021,0.000:
0000
0000
0000
0000
,
0000
0000
0000
0000
,
0000
0000
0000
0000
,
0000
0000
0000
0000
,
0000
0000
0000
0000
,
0000
0000
0000
0000
,
0000
0000
0000
0000
,
0000
0000
0000
0000
,
1000
0000
0000
0000
,
0001
0000
0000
0000
,
1000
0000
0000
0000
,
0001
0000
0000
0000
,
1000
0000
0000
0000
,
0001
0000
0000
0000
,
1000
0000
0100
0000
,
0001
0000
1001
0000
,
1000
0000
0100
0000
,
0010
0000
0001
0000
,
0010
0000
0100
0000
,
1000
0000
0001
0000
,
1000
0000
0100
0000
,
0010
0000
0100
0000
,
1000
0000
0001
0000
,
0100
0000
0001
0000
,
0010
0000
0100
0000
,
1000
0000
0100
0000
,
0010
0000
0001
0000
,
1000
0000
0001
0000
,
0010
0000
0100
0000
,
0010
0000
0001
0000
,
1000
0000
0100
0000
,
0001
0000
1000
0000
,
1001
1000
0001
1000
,
0200
0000
0000
0000
,
1300
0000
0000
0000
,
0001
0000
0000
0000
,
0000
1000
0001
1000
,
0200
0000
0000
0000
,
1300
0000
0000
0000
,
0001
0000
0000
0000
,
0000
0000
0001
1000
,
0200
0000
0000
0000
,
1300
0000
0000
0000
,
0001
0000
0000
0000
,
0100
0000
0000
0000
,
1000
0000
0000
0000
,
0001
0000
0000
0000
,
0100
0000
0000
0000
,
0010
0000
0000
0000
,
1000
0000
0000
0000
,
1001
0000
0000
0000
,
1000
0000
0000
0000
,
0100
0000
0000
0000
,
0001
0000
0000
0000
,
0010
0000
0000
0000
,
1000
0000
0000
0000
,
0001
0000
0000
0000
,
1000
0000
0000
0000
,
1000
0000
0001
0000
,
0100
0000
0100
0000
,
0010
0000
0010
0000
,
1000
0000
0001
0000
,
1000
0001
1000
0001
,
0100
0100
0010
0010
,
0001
1000
0001
1000
,
0100
0100
0010
0010
,
0001
1000
0001
1000
,
0010
0010
0100
0100
,
0001
1000
0001
1000
,
0100
0100
0010
0010
,
0001
1000
0001
1000
,
1000
0001
0001
0100
,
0100
0010
0010
0010
,
0010
0100
0100
0100
,
0001
0001
0010
0010
,
1000
1000
0100
0100
,
1000
1000
0010
0010
,
0001
0001
0100
1000
,
1001
0000
0000
0000
;

//---------------dance-single - TRICK----------------
#NOTES:
     dance-single:
     TRICK:
     Medium:
     5:
     0.293,0.497,0.410,0.092,0.000:
0000
0000
0000
0000
,
0000
0000
0000
0000
,
0000
0000
0000
0000
,
0000
0000
0000
0000
,
0000
0000
0000
0000
,
0000
0000
0000
0000
,
0000
0000
0000
0000
,
0000
0000
0000
0000
,
1000
0100
0100
0010
,
0001
0000
0000
0000
,
0001
0100
0100
0010
,
1000
0000
0000
0000
,
1000
0001
0001
0100
,
1000
0000
0000
0000
,
0001
1000
1000
0100
,
0002
0000
2000
3003
,
0001
1010
0100
1100
,
1000
1001
0001
0001
,
0010
1010
0100
1100
,
1000
1001
0001
0001
,
1000
0011
0001
0101
,
0010
0011
0001
1000
,
1000
0101
0001
0011
,
0100
0101
0001
1000
,
1000
0011
0100
1010
,
0100
0011
0001
0100
,
1000
0011
0100
1010
,
0100
0011
0001
0100
,
1000
1010
0100
0011
,
0100
1010
1000
0100
,
0001
1010
0100
0011
,
0100
1010
0001
0100
,
1001
1100
0101
1010
,
0210
0000
0000
0000
,
1300
0000
0100
0000
,
0001
0000
0000
0000
,
0000
1100
0101
1010
,
0210
0000
0000
0000
,
1300
0000
0100
0000
,
0001
0000
0010
0000
,
0000
0000
0101
1010
,
0210
0000
0000
0000
,
1300
0000
0100
0000
,
0001
0000
0010
0000
,
0100
0000
1000
0000
,
0100
0000
0001
0000
,
1000
0000
0001
0000
,
0100
0000
0010
0000
,
0010
0000
1000
0000
,
0001
0000
1000
0000
,
1002
0000
0000
0000
,
2003
0000
0000
0000
,
3200
0000
0000
0000
,
0302
0000
0000
0000
,
0023
0000
0000
0000
,
2030
0000
0000
0000
,
3002
0000
0000
0000
,
0203
0000
0000
0000
,
1300
0000
0001
0000
,
0100
0100
0100
0000
,
0010
0010
0010
0000
,
1000
0000
0001
0000
,
1000
0101
0010
0101
,
0100
0100
0110
1001
,
0001
1100
0010
1100
,
0100
0100
0110
1001
,
0001
1100
0010
1100
,
0100
0100
0110
1001
,
1000
0101
0010
0101
,
0100
0100
0110
1001
,
0001
0100
1000
0000
1001
0000
1000
0000
,
1000
0100
0001
0000
1001
0000
0001
0000
,
0001
0100
1000
0000
1001
0000
1000
0000
,
1000
0100
0001
0000
1001
0000
1000
0000
,
0001
0010
0100
0000
1000
0010
0100
0000
,
0001
1000
0001
0000
0100
0010
0100
0000
,
1000
0010
1000
0010
0100
0001
0100
0001
,
0010
0100
0010
0100
1000
0001
1000
0001
,
1001
0000
0000
0000
;

//---------------dance-single - HEAVY----------------
#NOTES:
     dance-single:
     HEAVY:
     Hard:
     8:
     0.455,0.607,0.311,0.283,0.113:
0000
0000
0000
0000
,
0000
0000
0000
0000
,
0000
0000
0000
0000
,
0000
0000
0000
0000
,
0000
0000
0000
0000
,
0000
0000
0000
0000
,
0000
0000
0000
0000
,
0000
0000
0000
0000
,
1000
0010
0100
1000
0100
0100
0010
0000
,
0001
1000
1001
1000
,
0001
0010
0100
0001
0100
0100
0010
0000
,
1000
0001
1001
0001
,
1000
0100
0010
0010
0001
0001
0100
0000
,
1000
0001
1001
1000
,
0001
0100
0100
0010
0010
1000
0100
0000
,
0002
0000
2000
3003
,
1001
1000
0100
0000
1001
0001
0100
0000
,
1000
1000
0100
0100
0010
1001
0001
0100
,
0010
0101
0010
1100
,
0001
0001
0100
0100
0010
1000
0100
0000
,
0011
0001
1000
0000
1010
1000
0001
0000
,
0001
0001
0100
0100
0010
1001
0100
0000
,
0010
1100
0010
0101
,
1000
1000
0100
0100
0010
0001
0100
0000
,
0001
0000
0101
0000
0010
0100
0010
1000
,
0100
0000
0101
0000
0001
0010
1000
0000
,
1000
0010
1000
0100
0010
0001
0100
0000
,
0100
1100
0100
0101
,
1000
0000
1010
0000
0201
0000
0310
0001
,
0100
0100
0010
0000
1010
1000
0200
0000
,
0301
0100
1000
0010
0001
1000
0010
0100
,
0001
0010
1100
0100
0010
0001
0101
0000
,
1001
0101
1001
1010
,
0220
0000
0000
0300
,
0130
0000
0000
0000
0001
0000
0000
0100
0000
0000
0010
0000
0000
1000
0000
0000
,
0001
0000
0000
0000
,
0000
1010
0011
1100
,
0220
0000
0000
0300
,
0130
0000
0000
0000
0001
0000
0000
0100
0000
0000
0010
0000
0000
1000
0000
0000
,
0001
0000
0000
0010
0000
0000
0100
0000
0000
1000
0000
0000
0001
0000
0000
0000
,
0000
0000
0110
1001
,
0220
0000
0000
0300
,
0130
0000
0000
0000
0001
0000
0000
0100
0000
0000
0010
0000
0000
1000
0000
0000
,
0001
0000
0000
0010
0000
0000
0100
0000
0000
1000
0000
0000
0001
0000
0000
0000
,
0100
0000
0000
0010
0000
0000
0100
0000
0000
1000
0000
0000
0100
0000
0001
0000
,
0100
0000
0000
0010
0000
0000
1000
0000
0000
0001
0000
0000
0010
0000
0000
0000
,
0001
0000
0000
0100
0000
0000
0010
0000
0000
1000
0000
0000
0001
0000
0000
0100
,
0000
0000
0000
0010
0000
0000
1000
0000
0000
0010
0000
0000
0100
0000
0001
0000
,
0010
0000
0000
1000
0000
0000
0001
0000
0000
0100
0000
0000
0010
0000
0000
1000
,
0000
0000
0000
0100
0000
0000
0001
0000
0000
1000
0000
0000
0001
0000
0000
0000
,
2001
0000
0200
3000
,
0002
0300
0020
0003
,
2000
0030
0002
3000
,
0200
0003
0020
0300
,
2000
0030
0200
3000
,
0002
0300
0020
0003
,
2000
0030
0002
3000
,
0200
0003
0020
0300
,
1030
0000
0000
0100
0000
0000
1000
0000
0001
0000
0000
0100
0000
0000
0010
0000
,
0100
0000
0000
0001
0000
0000
1000
0000
0100
0000
0000
0010
0000
0000
0001
0000
,
1000
0000
0001
0000
0000
1000
0000
0001
1000
0000
1000
0000
0000
0001
0000
1000
,
0001
0001
0000
0000
1001
0000
0000
0000
,
1000
0010
0100
0100
0001
0010
0100
0100
,
1000
0100
0001
0100
1000
0010
0001
0100
,
1000
0001
0100
0100
1000
0010
1000
0100
,
0100
0001
0010
0001
0100
0100
1000
0001
,
1000
0010
0100
0010
1000
0100
0100
0010
,
0100
0100
1000
0001
0100
0010
1000
0100
,
1000
0010
0001
1000
0010
0001
1000
0001
,
1000
0010
0100
0010
0001
0010
1000
0100
,
0001
0000
1000
0010
1000
0000
0210
0000
,
0301
0010
0001
0100
1000
0010
1000
0001
,
0200
0000
0320
0000
1030
0100
0010
0000
,
2001
0000
3100
0010
1020
0100
0130
0001
,
1002
1000
0203
0000
0320
1000
0230
0000
,
0301
0010
0200
0010
0310
1000
0200
0010
,
0301
0000
2000
0010
3100
0000
1200
0010
,
0301
1000
0120
1000
0031
1100
0001
0010
,
1001
0000
0000
0000
;

//---------------dance-single - ONI----------------
#NOTES:
     dance-single:
     ONI:
     Challenge:
     10:
     0.788,0.962,0.580,0.212,1.000:
0000
0000
0000
0000
,
0000
0000
0000
0000
,
0000
0000
0000
0000
,
0000
0000
0000
0000
,
0000
0000
0000
0000
,
0000
0000
0000
0000
,
0000
0000
0000
0000
,
0000
0000
0000
0000
,
0000
1000
0010
0000
0010
1000
0000
0100
0000
0100
0010
0000
0010
1000
0000
0001
,
1000
0001
1000
0010
1000
0100
1000
0001
,
1000
0001
0010
0000
0010
0001
0000
0100
0000
0100
0010
0000
0010
0001
0000
1000
,
0001
1000
0001
0010
0001
0100
0001
1000
,
0001
0100
0010
0000
0010
1000
0000
1000
0000
1000
0010
0000
0010
0001
0000
1000
,
0001
0010
0001
0100
1001
0010
1010
1000
,
0001
1000
0100
0000
0100
0010
0000
0010
0000
0001
0100
0000
0100
0001
0000
1000
,
0002
0000
0000
0000
0100
0000
0000
0000
2000
0000
0003
0002
3000
0000
2000
0000
,
3003
1000
0100
0000
0100
1000
0000
1001
0000
0001
0100
0000
0100
0001
0000
1001
,
0000
1000
0010
0000
0010
1000
0000
1001
0000
0001
0010
0000
0010
0001
0000
1001
,
0000
1000
0100
0000
0100
1000
0000
1001
0000
0001
0100
0000
0100
0001
0000
1001
,
0000
1000
0001
0000
0001
1000
0000
1001
0000
0001
1000
0000
1000
0001
0000
1001
,
0000
1000
0100
0000
0010
0001
0000
1001
0000
0001
0100
0000
0010
1000
0000
1001
,
0000
1000
0010
0000
0100
0001
0000
1001
0000
0001
0010
0000
0100
1000
0000
1001
,
0000
1000
0100
0000
0010
0001
0000
0011
0000
0001
0010
0000
0100
1000
0000
1100
,
0000
1000
0010
0000
0100
0001
0000
0101
0000
0001
0010
0000
0100
1000
0000
1100
,
0000
1000
0001
0000
0100
0010
0000
1010
0000
1000
0100
0000
0001
1000
0000
1001
,
0000
0001
0010
0000
0100
0010
0000
0011
0000
0001
0100
0000
1000
0001
0000
1001
,
0000
1000
0100
0000
1000
0010
0000
1001
0000
0001
0100
0000
0001
0010
0000
1001
,
0000
1000
0010
0000
1000
0100
0000
1001
0000
0001
0010
0000
0001
0100
0000
1001
,
0000
0001
0100
1000
0100
0001
0000
1001
0000
1000
0100
0001
0100
1000
0000
1001
,
0000
1000
0010
0100
0010
1000
0000
1001
0000
0001
0010
0100
0010
0001
0000
1001
,
0000
1000
0010
0001
0010
1000
0000
1001
0000
0001
0010
1000
0010
0001
0000
1001
,
0000
1000
0010
0100
0010
0100
0001
0100
0001
0100
0010
1000
0010
1000
0001
1000
,
2002
0000
0000
0000
,
0000
0000
0000
0000
,
0000
0000
0000
0000
,
3003
0000
0000
0000
,
0000
0000
1000
0001
2002
0000
0000
0000
0000
0000
0000
0000
0000
0000
0000
0000
,
0000
0000
0000
0000
,
0000
0000
0000
0000
,
0000
3003
0000
0000
,
0000
0000
0000
0001
0011
0100
1010
1001
,
0210
1000
0001
0010
,
1300
0100
0000
0100
0010
0000
0010
1000
0000
1000
0001
0000
0001
0100
0000
0100
,
0010
0000
0010
1000
0000
1000
0100
0000
0100
0010
0000
0010
0001
1000
0001
1000
,
0001
0100
0000
0100
0010
0000
0010
0100
0000
0100
0001
0000
1001
0000
0011
0000
,
0001
1000
0000
1000
0010
0000
0010
1000
0000
1000
0100
0000
0100
0010
0001
0010
,
0100
1000
0000
1000
0010
0000
0010
1000
0000
1000
0001
0000
0001
0010
0000
0010
,
0001
0000
1000
0010
0000
0010
1000
0000
0001
0010
0000
0010
0001
0000
1001
0000
,
1000
0001
0000
0001
0100
0000
0100
0010
0000
0010
1000
0000
1000
0100
0000
0100
,
0001
0000
0001
0010
0000
0010
1000
0000
1000
0001
0000
0001
1000
0001
1000
0001
,
1000
0100
0010
0100
1000
0100
0001
0100
1000
0100
0010
0100
1000
0100
0010
0001
,
0010
0100
1000
0100
1000
0100
1000
0100
0010
0001
0010
0001
0010
0001
0010
0001
,
1000
0100
1000
0100
1000
0100
1000
0100
1000
0001
1000
0001
1000
0001
1000
0001
,
0100
0010
0100
0010
0100
0010
0100
0010
0100
0001
0100
0001
0100
0001
0100
0001
,
0100
0010
1000
0010
1000
0010
1000
0010
1000
0001
0100
0001
0100
0001
0100
0001
,
0100
0010
1000
0010
1000
0010
1000
0010
1000
0001
1000
0001
1000
0001
1000
0001
,
1000
0100
0010
0100
1000
0001
1000
0010
0100
0010
0100
0010
0100
0001
0100
0010
,
0100
0001
0010
0100
0010
0001
0100
0010
0001
0010
0100
0001
0010
0100
1000
0001
,
1001
0000
0000
1100
0000
0000
1001
0000
0101
0000
0000
1010
0000
0000
1100
0000
,
1001
0000
0000
0011
0000
0000
1100
0000
1001
0000
0000
0110
0000
0000
0011
0000
,
1100
0000
1001
0000
0000
1001
0000
0001
1000
0000
1010
0000
0000
1001
0000
1000
,
0001
0000
0011
0000
0000
1001
0000
0000
2002
0000
0000
0000
0000
0000
3003
0000
,
1000
0100
1000
0000
0001
0100
0001
0000
1000
0010
1000
0000
0100
0000
1100
0000
,
1000
0000
0020
0000
0001
0000
0130
0000
1000
0100
1000
0000
0001
0100
0001
0000
,
1000
0010
0000
0010
1000
0000
1000
0100
0000
0100
1000
0000
1001
0000
0101
0000
,
0200
0000
0001
0000
1300
0100
0001
0100
1000
0000
0100
0000
1000
0000
1010
0000
,
1000
0010
0000
0010
1000
0000
1000
0001
0000
0001
0200
0000
0010
0000
1300
0100
,
0001
0000
0100
0010
0000
0010
0001
0000
0102
0000
0100
0000
0013
0000
1010
0000
,
1000
0010
0001
0010
1000
0100
0010
0100
1000
0100
0001
0100
2000
0000
0010
0000
,
3100
1000
0000
1000
0100
0000
0010
1000
0000
1000
0001
0000
0011
0000
0110
0000
,
1200
0000
0000
0000
1300
0000
1010
0000
2000
0000
0100
0000
3010
0001
0000
0100
,
0010
0000
0010
1000
0000
1000
0100
0000
1000
0000
1010
0000
2000
0001
0010
0000
,
3001
0000
0100
0000
1100
0000
1010
0000
1000
0001
0010
0001
0100
0000
0110
0000
,
1002
0000
1000
0000
0013
1000
0010
0000
0001
0100
0001
0000
1000
0010
1000
0000
,
0002
0100
0000
0103
0001
0000
0002
1000
0000
1003
0010
0000
1010
0000
1001
0000
,
0200
0010
0000
0310
1000
0100
0001
0100
1000
0001
1000
0000
1001
0000
1100
0000
,
0002
0010
0000
2003
0001
0000
3200
0010
0000
0300
1010
0000
2000
0100
0001
0000
,
3010
0100
0000
0010
2000
0000
0001
0100
3010
1000
0100
0010
0001
0100
0010
1000
,
2002
0000
0000
0000
,
0000
0000
0000
0000
,
3003
0000
0000
0000
;

//---------------dance-double - ----------------
#NOTES:
     dance-double:
     :
     Hard:
     8:
     0.448,0.587,0.205,0.113,0.156:
00000000
00000000
00000000
00000000
,
00000000
00000000
00000000
00000000
,
00000000
00000000
00000000
00000000
,
00000000
00000000
00000000
00000000
,
00000000
00000000
00000000
00000000
,
00000000
00000000
00000000
00000000
,
00000000
00000000
00000000
00000000
,
00000000
00000000
00000000
00000000
,
00001000
00000010
00000001
00001000
00000100
00000001
00000010
00000000
,
00001000
00011000
01000000
01100000
,
00010000
00100000
10000000
00010000
01000000
10000000
00100000
00000000
,
00001000
00011000
00000100
00000110
,
00000100
00001000
00000010
00000001
00001000
00000100
00000001
00000000
,
00000010
00000110
00010000
00011000
,
01000000
00010000
00100000
10000000
00010000
01000000
10000000
00000000
,
00100000
00000000
01100000
00000000
10000000
01000000
00100000
00000000
,
00001000
00010000
00001000
00000000
00000100
00000010
00000100
00000000
,
00001000
00000001
00000100
00000010
00001000
00000100
00000010
00000000
,
00010000
00001000
00010000
00000000
00100000
01000000
00100000
00000000
,
00010000
00100000
10000000
00010000
01000000
00100000
10000000
00000000
,
01000000
10000000
01000000
00000000
00010000
00100000
00010000
00000000
,
00001000
00010000
00001000
00100000
01000000
00010000
00001000
00000000
,
00000010
00001000
00000100
00000000
00000010
00000001
00000100
00000000
,
00000001
00000010
00000100
00001000
00010000
00001000
00000100
00000010
,
00010000
00001000
00100000
00000000
01000000
10000000
00100000
00000000
,
00010000
10000000
00010000
00100000
01000000
00001000
00010000
00000000
,
00001000
00010000
01000000
00000000
00100000
01000000
10000000
00000000
,
00100000
00010000
00001000
00010000
00000010
00000100
00000001
00000000
,
00001000
00000010
00000100
00000000
00010000
00001000
00000100
00000000
,
00001000
00010000
01000000
00010000
00001000
00100000
01000000
00000000
,
10000000
01000000
00100000
00000000
00100000
00001000
00010000
00000000
,
00010000
10000000
01000000
00100000
00010000
00001000
00000100
00000000
,
00001001
00000110
00001001
00000110
,
00022000
00000000
00000000
00000000
,
00033000
00000000
00000000
00000000
,
00000000
00000000
00000000
00000000
,
00000000
00001001
00000110
00001001
,
00022000
00000000
00000000
00000000
,
00033000
00000000
00000000
00000000
,
00000000
00000000
00000000
00000000
,
00000000
00000000
00001001
00000110
,
00022000
00000000
00030000
01003000
,
00010000
00000000
00000000
00000010
00000000
00000000
00000001
00000000
00000000
00000100
00000000
00000000
00001000
00000000
00000000
00000000
,
00010000
00000000
00000000
00000010
00000000
00000000
00000100
00000000
00000000
00001000
00000000
00000000
00000010
00000000
00000000
00000000
,
00010000
00000000
00000000
00001000
00000000
00000000
00100000
00000000
00000000
00010000
00000000
00000000
10000000
00000000
00000000
00000000
,
01000000
00000000
00000000
00100000
00000000
00000000
10000000
00000000
00000000
01000000
00000000
00000000
00010000
00000000
00000000
00000000
,
00001000
00000000
00000000
00000100
00000000
00000000
00000010
00000000
00000000
00000001
00000000
00000000
00000100
00000000
00000000
00000000
,
00001000
00000000
00000000
00010000
00000000
00000000
01000000
00000000
00000000
00100000
00000000
00000000
00010000
00000000
00000000
00000000
,
10000000
00000000
00000000
01000000
00000000
00000000
00100000
00000000
00000000
00001000
00000000
00000000
00010000
00000000
00000010
00000000
,
00000100
00000000
00000000
00000001
00000000
00000000
00000010
00000000
00000000
00000100
00000000
00000000
00010000
00000000
00001000
00000000
,
00000100
00000000
00000000
00000010
00000000
00000000
00000001
00000000
00000000
00000100
00000000
00000000
00001000
00000000
00000000
00010000
,
01000000
00000000
00000000
10000000
00000000
00000000
01000000
00000000
00000000
00100000
00000000
00000000
00001000
00000000
00000000
00010000
,
00000010
00000000
00000000
00000100
00000000
00000000
00000001
00000000
00000000
00000010
00000000
00000000
00000100
00000000
00000010
00000000
,
00010000
00000000
00000000
00000100
00000000
00000000
00001000
00000000
00000000
00010000
00000000
00000000
01000000
00000000
00000000
00100000
,
00010000
00000000
00000000
10000000
00000000
00000000
01000000
00000000
00000000
00100000
00000000
00000000
00001000
00000000
00000000
00010000
,
00000010
00000000
00000000
00000100
00000000
00000000
00000001
00000000
00000000
00000010
00000000
00000000
00000100
00000000
00010000
00000000
,
00000010
00000000
00000000
00000100
00000000
00000000
00001000
00000000
00000000
00010000
00000000
00000000
00100000
00000000
10000000
00000000
,
01000000
00000000
00000000
00010000
00000000
00000000
00001000
00000000
00000000
00000100
00000000
00000000
00000010
00000000
00010000
00000000
,
00001000
00000000
00000000
00001000
00000000
00000000
00001000
00000000
00000000
00001000
00000000
00000000
00001000
00000000
00010000
00000000
,
01000000
00000000
00000000
01000000
00000000
00000000
01000000
00000000
00000000
01000000
00000000
00000000
01000000
00000000
10000000
00000000
,
00100000
00000000
00000000
00100000
00000000
00000000
00100000
00000000
00010000
00000000
00000000
00010000
00000000
00000000
00010000
00000000
,
00100000
00000000
00000000
00001000
00000000
00000000
00100000
00000000
00000000
00001000
00000000
00000000
00010000
00000000
00000100
00000000
,
00010000
00000100
00000010
00000001
00000100
00000010
00001000
00000100
,
00000010
00000001
00000100
00000010
00010000
00001000
00000100
00000010
,
00010000
00001000
00100000
01000000
00010000
00001000
00010000
01000000
,
00100000
10000000
01000000
00100000
00010000
01000000
00001000
00010000
,
01000000
00100000
00001000
00010000
00000010
00000100
00001000
00010000
,
00000100
00000010
00000001
00000100
00000010
00010000
00001000
00000100
,
00000010
00010000
00001000
00000010
00000100
00001000
00000001
00000100
,
00000010
00010000
00001000
00100000
01000000
00010000
00001000
00100000
,
00201000
00000000
00010000
10000000
00310000
00100000
00001000
00010000
,
00000120
00000000
00001000
00000001
00001030
00000010
00001000
00000100
,
00012000
00000000
00010000
00000100
00013000
01001000
00100000
10000000
,
12000000
00000000
00010000
00100000
03010000
01000000
00100000
00010000
,
00002100
00000000
00010000
00100000
00013000
00001000
00000100
00000010
,
00000102
00000000
00001000
00000010
00001003
00000001
00000010
00001000
,
00000210
00000000
00000010
00000001
00000310
00000100
00000001
00000010
,
00001200
00000000
00010000
00001000
00010300
00000100
00010000
00100000
,
02200000
00000000
00000000
00000000
,
03300000
00000000
00000000
00000000
;

//---------------dance-double - ----------------
#NOTES:
     dance-double:
     :
     Medium:
     6:
     0.335,0.391,0.163,0.035,0.085:
00000000
00000000
00000000
00000000
,
00000000
00000000
00000000
00000000
,
00000000
00000000
00000000
00000000
,
00000000
00000000
00000000
00000000
,
00000000
00000000
00000000
00000000
,
00000000
00000000
00000000
00000000
,
00000000
00000000
00000000
00000000
,
00000000
00000000
00000000
00000000
,
00001000
00000000
00000001
00000000
00001000
00000100
00000001
00000000
,
00000010
00010000
00001000
00010000
,
00001000
00000000
01000000
00000000
00010000
00100000
10000000
00000000
,
01000000
00100000
00001000
00100000
,
00001000
00000000
01000000
00000000
00010000
00001000
00000100
00000000
,
00000010
00001000
00000001
00000100
,
00000010
00000000
00010000
00000000
00001000
00000100
00000010
00000000
,
00010000
00001000
01000000
00000000
00100000
00000000
01100000
00000000
,
10000000
00000000
01000000
00000000
00010000
00001000
00100000
00000000
,
01000000
00010000
00001000
00000000
00000100
00000000
00000110
00000000
,
00000001
00000000
00000100
00000000
00001000
00010000
01000000
00000000
,
00010000
00001000
00000010
00000000
00000100
00000000
00001010
00000000
,
00000100
00000000
00000001
00000000
00000010
00000100
00010000
00000000
,
00000010
00000100
00001000
00000000
00010000
00000000
01100000
00000000
,
10000000
00000000
01000000
00000000
00100000
01000000
00001000
00000000
,
00010000
00001000
00000100
00000000
00000010
00000000
00001100
00000000
,
00010000
00000000
00000010
00000000
00000001
00000100
00000010
00000000
,
00010000
00001000
00000100
00000000
00010000
00000000
00110000
00000000
,
00100000
00000000
01000000
00000000
10000000
00100000
00010000
00000000
,
00001000
00010000
00000010
00000000
00000100
00000000
00000101
00000000
,
00000010
00000000
00000001
00000000
00001000
00000100
00000010
00000000
,
00010000
00001000
00000100
00000000
00010000
00000000
00101000
00000000
,
00010000
00000000
00001000
00000000
00100000
01000000
10000000
00000000
,
00010000
00100000
01000000
00000000
00001000
00000000
00011000
00000000
,
00000010
00000110
00001000
00011000
,
02000000
00000000
00000000
00000000
,
03000000
00000000
00000000
00000000
,
00000000
00000000
00000000
00000000
,
00000000
00011000
00100000
01100000
,
02000000
00000000
00000000
00000000
,
03000000
00000000
00000000
00000000
,
00000000
00000000
00000000
00000000
,
00000000
00000000
00100000
01100000
,
02000000
00000000
00000000
00000000
,
03010000
00000000
00000000
00010000
00000000
00000000
00010000
00000000
00000000
00000000
00000000
00000000
00000100
00000000
00000000
00000000
,
00000010
00000000
00000000
00000010
00000000
00000000
00000010
00000000
00000000
00000000
00000000
00000000
00000001
00000000
00000000
00000000
,
00000100
00000000
00000000
00000100
00000000
00000000
00000100
00000000
00000000
00000000
00000000
00000000
00010000
00000000
00000000
00000000
,
00001000
00000000
00000000
00001000
00000000
00000000
00001000
00000000
00000000
00000000
00000000
00000000
01000000
00000000
00000000
00000000
,
00100000
00000000
00000000
00100000
00000000
00000000
00100000
00000000
00000000
00000000
00000000
00000000
10000000
00000000
00000000
00000000
,
00010000
00000000
00000000
00010000
00000000
00000000
00010000
00000000
00000000
00000000
00000000
00000000
01000000
00000000
00000000
00000000
,
00001000
00000000
00000000
00001000
00000000
00000000
00001000
00000000
00000000
00000000
00000000
00000000
00010000
00000000
00000000
00000000
,
00000010
00000000
00000000
00000010
00000000
00000000
00000010
00000000
00000000
00000000
00000000
00000000
00000100
00000000
00000000
00000000
,
00000001
00000000
00000000
00000010
00000000
00000000
00001000
00000000
00000000
00000000
00000000
00000000
00000100
00000000
00000000
00000000
,
00010000
00000000
00000000
00001000
00000000
00000000
01000000
00000000
00000000
00000000
00000000
00000000
00100000
00000000
00000000
00000000
,
00010000
00000000
00000000
10000000
00000000
00000000
01000000
00000000
00000000
00000000
00000000
00000000
00100000
00000000
00000000
00000000
,
00001000
00000000
00000000
00010000
00000000
00000000
00000100
00000000
00000000
00000000
00000000
00000000
00000010
00000000
00000000
00000000
,
00000001
00000000
00000000
00000100
00000000
00000000
00000010
00000000
00000000
00000000
00000000
00000000
00010000
00000000
00000000
00000000
,
00001000
00000000
00000000
00100000
00000000
00000000
01000000
00000000
00000000
00000000
00000000
00000000
10000000
00000000
00000000
00000000
,
01000000
00000000
00000000
00010000
00000000
00000000
00001000
00000000
00000000
00000000
00000000
00000000
00000010
00000000
00000000
00000000
,
00000001
00000000
00000000
00000100
00000000
00000000
00000010
00000000
00000000
00000000
00000000
00000000
00010000
00000000
00001000
00000000
,
00000010
00000000
00000000
00000010
00000000
00000000
00000010
00000000
00000000
00000010
00000000
00000000
00000010
00000000
00000000
00000000
,
00010000
00000000
00000000
00010000
00000000
00000000
00010000
00000000
00000000
00010000
00000000
00000000
00010000
00000000
00000000
00000000
,
00001000
00000000
00000000
00001000
00000000
00000000
00001000
00000000
00001000
00000000
00000000
00001000
00000000
00000000
00001000
00000000
,
00100000
00000000
00000000
00100000
00000000
00000000
00100000
00000000
00000000
00100000
00000000
00000000
00100000
00000000
00000000
00000000
,
10000000
00000000
01010000
00000000
10000000
00000000
00010000
00001000
,
00000100
00000000
00001010
00000000
00000100
00000000
00000001
00000010
,
00001000
00000000
00010100
00000000
00001000
00000000
00010000
00001000
,
00100000
00000000
11000000
00000000
00100000
00000000
01000000
10000000
,
00100000
00000000
01010000
00000000
00100000
00000000
01000000
00001000
,
00010000
00000000
00000110
00000000
00010000
00000000
00000010
00000100
,
00000001
00000000
00000110
00000000
00000001
00000000
00000010
00000100
,
00001000
00000000
00011000
00000000
00001000
00000000
00010000
01000000
,
00100000
10000000
01000000
00000000
00100000
00010000
00001000
00000000
,
00000100
00000010
00000001
00000000
00000100
00000010
00010000
00000000
,
00001000
01000000
00100000
00000000
00001000
00010000
01000000
00000000
,
10000000
01000000
00100000
00000000
00001000
00010000
01000000
00000000
,
00010000
00001000
00000010
00000000
00000100
00001000
00000010
00000000
,
00000001
00000010
00001000
00000000
00000010
00001000
00000100
00000000
,
00010000
00000100
00000010
00000000
00000100
00010000
00001000
00000000
,
00100000
01000000
00100000
00000000
00001000
00010000
00001000
00000000
,
02200000
00000000
00000000
00000000
,
03300000
00000000
00000000
00000000
;

//---------------dance-double - ----------------
#NOTES:
     dance-double:
     :
     Easy:
     4:
     0.259,0.391,0.212,0.035,0.000:
00000000
00000000
00000000
00000000
,
00000000
00000000
00000000
00000000
,
00000000
00000000
00000000
00000000
,
00000000
00000000
00000000
00000000
,
00000000
00000000
00000000
00000000
,
00000000
00000000
00000000
00000000
,
00000000
00000000
00000000
00000000
,
00000000
00000000
00000000
00000000
,
00000000
00010000
01000000
00001000
,
00000000
00010000
00100000
00001000
,
00000000
00010000
00000100
00001000
,
00000000
00010000
00000010
00001000
,
00000000
00000001
00000010
00000100
,
00000000
00010000
00100000
01000000
,
00000000
10000000
00100000
01000000
,
00000000
00001000
00000010
00000100
,
00000001
00000100
00000010
00000100
,
00001000
00010000
00001000
01000000
,
00010000
01000000
00100000
01000000
,
10000000
00010000
10000000
00100000
,
00001000
00010000
00001000
00000100
,
00000010
00000100
00000010
00000001
,
00001000
00000001
00001000
00000100
,
00010000
00000100
00010000
00001000
,
00100000
00001000
00100000
01000000
,
00100000
10000000
00010000
10000000
,
00010000
01000000
00010000
00001000
,
00000100
00000010
00010000
00000010
,
00000001
00000010
00001000
00000010
,
00000100
00000010
00010000
00001000
,
00100000
01000000
10000000
00100000
,
00001000
00100000
00010000
00001000
,
00000100
00001000
00010000
01000000
,
00200000
00000000
00000000
00000000
,
00300000
00000000
00000000
00000000
,
00000000
00000000
00000000
00000000
,
00000000
00000010
00010100
00101000
,
20000000
00000000
00000000
00000000
,
30000000
00000000
00000000
00000000
,
00000000
00000000
00000000
00000000
,
00000000
00000000
00010000
10000000
,
00200000
00000000
00000000
00000000
,
00310000
00000000
00000000
00000010
,
00000100
00000000
00000000
00000001
,
00001000
00000000
00000000
00000100
,
00010000
00000000
00000000
00001000
,
01000000
00000000
00000000
00100000
,
10000000
00000000
00000000
00010000
,
00100000
00000000
00000000
00001000
,
00010000
00000000
00000000
00000010
,
00000110
00000000
00000001
00000001
,
00001000
00000000
00000100
00000100
,
00010000
00000000
00001000
00001000
,
00100000
00000000
10000000
10000000
,
00010000
00000000
01000000
01000000
,
00001000
00000000
00010000
00010000
,
00000010
00000000
00000001
00000001
,
00001000
00000000
00000010
00000100
,
00000110
00010000
00001000
00010000
,
01100000
00001000
00010000
00001000
,
00000100
00010000
01000000
00001000
,
00000010
00010000
00100000
00001000
,
00010000
00000110
00010000
00000010
,
00000100
00000011
00000100
00000001
,
00000010
00010100
00000010
00000100
,
00010000
00101000
00010000
10000000
,
01000000
00110000
01000000
00001000
,
00010000
00001100
00010000
00000010
,
00000001
00001100
00000010
00000001
,
00001000
00010010
00000100
00001000
,
00101000
00010000
01000000
11000000
,
01100000
00001000
00010000
00010010
,
00000110
00000001
00000010
00001100
,
00010100
00001000
00100000
01100000
,
10010000
10000000
01000000
01100000
,
00101000
00010000
00000010
00000110
,
00000101
00000001
00000010
00000110
,
00010100
00001000
00100000
00110000
,
22000000
00000000
00000000
00000000
,
33000000
00000000
00000000
00000000
;

//---------------dance-double - ----------------
#NOTES:
     dance-double:
     :
     Challenge:
     12:
     0.740,0.962,0.170,0.064,1.000: // measure 1
00000000
00000000
00000000
00000000
,  // measure 2
00000000
00000000
00000000
00000000
,  // measure 3
00000000
00000000
00000000
00000000
,  // measure 4
00000000
00000000
00000000
00000000
,  // measure 5
00000000
00000000
00000000
00000000
,  // measure 6
00000000
00000000
00000000
00000000
,  // measure 7
00000000
00000000
00000000
00000000
,  // measure 8
00000000
00000000
00000000
00000000
,  // measure 9
00000000
00100000
01000000
00000000
00001000
00010000
00000000
00000010
00010000
00001000
00000100
00000000
00000001
00001000
00000000
00000100
,  // measure 10
00000000
00000010
00000001
00000000
00000000
00000100
00000010
00000000
00000000
00001000
00000100
00000000
00000000
00010000
00001000
00000000
,  // measure 11
00000000
00100000
00010000
00000000
10000000
01000000
00000000
00100000
00001000
00010000
00000010
00000000
00000100
00000001
00000000
00001000
,  // measure 12
00000000
00000100
00000010
00000000
00000000
00000001
00000100
00000000
00000000
00000010
00001000
00000000
00000000
00000100
00010000
00000000
,  // measure 13
00000000
00001000
00100000
00000000
00010000
10000000
00000000
01000000
00100000
00001000
00010000
00000000
00000010
00000100
00000000
00000001
,  // measure 14
00000000
00001000
00000100
00000000
00000000
00000010
00000001
00000000
00000000
00001000
00000100
00000000
00000000
00010000
00001000
00000000
,  // measure 15
00000000
00100000
00010000
00000000
10000000
01000000
00000000
10000000
00010000
00100000
01000000
00000000
00001000
00010000
00000000
00000010
,  // measure 16
00000000
00000100
00000010
00000000
00000000
00001000
00000001
00000000
00000000
00000010
00000100
00000000
00000000
00000001
00001000
00000000
,  // measure 17
00000000
00000100
00000010
00000000
00001000
00010000
00000000
01000000
00000000
00100000
01000000
00000000
10000000
00010000
00000000
01000000
,  // measure 18
00000000
00100000
00001000
00000000
00010000
00000010
00000000
00000100
00000000
00000001
00000010
00000000
00000100
00001000
00000000
00000001
,  // measure 19
00000000
00000100
00000010
00000000
00001000
00000100
00000000
00010000
00000000
00001000
00100000
00000000
00010000
00100000
00000000
00001000
,  // measure 20
00000000
00010000
01000000
00000000
00100000
00001000
00000000
00010000
00000000
01000000
10000000
00000000
00010000
00100000
00000000
01000000
,  // measure 21
00000000
00001000
00010000
00000000
00010000
00000010
00000000
00000100
00000000
00000010
00001000
00000000
00010000
00001000
00000000
00000100
,  // measure 22
00000000
00001000
00000010
00000000
00000001
00001000
00000000
00000010
00000000
00000100
00000001
00000000
00000010
00000100
00000000
00001000
,  // measure 23
00000000
00000010
00010000
00000000
00001000
00100000
00000000
00001000
00000000
00010000
01000000
00000000
00010000
00001000
00000000
00100000
,  // measure 24
00000000
01000000
00010000
00000000
00001000
00100000
00000000
01000000
00000000
10000000
00010000
00000000
00100000
01000000
00000000
00100000
,  // measure 25
00000000
00001000
00010000
00000000
00000010
00000100
00000000
00000001
00000000
00000010
00001000
00000000
00000001
00000100
00000000
00001000
,  // measure 26
00000000
00000001
00000100
00000000
00000010
00001000
00000000
00000100
00000000
00010000
00001000
00000000
00100000
00010000
00000000
10000000
,  // measure 27
00000000
01000000
00100000
00000000
00001000
00010000
00000000
00000010
00000000
00000100
00000010
00000000
00001000
00000010
00000000
00010000
,  // measure 28
00000000
00001000
00010000
00000000
00100000
01000000
00000000
00001000
00000000
00010000
01000000
00000000
00010000
00001000
00000000
00100000
,  // measure 29
00000000
01000000
10000000
00000000
01000000
00010000
00000000
00001000
00000000
00010000
00000010
00000000
00000100
00000010
00000000
00001000
,  // measure 30
00000000
00000001
00000010
00000000
00000100
00001000
00000000
00000001
00000000
00000100
00000010
00000000
00001000
00000100
00000000
00010000
,  // measure 31
00000000
00001000
00100000
00000000
00010000
10000000
00000000
01000000
00000000
00100000
01000000
00000000
00001000
00010000
00000000
00000010
,  // measure 32
00000000
00000100
00000001
00000000
00000100
00001000
00000000
00000010
00000000
00010000
00001000
00000000
00100000
00010000
00000000
20000000
,  // measure 33
00020000
00000000
00000000
00000000
,  // measure 34
00000000
00000000
00000000
00000000
,  // measure 35
00000000
00000000
00000000
00000000
,  // measure 36
30030000
00000000
00000000
00000000
,  // measure 37
00000000
00000000
00010000
00001000
00022000
00000000
00000000
00000000
00000000
00000000
00000000
00000000
00000000
00000000
00000000
00000000
,  // measure 38
00000000
00000000
00000000
00000000
,  // measure 39
00000000
00000000
00000000
00000000
,  // measure 40
00000000
00033000
00000000
00000000
,  // measure 41
00000000
00000000
00000000
00001000
00001010
00000010
00000110
00001001
,  // measure 42
00010200
00100000
00001000
01000000
,  // measure 43
00001300
00010000
00000000
00010000
01000000
00000000
01000000
10000000
00000000
10000000
00100000
00000000
00100000
00000000
00000000
00010000
,  // measure 44
00001000
00010000
00000000
00010000
00001000
00000000
00001000
00000100
00000000
00000100
00000010
00000000
00001000
00000001
00000000
00000001
,  // measure 45
00000010
00000100
00000000
00000100
00001000
00000000
00001000
00000010
00000000
00000010
00010000
00000000
00001000
00000000
01000000
00000000
,  // measure 46
00010000
01000000
00000000
01000000
00100000
00000000
00100000
00010000
00000000
00010000
10000000
00000000
00100000
00010000
00000000
00001000
,  // measure 47
00000010
00000100
00000000
00000100
00001000
00000000
00001000
00000001
00000000
00000001
00000010
00000000
00000100
00001000
00000000
00001000
,  // measure 48
00000010
00010000
00000000
00010000
01000000
00000000
01000000
00100000
00000000
00100000
10000000
00000000
00100000
00010000
10000000
01000000
,  // measure 49
00100000
00001000
00000000
00001000
00010000
00000000
00010000
00000100
00000000
00000100
00000010
00000000
00000100
00000001
00000000
00001000
,  // measure 50
00000010
00000100
00000000
00000100
00001000
00000000
00001000
00010000
00000000
00010000
00100000
00000000
00100000
01000000
00000000
10000000
,  // measure 51
00100000
01000000
00000000
01000000
00001000
00000000
00001000
00010000
00000000
00010000
00000010
00000000
00000100
00000000
00000000
00000001
,  // measure 52
00000010
00000100
00000000
00000100
00001000
00000000
00001000
00000010
00000000
00000010
00010000
00000000
00010000
00001000
00000000
00001000
,  // measure 53
00100000
01000000
00000000
01000000
10000000
00000000
10000000
00100000
00000000
00100000
00010000
00000000
00001000
00000000
00010000
00000000
,  // measure 54
00000100
00000010
00000000
00000010
00000100
00000000
00000100
00000001
00000000
00000001
00001000
00000000
00001000
00000010
00000000
00000010
,  // measure 55
00010000
00001000
00000000
00001000
00100000
00000000
00100000
00010000
00000000
00010000
10000000
00000000
10000000
01000000
00000000
01000000
,  // measure 56
00100000
00010000
00000000
00010000
00000010
00000000
00000010
00000100
00000000
00000100
00000001
00000000
00000001
00000000
00000100
00000000
,  // measure 57
00001000
00000010
00000000
00000010
00010000
00000000
00010000
00001000
00000000
00001000
00100000
00000000
00010000
00000000
10000000
00000000
,  // measure 58
01000000
00100000
00000000
00100000
00001000
00000000
00001000
00010000
00000000
00010000
00000010
00000000
00000010
00000100
00000001
00000000
,  // measure 59
00001001
00000000
00000000
00000110
00000000
00000000
00001100
00000000
00000000
00011000
00000000
00000000
00101000
00000000
00000000
01000000
,  // measure 60
00010000
00000000
00000000
11000000
00000000
00000000
01100000
00000000
00000000
00101000
00000000
00000000
00011000
00000000
00000000
00000010
,  // measure 61
00000100
00000000
00000000
00001001
00000000
00000000
00000110
00000000
00001010
00000000
00000000
00011000
00000000
00000000
00101000
00000000
,  // measure 62
00110000
00000000
00000000
11000000
00000000
00000000
01100000
00000000
00000000
20020000
00000000
00000000
00000000
00000000
30030000
00000000
,  // measure 63
10000000
01000000
00100000
00010000
10000000
01000000
00100000
00010000
00001000
00000100
00000010
00000001
00001000
00000100
00000010
00000001
,  // measure 64
00000001
00000100
00000010
00001000
00000001
00000100
00000010
00001000
00010000
01000000
00100000
10000000
00010000
01000000
00100000
10000000
,  // measure 65
01000000
10000000
00010000
00100000
01000000
10000000
00010000
00100000
00001000
00010000
00000010
00000100
00001000
00010000
00000010
00000100
,  // measure 66
00001000
00000010
00000100
00000001
00001000
00000010
00000100
00000001
00001000
00000100
00010000
00000010
00001000
00000100
00010000
00000010
,  // measure 67
00000100
00001000
00010000
00100000
00000100
00001000
00010000
00100000
00010000
00100000
10000000
01000000
00010000
00100000
10000000
01000000
,  // measure 68
00100000
00010000
00001000
00000100
00100000
00010000
00001000
00000100
00010000
00001000
00000010
00001000
00010000
00001000
00000010
00001000
,  // measure 69
00000100
00001000
00000010
00000001
00000100
00001000
00000010
00000001
00001000
00000010
00010000
00000100
00001000
00000010
00010000
00000100
,  // measure 70
00001000
00010000
01000000
00100000
00001000
00010000
01000000
00100000
00010000
10000000
00100000
01000000
00010000
10000000
00100000
01000000
,  // measure 71
10000000
00100000
01000000
00010000
10000000
00100000
01000000
00010000
00001000
00000100
00000010
00000001
00001000
00000100
00000010
00000001
,  // measure 72
00000100
00000010
00010000
00001000
00000100
00000010
00010000
00001000
00100000
00010000
10000000
01000000
00100000
00010000
10000000
01000000
,  // measure 73
00010000
01000000
00100000
00001000
00010000
01000000
00100000
00001000
00010000
00000100
00000010
00001000
00010000
00000100
00000010
00001000
,  // measure 74
00000100
00001000
00000001
00000010
00000100
00001000
00000001
00000010
00001000
00000010
00000100
00010000
00001000
00000010
00000100
00010000
,  // measure 75
00001000
00100000
00010000
01000000
00001000
00100000
00010000
01000000
00100000
00001000
00010000
01000000
00100000
00001000
00010000
01000000
,  // measure 76
00100000
00010000
00000100
00001000
00100000
00010000
00000100
00001000
00010000
00000100
00001000
00000010
00010000
00000100
00001000
00000010
,  // measure 77
00000100
00000001
00001000
00000010
00000100
00000001
00001000
00000010
00000100
00001000
00000010
00010000
00000100
00001000
00000010
00010000
,  // measure 78
00100000
00001000
00010000
01000000
00100000
00001000
00010000
01000000
00100000
10000000
00010000
01000000
00100000
10000000
00010000
01000000
,  // measure 79
02200000
00000000
00000000
00000000
,  // measure 80
00000000
00000000
00000000
00000000
,  // measure 81
03300000
00000000
00000000
00000000
;

//---------------dance-single - ----------------
#NOTES:
     dance-single:
     :
     Beginner:
     1:
     0.092,0.138,0.000,0.000,0.000:
0000
0000
0000
0000
,
0000
0000
0000
0000
,
0000
0000
0000
0000
,
0000
0000
0000
0000
,
0000
0000
0000
0000
,
0000
0000
0000
0000
,
0000
0000
0000
0000
,
0000
0000
0000
0000
,
0010
0000
0000
0000
,
0000
0000
0000
0000
,
0010
0000
0000
0000
,
0000
0000
0000
0000
,
0010
0000
0000
0000
,
0000
0000
0000
0000
,
0010
0000
0000
0000
,
0000
0000
0000
0000
,
0000
0010
0000
0010
,
0000
0010
0000
0010
,
0000
0010
0000
0010
,
0000
0010
0000
0001
,
0000
0100
0000
0100
,
0000
0100
0000
0100
,
0000
0100
0000
0100
,
0000
0100
0000
1000
,
0000
0010
0000
0010
,
0000
0010
0000
0010
,
0000
0010
0000
0010
,
0000
0010
0000
1000
,
0000
0100
0000
0100
,
0000
0100
0000
0100
,
0000
0100
0000
0100
,
0000
0100
0000
0001
,
0001
0000
0000
0000
,
0000
0000
0000
0000
,
0000
0000
0000
0000
,
0000
0000
0000
0000
,
0000
0000
0000
0000
,
0000
0000
0000
0000
,
0000
0000
0000
0000
,
0000
0000
0000
0000
,
0000
0000
0010
0010
,
0010
0000
0000
0000
,
0100
0000
0000
0000
,
0000
0000
0000
0000
,
0001
0000
0000
0000
,
0000
0000
0000
0000
,
1000
0000
0000
0000
,
0000
0000
0000
0000
,
0010
0000
0000
0000
,
0000
0000
0000
0000
,
1000
0000
0000
0000
,
0100
0000
0000
0000
,
0001
0000
0000
0000
,
0010
0000
0000
0000
,
0001
0000
0000
0000
,
0100
0000
0000
0000
,
1000
0000
0000
0000
,
0010
0000
0000
0000
,
0100
0000
0000
0000
,
0100
0000
0000
0000
,
0100
0000
0100
0000
,
0100
0000
0010
0000
,
0010
0000
0000
0001
,
0000
1000
0000
1000
,
0000
0001
0000
1000
,
0000
0001
0000
1000
,
0000
0100
0000
0100
,
0000
0010
0000
0010
,
0000
0100
0000
0010
,
0000
0001
0000
0010
,
0000
1000
0000
1000
,
0000
0001
0000
0100
,
0000
0001
0000
0001
,
0000
1000
0000
0100
,
0000
0010
0000
0010
,
0000
0001
0000
0001
,
0000
1000
0000
1000
,
0000
0100
0000
0010
,
0010
0000
0000
0000
;
