#TITLE:Planet Pulsation;
#SUBTITLE:(Untamed Shaenamique Remix);
#ARTIST:syatten / Shaenam Jugla;
#TITLETRANSLIT:;
#SUBTITLETRANSLIT:;
#ARTISTTRANSLIT:;
#CREDIT:;
#BANNER:Planet Pulsation (Untamed Shaenamique Remix).png;
#BACKGROUND:Planet Pulsation (Untamed Shaenamique Remix)-bg.png;
#LYRICSPATH:;
#CDTITLE:cdtitle.png;
#MUSIC:Planet Pulsation (Untamed Shaenamique Remix).mp3;
#OFFSET:-1.420;
#SAMPLESTART:166.200;
#SAMPLELENGTH:12.000;
#SELECTABLE:YES;
#BPMS:0.000=134.000,288.000=33.500,292.000=67.000,308.000=134.000;
#STOPS:;
#BGCHANGES:;

//---------------dance-single - BSAIC----------------
#NOTES:
     dance-single:
     BSAIC:
     Easy:
     4:
     0.251,0.228,0.006,0.009,0.006: // measure 1
0000
0000
0000
0000
,  // measure 2
0000
0000
0000
0000
,  // measure 3
0000
0000
0000
0000
,  // measure 4
0000
0000
0000
0000
,  // measure 5
0000
0000
0000
0000
,  // measure 6
0000
0000
0000
0000
,  // measure 7
0000
0000
0000
0000
,  // measure 8
0000
0000
0000
0000
,  // measure 9
1000
1000
1000
1000
,  // measure 10
0001
0001
0001
0001
,  // measure 11
1000
1000
1000
1000
,  // measure 12
0001
0001
0001
0001
,  // measure 13
1000
1000
1000
1000
,  // measure 14
0001
0001
0001
0001
,  // measure 15
1000
1000
1000
1000
,  // measure 16
0001
0001
0001
0001
,  // measure 17
1000
0100
1000
0100
,  // measure 18
1000
0100
1000
0100
,  // measure 19
1000
0100
1000
0100
,  // measure 20
1000
0100
1000
0100
,  // measure 21
0010
0001
0010
0001
,  // measure 22
0010
0001
0010
0001
,  // measure 23
0010
0001
0010
0001
,  // measure 24
0010
0001
0010
0001
,  // measure 25
1000
0001
1000
0001
,  // measure 26
1000
0001
1000
0001
,  // measure 27
1000
0001
1000
0001
,  // measure 28
1000
0001
1000
0001
,  // measure 29
0100
0010
0100
0010
,  // measure 30
0100
0010
0100
0010
,  // measure 31
0100
0010
0100
0010
,  // measure 32
0100
0010
0100
0010
,  // measure 33
1000
1000
1000
1000
,  // measure 34
0100
0100
0100
0100
,  // measure 35
0010
0010
0010
0010
,  // measure 36
0001
0001
0001
0001
,  // measure 37
1000
1000
1000
1000
,  // measure 38
0100
0100
0100
0100
,  // measure 39
0010
0010
0010
0010
,  // measure 40
0001
0001
0001
0001
,  // measure 41
1000
1000
1000
1000
,  // measure 42
0010
0010
0010
0010
,  // measure 43
0100
0100
0100
0100
,  // measure 44
0001
0001
0001
0001
,  // measure 45
1000
1000
1000
1000
,  // measure 46
0010
0010
0010
0010
,  // measure 47
0100
0100
0100
0100
,  // measure 48
0001
0001
0001
0001
,  // measure 49
1000
1000
1000
1000
,  // measure 50
0100
0100
0100
0100
,  // measure 51
0001
0001
0001
0001
,  // measure 52
0010
0010
0010
0010
,  // measure 53
1000
1000
1000
1000
,  // measure 54
0100
0100
0100
0100
,  // measure 55
0001
0001
0001
0001
,  // measure 56
0010
0010
0010
0010
,  // measure 57
1000
1000
1000
1000
,  // measure 58
0010
0010
0010
0010
,  // measure 59
0001
0001
0001
0001
,  // measure 60
0100
0100
0100
0100
,  // measure 61
1000
1000
1000
1000
,  // measure 62
0010
0010
0010
0010
,  // measure 63
0001
0001
0001
0001
,  // measure 64
0100
0100
0100
0100
,  // measure 65
1000
1000
1000
1000
,  // measure 66
1000
1000
1000
1000
,  // measure 67
1000
1000
1000
1000
,  // measure 68
1000
1000
1000
1000
,  // measure 69
0001
0001
0001
0001
,  // measure 70
0001
0001
0001
0001
,  // measure 71
0001
0001
0001
0001
,  // measure 72
0001
0001
0001
0001
,  // measure 73
1000
0100
0000
0001
0000
0010
0000
0000
,  // measure 74
1000
0000
0000
1000
0000
0000
0010
0000
0000
0100
0000
0000
0000
0000
0000
0000
,  // measure 75
0001
0000
0000
0100
0000
0000
1000
0000
0000
0000
0000
0000
0000
0000
0000
0000
,  // measure 76
0010
0000
0000
0000
0000
0000
0000
0010
0000
0000
0000
0000
1000
0000
0001
0000
,  // measure 77
0100
0000
0010
0100
,  // measure 78
1001
0100
0000
0100
,  // measure 79
0000
0100
0000
0100
,  // measure 80
0000
0010
0000
0010
,  // measure 81
0000
0010
0000
0010
,  // measure 82
0000
1000
0000
1000
,  // measure 83
0000
0001
0000
0001
,  // measure 84
0000
0010
0000
0010
,  // measure 85
0200
0000
0000
0300
,  // measure 86
0001
0001
0100
0100
,  // measure 87
0010
0010
1000
1000
,  // measure 88
0001
0001
0100
0100
,  // measure 89
0010
0010
1000
1000
,  // measure 90
0001
0001
0010
0010
,  // measure 91
0100
0100
1000
1000
,  // measure 92
0001
0001
0010
0010
,  // measure 93
0100
0100
1000
1000
,  // measure 94
0001
0001
1000
1000
,  // measure 95
0001
0001
1000
1000
,  // measure 96
0010
0010
0100
0100
,  // measure 97
0010
0010
0100
0100
,  // measure 98
0001
0001
1000
1000
,  // measure 99
0001
0001
1000
1000
,  // measure 100
0001
0001
0100
0100
,  // measure 101
1000
1000
0010
0010
,  // measure 102
0001
0100
0010
1000
,  // measure 103
0001
0100
0010
1000
,  // measure 104
0001
0100
0010
1000
,  // measure 105
0001
0100
0010
1000
,  // measure 106
0001
0010
0100
1000
,  // measure 107
0001
0010
0100
1000
,  // measure 108
0001
0010
0100
1000
,  // measure 109
0001
0010
0100
1000
,  // measure 110
0001
1000
0001
1000
,  // measure 111
0001
1000
0001
1000
,  // measure 112
0010
0100
0010
0100
,  // measure 113
0010
0100
0010
0100
,  // measure 114
0001
1000
0001
1000
,  // measure 115
0001
1000
0001
1000
,  // measure 116
0001
0100
1000
0010
,  // measure 117
0001
0100
1000
0010
,  // measure 118
0001
0001
0001
0001
,  // measure 119
1000
1000
1000
1000
,  // measure 120
0001
0001
0001
0001
,  // measure 121
1000
1000
1000
1000
,  // measure 122
0001
0001
0001
0001
,  // measure 123
1000
1000
1000
1000
,  // measure 124
0001
0001
0001
0001
,  // measure 125
1000
1000
1000
1000
,  // measure 126
0001
0001
0001
0001
,  // measure 127
0100
0100
0100
0100
,  // measure 128
1000
1000
1000
1000
,  // measure 129
0010
0010
0010
0010
,  // measure 130
0001
0001
0001
0001
,  // measure 131
0100
0100
0100
0100
,  // measure 132
1000
1000
1000
1000
,  // measure 133
0010
0010
0010
0010
,  // measure 134
0001
0001
0001
0001
,  // measure 135
0001
0001
0001
0001
,  // measure 136
0001
0001
0001
0001
,  // measure 137
0001
0001
0001
0001
,  // measure 138
1000
1000
1000
1000
,  // measure 139
1000
1000
1000
1000
,  // measure 140
1000
1000
1000
1000
,  // measure 141
1000
1000
1000
1000
,  // measure 142
0010
0001
0010
0001
,  // measure 143
0010
0001
0010
0001
,  // measure 144
0010
0001
0010
0001
,  // measure 145
0010
0001
0010
0001
,  // measure 146
1000
0100
1000
0100
,  // measure 147
1000
0100
1000
0100
,  // measure 148
1000
0100
1000
0100
,  // measure 149
1000
0100
1000
0100
,  // measure 150
1000
0000
1000
0000
,  // measure 151
1000
0000
1000
0000
,  // measure 152
1000
0000
1000
0000
,  // measure 153
1000
0000
1000
0000
,  // measure 154
0001
0000
0001
0000
,  // measure 155
0001
0000
0001
0000
,  // measure 156
0001
0000
0001
0000
,  // measure 157
0001
0000
0001
0000
,  // measure 158
1000
0000
0000
0000
,  // measure 159
1000
0000
0000
0000
,  // measure 160
1000
0000
0000
0000
,  // measure 161
1000
0000
0000
0000
,  // measure 162
0001
0000
0000
0000
,  // measure 163
0001
0000
0000
0000
,  // measure 164
0001
0000
0000
0000
,  // measure 165
0001
0000
0000
0000
,  // measure 166
2002
0000
0000
0000
,  // measure 167
3003
0000
0000
0000
;

//---------------dance-single - TRICK----------------
#NOTES:
     dance-single:
     TRICK:
     Medium:
     8:
     0.459,0.431,0.021,0.015,0.006:
0000
0000
0000
0000
,
0000
0000
0000
0000
,
0000
0000
0000
0000
,
0000
0000
0000
0000
,
0000
0000
0000
0000
,
0000
0000
0000
0000
,
0000
0000
0000
0000
,
0000
0000
0000
0000
,
1000
0100
1000
0100
1000
0100
1000
0100
,
1000
0100
1000
0100
1000
0100
1000
0100
,
1000
0100
1000
0100
1000
0100
1000
0100
,
1000
0100
1000
0100
1000
0100
1000
0000
,
0001
0100
0001
0100
0001
0100
0001
0100
,
0001
0100
0001
0100
0001
0100
0001
0100
,
0001
0100
0001
0100
0001
0100
0001
0100
,
0001
0100
0001
0100
0001
0100
0001
0000
,
1000
0100
0010
0100
1000
0100
0010
0100
,
1000
0100
0010
0100
1000
0100
0010
0100
,
1000
0100
0010
0100
1000
0100
0010
0100
,
1000
0100
0010
0100
1000
0100
0010
0000
,
0001
0100
0010
0100
0001
0100
0010
0100
,
0001
0100
0010
0100
0001
0100
0010
0100
,
0001
0100
0010
0100
0001
0100
0010
0100
,
0001
0100
0010
0100
0001
0100
0010
0000
,
1000
0100
0001
0100
1000
0100
0001
0100
,
1000
0100
0001
0100
1000
0100
0001
0100
,
1000
0100
0001
0100
1000
0100
0001
0100
,
1000
0100
0001
0100
1000
0100
0001
0000
,
0100
1000
0010
1000
0100
1000
0010
1000
,
0100
1000
0010
1000
0100
1000
0010
1000
,
0100
1000
0010
1000
0100
1000
0010
1000
,
0100
1000
0010
1000
0100
1000
0010
0000
,
1000
0100
0010
0100
1000
0010
0100
0010
,
1000
0100
0010
0100
1000
0010
0100
0010
,
1000
0100
0010
0100
1000
0010
0100
0010
,
1000
0100
0010
0100
1000
0010
0100
0000
,
0001
0100
0010
0100
0001
0010
0100
0010
,
0001
0100
0010
0100
0001
0010
0100
0010
,
0001
0100
0010
0100
0001
0010
0100
0010
,
0001
0100
0010
0100
0001
0010
0100
0000
,
0001
0100
1000
0100
0001
0010
1000
0010
,
0001
0100
1000
0100
0001
0010
1000
0010
,
0001
0100
1000
0100
0001
0010
1000
0010
,
0001
0100
1000
0100
0001
0010
1000
0000
,
0010
0001
0100
0001
0010
1000
0100
1000
,
0010
0001
0100
0001
0010
1000
0100
1000
,
0010
0001
0100
0001
0010
1000
0100
1000
,
0010
0001
0100
0001
0010
1000
0100
0000
,
0001
0100
0010
0100
1000
0100
0010
0100
,
0001
0100
0010
0100
1000
0100
0010
0100
,
0001
0100
0010
0100
1000
0100
0010
0100
,
0001
0100
0010
0100
1000
0100
0010
0000
,
1000
0100
0010
0100
0001
0100
0010
0100
,
1000
0100
0010
0100
0001
0100
0010
0100
,
1000
0100
0010
0100
0001
0100
0010
0100
,
1000
0100
0010
0100
0001
0100
0010
0000
,
0001
0100
1000
0100
0001
0100
0010
0100
,
0001
0100
1000
0100
0001
0100
0010
0100
,
0001
0100
1000
0100
0001
0100
0010
0100
,
0001
0100
1000
0100
0001
0100
0010
0000
,
1000
0100
0001
0100
1000
0100
0010
0100
,
1000
0100
0001
0100
1000
0100
0010
0100
,
1000
0100
0001
0100
1000
0100
0010
0100
,
1000
0100
0001
0100
1000
0100
0010
0000
,
1000
0001
1000
0001
1000
0001
1000
0001
,
1000
0001
1000
0001
1000
0001
1000
0001
,
1000
0001
1000
0001
1000
0001
1000
0001
,
1000
0001
1000
0001
1000
0001
1000
0000
,
0001
1000
0001
1000
0001
1000
0001
1000
,
0001
1000
0001
1000
0001
1000
0001
1000
,
0001
1000
0001
1000
0001
1000
0001
1000
,
0001
1000
0000
0000
0000
0000
0000
0000
,
1001
0200
0000
0302
0003
0010
0000
0000
,
1000
0000
0000
1001
0000
0000
0010
0000
0000
0100
0000
0000
0000
0000
0000
0000
,
1001
0000
0000
0100
0000
0000
1000
0000
0000
0000
0000
0000
0000
0000
0000
0000
,
0010
0000
0000
0000
0000
0000
0000
0011
0000
0000
0000
0000
1010
0000
0100
0000
,
0001
0000
0010
0100
,
1001
0000
0100
1000
0000
1000
0100
0000
,
0100
0000
0100
0010
0000
0010
0100
0000
,
0010
0000
0010
0001
0000
0001
0010
0000
,
0010
0000
0010
0100
0000
0100
0010
0000
,
0010
0000
1000
0100
0000
0100
1000
0000
,
1000
0000
0001
0010
0000
0010
0001
0000
,
0010
0000
0010
0100
0000
0100
0010
0000
,
0200
0000
0000
0300
,
0001
0100
0001
0000
0001
1000
0001
0000
,
0001
0100
0001
0000
0001
1000
0001
0000
,
0001
0100
0001
0000
0001
1000
0001
0000
,
0001
0100
0001
0000
0001
1000
0001
0000
,
1000
0100
1000
0000
1000
0001
1000
0000
,
1000
0100
1000
0000
1000
0001
1000
0000
,
1000
0100
1000
0000
1000
0001
1000
0000
,
1000
0100
1000
0000
1000
0001
1000
0000
,
0010
1000
0010
0000
0010
0001
0010
0000
,
0010
1000
0010
0000
0010
0001
0010
0000
,
0010
1000
0010
0000
0010
0001
0010
0000
,
0010
1000
0010
0000
0010
0001
0010
0000
,
0010
0100
0010
0000
0010
0100
0010
0000
,
0010
0100
0010
0000
0010
0100
0010
0000
,
0010
0100
0010
1000
0010
0100
0010
0001
,
0010
0100
0010
1000
0010
0100
0010
0000
,
0001
0010
0001
0000
0001
0100
0001
0000
,
0001
0010
0001
0000
0001
0100
0001
0000
,
0001
0010
0001
0000
0001
0100
0001
0000
,
0001
0010
0001
0000
0001
0100
0001
0000
,
1000
0010
1000
0000
1000
0100
1000
0000
,
1000
0010
1000
0000
1000
0100
1000
0000
,
1000
0010
1000
0000
1000
0100
1000
0000
,
1000
0010
1000
0000
1000
0100
1000
0000
,
0010
0100
0010
0000
0100
0010
0100
0000
,
0010
0100
0010
0000
0100
0010
0100
0000
,
0010
0100
0010
0000
0100
0010
0100
0000
,
0010
0100
0010
0000
0100
0010
0100
0000
,
0010
1000
0010
0000
0010
0001
0010
0000
,
0010
1000
0010
0000
0010
0001
0010
0000
,
0010
1000
0010
0001
0010
1000
0010
0001
,
0010
0010
0100
0010
0010
0100
0010
0000
,
0001
0100
0010
0100
0001
0100
0010
0100
,
0001
0100
0010
0100
0001
0100
0010
0100
,
0001
0100
0010
0100
0001
0100
0010
0100
,
0001
0100
0010
0100
0001
0100
0010
0000
,
1000
0100
0010
0100
1000
0100
0010
0100
,
1000
0100
0010
0100
1000
0100
0010
0100
,
1000
0100
0010
0100
1000
0100
0010
0100
,
1000
0100
0010
0100
1000
0100
0010
0000
,
0001
0010
0001
1000
0001
0010
0001
0100
,
0001
0010
0001
1000
0001
0010
0001
0100
,
0001
0010
0001
1000
0001
0010
0001
0100
,
0001
0010
0001
1000
0001
0010
0001
0000
,
1000
0010
1000
0001
1000
0010
1000
0100
,
1000
0010
1000
0001
1000
0010
1000
0100
,
1000
0010
1000
0001
1000
0010
1000
0100
,
1000
0010
1000
0001
1000
0010
1000
0000
,
0010
1000
0001
0100
0010
1000
0001
0100
,
0010
1000
0001
0100
0010
1000
0001
0100
,
0010
1000
0001
0100
0010
1000
0001
0100
,
0010
1000
0001
0100
0010
1000
0001
0000
,
0010
0001
1000
0100
0010
0001
1000
0100
,
0010
0001
1000
0100
0010
0001
1000
0100
,
0010
0001
1000
0100
0010
0001
1000
0100
,
0010
0001
1000
0100
0010
0001
1000
0000
,
0001
0100
0001
0100
0001
0100
0001
0100
,
0001
0100
0001
0100
0001
0100
0001
0100
,
0001
0100
0001
0100
0001
0100
0001
0100
,
0001
0100
0001
0100
0001
0100
0001
0000
,
1000
0100
1000
0100
1000
0100
1000
0100
,
1000
0100
1000
0100
1000
0100
1000
0100
,
1000
0100
1000
0100
1000
0100
1000
0100
,
1000
0100
1000
0100
1000
0100
1000
0000
,
0001
0001
0001
0001
,
0001
0001
0001
0001
,
0001
0001
0001
0001
,
0001
0001
0001
0001
,
1000
1000
1000
1000
,
1000
1000
1000
1000
,
1000
1000
1000
1000
,
1000
1000
1000
1000
,
0001
0000
0001
0000
,
0001
0000
0001
0000
,
0001
0000
0001
0000
,
0001
0000
0001
0000
,
1000
0000
1000
0000
,
1000
0000
1000
0000
,
1000
0000
1000
0000
,
1000
0000
1000
0000
,
2002
0000
0000
0000
,
3003
0000
0000
0000
;

//---------------dance-single - HEAVY----------------
#NOTES:
     dance-single:
     HEAVY:
     Hard:
     9:
     0.498,0.456,0.015,0.006,0.058:
0000
0000
0000
0000
,
0000
0000
0000
0000
,
0000
0000
0000
0000
,
0000
0000
0000
0000
,
0000
0000
0000
0000
,
0000
0000
0000
0000
,
0000
0000
0000
0000
,
0000
0000
0000
0000
,
1000
1000
1000
1000
,
1000
1000
1000
1000
,
1000
1000
1000
1000
,
1000
1000
1000
1000
,
1000
1000
1000
1000
,
1000
1000
1000
1000
,
1000
1000
1000
1000
,
1000
1000
1000
1000
,
1000
0010
0100
1000
0001
0100
0010
1000
,
0001
0100
1000
0010
0100
0001
1000
0100
,
1000
0010
0100
0010
0001
0100
1000
0010
,
0100
0001
0010
1000
0100
0010
1000
0010
,
0001
0100
0010
1000
0100
0001
0100
1000
,
0010
0100
0001
0100
0010
0100
1000
0100
,
0010
0100
1000
0010
1000
0100
0001
0010
,
0100
0010
1000
0100
0001
0010
0100
0001
,
0100
1000
0010
0100
0010
1000
0100
0001
,
0010
0100
1000
0010
1000
0100
0001
0010
,
0100
1000
0001
0100
0010
1000
0100
0001
,
0010
0100
0010
1000
0001
1000
0100
0010
,
0100
0001
0010
0100
1000
0010
0100
0001
,
0100
0010
0100
1000
0010
0100
1000
0001
,
0010
1000
0100
0001
0010
0100
0010
1000
,
0100
0010
1000
0001
0010
0100
0001
0100
,
1000
0010
0100
1000
0010
0001
0100
0010
,
1000
0100
0001
0010
0100
0010
1000
0100
,
0001
0010
0100
0010
1000
0100
1000
0010
,
0100
1000
0010
0001
0100
0010
1000
0010
,
0100
1000
0001
0010
0100
0010
1000
0100
,
0001
0100
0010
1000
0100
1000
0010
0001
,
0100
1000
0010
0100
0001
0100
0010
1000
,
0100
0001
0010
0100
0010
1000
0010
0001
,
0100
1000
0010
0100
1000
0010
0100
1000
,
0001
0100
0010
1000
0100
0001
0010
0100
,
1000
0010
0100
0010
0001
0100
0010
1000
,
0100
0010
0001
0100
0010
1000
0100
1000
,
0010
0001
0100
0010
1000
0100
1000
0001
,
0100
0010
1000
0100
0001
0010
0100
0010
,
1000
0001
0100
0010
0100
1000
0010
0100
,
1000
0001
0100
0010
0100
0001
0010
0100
,
1000
0010
0100
1000
0001
0010
0100
0001
,
0010
0100
1000
0010
0100
0001
0010
1000
,
0010
0001
0100
0010
1000
0100
1000
0001
,
0100
0010
1000
0100
0010
0001
0100
0010
,
1000
0100
0010
0100
0001
0010
0100
1000
,
0100
0001
0010
0100
0010
1000
0100
0010
,
1000
0100
0001
0010
0100
1000
0010
0100
,
0001
0010
0100
0001
1000
0010
0001
0100
,
0010
1000
0100
0001
0010
0100
0010
1000
,
0001
0100
1000
0010
0100
0001
0100
0010
,
1000
0010
0100
0001
0100
1000
0010
0100
,
1000
0100
0001
0010
1000
0010
0100
1000
,
0100
0001
1000
0010
0100
0001
0100
1000
,
0010
1000
0010
0100
1000
0100
0001
0010
,
0100
0010
1000
0010
0100
1000
0100
0001
,
0010
1000
0010
0001
1000
0010
0100
1000
,
0100
0001
0100
1000
0010
0100
0001
0010
,
0100
1000
0010
0100
0010
1000
0100
0001
,
0010
0100
1000
0010
0100
1000
0010
0100
,
0001
0010
0100
1000
0010
1000
0100
1000
,
0010
0001
0100
1000
0010
0100
1000
0100
,
0001
0010
0100
0010
0001
0100
1000
0010
,
0100
0010
1000
0100
0001
0010
0100
1000
,
0010
0100
0000
0000
0000
0000
0000
0000
,
1001
0000
0000
0000
0000
0000
0000
0000
0000
0000
0000
0000
0000
0000
0000
0000
0000
0000
0000
0000
0000
0000
0000
0000
0100
0000
0000
0000
0000
0000
0000
0000
0000
0000
0000
0000
0000
0000
0000
0000
0000
0000
0000
0000
0000
0000
0000
0000
0000
0000
0000
0000
0000
0000
0000
0000
0000
0000
0000
0000
0000
0000
0000
0000
0000
0000
0000
0000
0000
0000
0000
0000
0001
0000
0000
0000
0000
0000
0000
0000
0001
0000
0000
0000
0000
0000
0000
0000
0001
0000
0000
0000
0000
0000
0000
0000
0001
0000
0000
0000
0000
0000
0000
0000
0000
0000
0000
0000
0000
0000
0000
0000
0000
0000
0000
0000
0000
0000
0000
0000
0010
0000
0000
0000
0000
0000
0010
0000
0000
0000
0000
0000
0000
0000
0000
0000
0000
0000
0000
0000
0000
0000
0000
0000
0000
0000
0000
0000
0000
0000
0000
0000
0000
0000
0000
0000
0000
0000
0000
0000
0000
0000
0000
0000
0000
0000
0000
0000
0000
0000
0000
0000
0000
0000
0000
0000
0000
0000
0000
0000
0000
0000
0000
0000
0000
0000
0000
0000
0000
0000
0000
0000
,
1000
0000
0000
1000
0000
0000
0100
0000
0000
0100
0000
0000
0010
0000
0000
0010
0000
0000
0001
0000
0000
0001
0000
0000
0000
0000
0000
0000
0000
0000
0000
0000
,
0001
0000
0000
0001
0000
0000
0100
0000
0000
0100
0000
0000
1000
0000
0000
1000
0000
0000
0000
0000
0000
0000
0000
0000
0000
0000
0000
0000
0000
0000
0000
0000
,
0010
0000
0000
0010
0000
0000
0000
0000
0000
0000
0000
0000
0000
0000
0001
0000
0000
0001
0000
0000
0000
0000
0000
0000
0010
0000
0000
1000
0100
0000
0000
0010
,
0001
0000
0000
0001
0000
0000
0000
0000
0000
0000
0000
0000
0000
0000
0000
0000
0010
0000
0000
0010
0000
0000
0000
0000
0100
0000
0000
0100
0000
0000
0110
0000
,
1001
0000
0000
1000
0000
0000
0100
0000
0000
0010
0000
0000
0100
0000
0001
0000
,
1000
0000
0000
0010
0000
0000
0100
0000
0000
0010
0000
0000
0001
0000
0100
0000
,
1000
0000
0000
0100
0000
0000
0010
0000
0000
0001
0000
0000
0100
0000
1000
0000
,
0100
0000
0000
0001
0000
0000
0010
0000
0000
0100
0000
0000
1000
0000
0010
0000
,
0100
0000
0000
1000
0000
0000
0100
0000
0000
0001
0000
0000
0010
0000
0100
0000
,
0001
0000
0000
0010
0000
0000
1000
0000
0000
0100
0000
0000
0010
0000
1000
0000
,
0100
0000
0000
0010
0000
0000
0001
0000
0000
0100
0000
0000
0010
0000
1000
0000
,
0100
0000
0000
0010
0000
0000
0001
0000
0000
0100
0000
0000
1000
0000
0010
0000
,
0001
0010
1000
0010
0100
1000
0100
0001
,
0010
0100
0001
0100
1000
0010
1000
0100
,
0001
0010
0100
0010
1000
0100
0001
0010
,
0100
1000
0010
0100
1000
0010
0100
0001
,
0010
1000
0010
0100
1000
0010
0001
0100
,
1000
0010
0100
1000
0100
0001
0010
0100
,
0010
1000
0100
0001
0010
0100
0010
1000
,
0010
0100
1000
0100
0001
0010
0100
0010
,
0001
0100
1000
0010
0100
1000
0100
0001
,
0010
1000
0100
0010
0001
0100
0010
1000
,
0100
0001
0010
0100
1000
0010
0100
1000
,
0100
0001
0010
0100
1000
0010
0001
0100
,
1000
0010
0100
0001
0100
1000
0010
0100
,
1000
0100
0001
0010
0100
0010
1000
0100
,
0001
0010
0100
0010
1000
0010
0100
0001
,
0010
1000
0010
0100
1000
0100
0001
0100
,
1000
0010
0100
1000
0001
0010
0100
1000
,
0010
0100
0001
0010
0001
0100
1000
0010
,
0100
0001
0010
1000
0010
0100
0001
0010
,
1000
0100
0001
0010
1000
0100
0001
1000
,
0010
0100
0001
0100
1000
0010
0001
1000
,
0100
0001
0010
0100
1000
0001
0100
0010
,
1000
0100
0001
0010
0100
0010
1000
0010
,
0001
0100
0010
1000
0100
0010
0001
0100
,
1000
0100
0010
1000
0100
0001
0010
0100
,
0001
0010
1000
0100
1000
0010
0100
0001
,
1000
0010
0100
1000
0100
0001
0010
1000
,
0010
0100
0001
0010
1000
0001
0010
0100
,
1000
0100
0001
0010
0100
0010
0001
0100
,
1000
0010
0100
0001
0100
0010
1000
0100
,
0001
0010
0100
1000
0010
0001
0100
1000
,
0010
0001
0100
1000
0010
0100
1000
0100
,
0001
0010
0100
1000
0010
0100
0001
0010
,
0100
0001
0100
1000
0010
0100
1000
0100
,
0001
0100
1000
0010
0100
0010
0001
0010
,
1000
0100
0010
1000
0100
0001
0010
0100
,
0010
0001
1000
0010
0100
0001
0010
0100
,
0001
0100
1000
0010
0100
1000
0001
0100
,
0010
1000
0100
0001
0010
0100
1000
0010
,
0100
1000
0100
0001
0100
1000
0010
0100
,
0001
0010
0100
1000
0010
0100
1000
0001
,
0100
0010
1000
0100
0001
1000
0010
0100
,
0001
0010
0100
0001
0100
1000
0010
0100
,
1000
0001
0100
1000
0010
0100
0001
1000
,
0100
0001
0010
0100
1000
0100
0001
1000
,
0010
0100
1000
0100
0001
0010
0100
0001
,
0010
1000
0010
0100
0001
0100
1000
0010
,
0100
1000
0100
0001
0010
1000
0010
0100
,
1000
0001
0100
0010
1000
0100
0001
0010
,
1000
0100
0010
0001
1000
0010
0100
1000
,
0100
0001
0010
0100
0010
0001
1000
0010
,
0100
1000
0100
0001
0010
1000
0001
0010
,
0100
0001
1000
0010
0100
1000
0010
0001
,
1000
0010
0001
0100
0010
1000
0100
0001
,
0010
0100
1000
0010
0100
0001
0010
1000
,
0001
0100
0010
1000
0010
0100
0001
0100
,
1000
0010
0100
0001
0010
1000
0001
0010
,
1000
0010
0100
1000
0100
0001
0010
0100
,
0001
0010
1000
0010
0100
1000
0010
0001
,
0100
1000
0010
0100
1000
0010
0001
1000
,
0010
0001
0100
0010
1000
0100
0001
0010
,
0100
1000
0010
0100
0001
0010
0100
1000
,
0010
0100
1000
0100
0001
0010
0100
1000
,
0010
0100
0001
1000
0100
0010
1000
0100
,
0001
0001
0001
0001
,
0001
0001
0001
0001
,
0001
0001
0001
0001
,
0001
0001
0001
0001
,
0001
0001
0001
0001
,
0001
0001
0001
0001
,
0001
0001
0001
0001
,
0001
0001
0001
0001
,
1001
0001
0001
0001
,
0001
0001
0001
0001
,
0001
0001
0001
0001
,
0001
0001
0001
0001
,
0001
0001
0001
0001
,
0001
0001
0001
0001
,
0001
0001
0001
0001
,
0001
0001
0001
0000
,
2002
0000
0000
0000
,
3003
0000
0000
0000
;

//---------------dance-single - ONI----------------
#NOTES:
     dance-single:
     ONI:
     Challenge:
     11:
     0.754,0.837,0.015,0.006,1.000:
0000
0000
0000
0000
,
0000
0000
0000
0000
,
0000
0000
0000
0000
,
0000
0000
0000
0000
,
0000
0000
0000
0000
,
0000
0000
0000
0000
,
0000
0000
0000
0000
,
0000
0000
0000
0000
,
1000
0001
1000
0000
1000
0001
1000
0000
1000
0001
1000
0000
1000
0001
1000
0000
,
1000
0001
1000
0000
1000
0001
1000
0000
1000
0001
1000
0000
1000
0001
1000
0000
,
1000
0001
1000
0000
1000
0001
1000
0000
1000
0001
1000
0000
1000
0001
1000
0000
,
1000
0001
1000
0000
1000
0001
1000
0000
1000
0001
1000
0000
1000
0001
1000
0000
,
0001
1000
0001
0000
0001
1000
0001
0000
0001
1000
0001
0000
0001
1000
0001
0000
,
0001
1000
0001
0000
0001
1000
0001
0000
0001
1000
0001
0000
0001
1000
0001
0000
,
0001
1000
0001
0000
0001
1000
0001
0000
0001
1000
0001
0000
0001
1000
0001
0000
,
0001
1000
0001
0000
0001
1000
0001
0000
0001
1000
0001
0000
0001
1000
0001
0000
,
1000
0000
0001
0000
0100
0010
0000
1000
0100
0000
0010
0000
0001
1000
0000
1000
,
0100
0000
1000
0000
1000
0010
0000
0010
0100
0000
0001
0000
1000
0010
0000
0010
,
1000
0000
0100
0000
0010
0001
0000
0010
0100
0000
1000
0000
0001
0010
0000
0010
,
0100
0000
1000
0000
0010
1000
0000
1000
0100
0000
0010
0000
0001
0100
0000
0010
,
1000
0000
0100
0000
0010
0001
0000
0001
0100
0000
0010
0000
0100
1000
0000
0100
,
0001
0000
0010
0000
0001
1000
0000
0100
0010
0000
0100
0000
1000
0001
0000
0100
,
0010
0000
0100
0000
1000
0100
0000
0100
1000
0000
0100
0000
0001
0010
0000
0100
,
0010
0000
0001
0000
1000
0100
0000
0100
0001
0000
0100
0000
1000
0010
0100
0010
,
1000
0000
0001
0000
0010
0100
0000
0100
0010
0000
0001
0000
0100
0010
0000
1000
,
0100
0000
0001
0000
0100
0010
0000
0010
0100
0000
0001
0000
0100
1000
0000
1000
,
0010
0000
1000
0000
0001
1000
0000
0100
0010
0000
1000
0000
0100
0001
0000
1000
,
0010
0000
0100
0000
0010
0100
0000
0010
0001
0000
1000
0000
0100
0001
0000
0100
,
0010
0000
0001
0000
0010
0100
0000
1000
0001
0000
0010
0000
0100
1000
0000
0001
,
0100
0000
0010
0000
0100
0001
0000
1000
0010
0000
0100
0000
1000
0100
0000
0100
,
0010
0000
1000
0000
0100
0001
0000
1000
0010
0000
0100
0000
0010
0001
0000
0001
,
0100
0000
0010
0000
1000
0010
0000
0100
0010
1000
0100
0010
0001
0010
0100
0001
,
0100
0010
0000
0001
0000
0000
0000
0000
0010
0001
0010
0100
1000
0100
0000
0010
,
0001
0100
0000
0100
0000
0000
0000
0000
0100
0001
1000
0010
1000
0100
0000
0010
,
0001
0010
0000
0100
0000
0000
0000
0000
1000
0001
1000
0010
1000
0100
0000
0010
,
0100
1000
0000
0100
0000
0000
0000
0000
0100
0010
0001
0100
1000
0100
0000
0001
,
0100
1000
0000
0001
0000
0000
0000
0000
0100
1000
0010
0100
0001
0010
0000
0001
,
1000
0010
0000
0100
0000
0000
0000
0000
0001
0010
1000
0010
0100
0001
0000
0100
,
1000
0100
0000
0010
0000
0000
0000
0000
0001
0010
0100
1000
0010
0100
0000
1000
,
0100
0001
0000
0010
0000
0000
0000
0000
0010
0100
1000
0100
0010
0001
0000
1000
,
0100
0010
0000
0001
0000
0000
0000
0000
1000
0010
0100
1000
0100
0001
0000
0010
,
0100
0010
0000
0100
0000
0000
0000
0000
1000
0001
1000
0010
0100
0001
0000
0010
,
0001
0100
0000
0100
0000
0000
0000
0000
0001
0010
1000
0010
0001
1000
0000
0010
,
0100
1000
0000
0001
0000
0000
0000
0000
0010
0100
0001
1000
0010
1000
0000
0001
,
0010
1000
0000
0010
0000
0000
0000
0000
0001
0100
1000
0001
1000
0100
0000
0001
,
0010
0100
0000
1000
0000
0000
0000
0000
0001
0010
0100
1000
0100
0010
0000
0001
,
1000
0010
0000
0100
0000
0000
0000
0000
0100
0001
1000
0100
0010
0001
0000
0100
,
1000
0100
0000
0001
0000
0000
0000
0000
0100
0001
0010
0100
1000
0010
0100
0001
,
1000
0000
0010
0000
0100
1000
0000
0100
0000
0010
1000
0000
0100
1000
0000
0001
,
0000
0100
0010
0000
1000
0010
0000
0100
0000
0001
0010
0000
0100
0010
0000
1000
,
0000
0010
0001
0000
0100
0010
0000
1000
0000
0010
0001
0000
0100
0010
0000
1000
,
0000
0010
1000
0000
1000
0100
0000
0010
0000
0001
0100
0000
0010
0100
0000
0001
,
0000
1000
0100
0000
0010
0100
0000
0001
0000
0100
0010
0000
0100
1000
0000
0001
,
0000
1000
0100
0000
0010
0100
0000
1000
0000
0100
0010
0000
0001
0010
0000
0100
,
0000
1000
0001
0000
0001
0010
0000
0100
0000
1000
0010
0000
0010
0100
0000
1000
,
0000
0100
0010
0000
0100
0001
0000
0010
0000
1000
0010
0000
0001
0100
1000
0100
,
0001
0100
0010
0000
0100
0001
0000
0010
0000
0100
0010
0000
0001
1000
0000
0010
,
0000
0100
0001
0000
0100
0010
0000
1000
0000
0010
0100
0000
0001
0010
0000
1000
,
0000
0010
0001
0000
0100
0010
0000
0100
0000
0010
0100
0000
0001
1000
0000
0010
,
0000
0100
0001
0000
0010
0100
0000
0001
0000
0100
0010
0000
1000
0010
0000
0100
,
0000
0001
0100
0000
0010
1000
0000
0001
0000
1000
0100
0000
0100
1000
0000
0001
,
0000
0100
1000
0000
0100
0001
0000
0010
0000
0100
1000
0000
0010
1000
0000
0001
,
0000
0100
0010
0000
1000
0010
0000
0001
0000
0010
1000
0000
0100
1000
0000
0001
,
0000
0010
0100
1000
0010
0001
0010
1000
0100
0010
0100
0001
0100
1000
0010
0100
,
1000
0100
0001
0010
0100
1000
0000
0010
0000
0100
0001
0100
0001
0010
0000
0100
,
0000
1000
0001
0100
0010
0100
0000
1000
0000
0100
0010
1000
0100
0010
0000
0001
,
0000
0010
0100
0010
1000
0010
0000
0100
0000
0010
0001
0100
0010
0100
0000
0100
,
0000
1000
0100
0010
1000
0001
0000
0001
0000
0010
1000
0010
0001
0100
0000
0100
,
0000
0010
0001
0010
0100
0010
0000
0100
0000
0010
0100
0010
0001
0010
0000
0100
,
0000
0010
0001
0010
0100
1000
0000
0100
0000
1000
0100
0010
0100
0001
0000
0010
,
0000
0100
1000
0010
0100
0010
0000
0100
0000
0010
0100
0010
0100
1000
0000
0100
,
0010
0000
0100
0000
0000
0100
0000
0100
0000
0000
0100
0000
0000
0100
0000
0100
,
1001
0000
0000
0000
0000
0000
0000
0000
0000
0000
0000
0000
0000
0000
0000
0000
0000
0000
0000
0000
0000
0000
0000
0000
0100
0000
0000
0000
0000
0000
0000
0000
0000
0000
0000
0000
0100
0000
0000
0000
0000
0000
0000
0000
0000
0000
0000
0000
0000
0000
0000
0000
0000
0000
0000
0000
0000
0000
0000
0000
0000
0000
0000
0000
0000
0000
0000
0000
0000
0000
0000
0000
0001
0000
0000
0000
0000
0000
0000
0000
0001
0000
0000
0000
0000
0000
0000
0000
0001
0000
0000
0000
0000
0000
0000
0000
0001
0000
0000
0000
0000
0000
0000
0000
0000
0000
0000
0000
0000
0000
0000
0000
0000
0000
0000
0000
0000
0000
0000
0000
0000
0000
0000
0010
0000
0000
0000
0000
0010
0000
0000
0000
0000
0000
0000
0000
0000
0000
0000
0000
0000
0000
0000
0000
0000
0000
0000
0000
0000
0000
0000
0000
0000
0000
0000
0000
0000
0000
0000
0000
0000
0000
0000
0000
0000
0000
0000
0000
0000
0000
0000
0000
0000
0000
0000
0000
0000
0000
0000
0000
0000
0000
0000
0000
0000
0000
0000
0000
0000
0000
0000
0000
,
1000
0000
0000
1000
0000
0000
0100
0000
0000
0100
0000
0000
0010
0000
0000
0010
0000
0000
0001
0000
0000
0001
0000
0000
0001
0000
0000
0001
0000
0000
0001
0000
,
0001
0000
0000
0001
0000
0000
0100
0000
0000
0100
0000
0000
1000
0000
0000
1000
0000
0000
1000
0000
0000
1000
0000
0000
1000
0000
0000
1000
0000
0000
1000
0000
,
0100
0000
0000
0100
0000
0000
0100
0000
0000
0100
0000
0000
0100
0000
0001
0000
0000
0001
0000
0000
0001
0000
0000
0001
0010
0000
0000
1000
0100
0000
0000
0010
,
0001
0000
0000
0001
0000
0000
0001
0000
0000
0001
0000
0000
0001
0000
0000
0001
0010
0000
0000
0010
0000
0000
0010
0000
0100
0000
0000
0100
0000
0000
0110
0000
,
1001
0001
0010
0100
1000
0010
0100
1000
0100
0010
0001
0010
0100
1000
0100
0001
,
0100
1000
0100
0001
0010
0100
0010
0001
0010
0100
1000
0010
0100
0001
0010
0100
,
1000
0010
0001
0010
1000
0100
0010
0001
1000
0100
0010
0100
1000
0010
1000
0100
,
0001
0100
1000
0010
0001
1000
0100
0001
0010
0100
0001
0100
1000
0010
0100
0001
,
0100
0010
0100
1000
0001
1000
0100
0010
0100
0001
0100
1000
0100
0001
0010
0100
,
1000
0010
0100
0010
1000
0100
1000
0010
1000
0100
0001
0100
0010
0001
1000
0010
,
0100
1000
0100
0010
1000
0010
0001
0010
1000
0100
0001
0100
0010
0100
1000
0010
,
0100
1000
0100
0010
1000
0010
0001
0010
1000
0100
0010
0100
1000
0100
0010
1000
,
0001
0100
0000
0100
0010
0000
0010
0100
0000
0010
0100
0000
0100
0000
0100
0000
,
1000
0100
0000
1000
0100
0000
0100
0010
0000
0100
0010
0000
0010
0000
0010
0000
,
0001
0010
0000
0010
0100
0000
1000
0010
0000
0010
0100
0000
0001
0000
0001
0000
,
0100
1000
0000
1000
0100
0000
0001
0010
0000
0010
0001
0000
0100
0000
0001
0000
,
0010
0100
0000
0100
0010
0000
0100
0010
0000
0010
0100
0000
1000
0010
0100
0000
,
0001
0010
0000
0010
0100
0000
0100
0010
0000
0010
0100
0000
1000
0000
0100
0000
,
0010
0001
0000
1000
0100
0000
0001
0010
0000
0100
1000
0000
0010
0000
1000
0000
,
0010
0100
0000
0100
1000
0000
0100
0010
0000
0010
0100
0000
0100
0010
1000
0100
,
0010
0001
0000
0001
0010
0000
0010
0100
0000
0010
0100
0000
0100
0000
0100
0000
,
1000
0100
0000
1000
0100
0000
0100
0010
0000
0100
0010
0000
0010
0000
0010
0000
,
0001
0010
0000
0010
0100
0000
1000
0010
0000
0010
0100
0000
0001
0000
0001
0000
,
0010
1000
0000
1000
0010
0000
0001
0100
0000
0100
0001
0000
0100
0000
0001
0000
,
0010
0100
0000
0100
0010
0000
0100
0010
0000
0010
0100
0000
1000
0010
0100
0000
,
0001
0010
0000
0010
0100
0000
0100
0010
0000
0010
1000
0000
0010
0000
0100
0000
,
0010
0001
0000
1000
0100
0000
0001
0010
0000
0100
1000
0000
0010
0000
1000
0000
,
0010
0100
0000
0100
1000
0000
0100
0010
0000
0010
1000
0000
0100
0010
0100
0010
,
0001
1000
0000
0001
1000
0000
0010
0100
0000
0100
0001
0000
0100
1000
0100
0010
,
0001
0010
0000
0010
1000
0000
0010
1000
0000
1000
0100
0000
0001
0010
0100
1000
,
0100
0010
0000
0010
0100
0000
1000
0001
0000
0001
0100
0000
0001
0010
0100
1000
,
0001
0010
0000
1000
0001
0000
0010
0100
0000
0100
0010
0000
0001
0010
0100
1000
,
0010
0100
0000
0100
0001
0000
0100
1000
0000
1000
0100
0000
0001
0010
0100
1000
,
0100
0010
0000
0010
0001
0000
0100
1000
0000
1000
0001
0000
0100
0010
0100
0010
,
1000
0010
0000
0010
0001
0000
0010
0100
0000
0100
0010
0000
1000
0010
0100
0001
,
0010
0100
0000
0100
0010
0000
1000
0001
0000
0001
1000
0000
0001
0010
0100
1000
,
0001
1000
0000
1000
0001
0000
0100
0010
0000
0010
1000
0000
0001
0100
0010
1000
,
0001
0100
0000
0100
1000
0000
0100
0001
0000
0001
1000
0000
1000
0100
0010
0001
,
0010
0100
0000
0100
0010
0000
0001
1000
0000
1000
0010
0000
1000
0100
0010
0001
,
0100
0010
0000
1000
0001
0000
0100
0010
0000
0010
0100
0000
0001
0100
0010
1000
,
0100
0010
0000
0010
1000
0000
0010
0001
0000
0001
0100
0000
1000
0100
0010
0001
,
0010
0100
0000
0100
1000
0000
0100
0001
0000
0001
1000
0000
0010
0100
0010
0100
,
0001
0100
0010
0100
0001
1000
0100
0010
1000
0010
0100
0010
0001
0100
0010
1000
,
0100
0010
0001
0010
0100
0010
0001
1000
0100
1000
0001
0010
1000
0001
0100
1000
,
0010
0100
0000
0010
0000
0000
0000
0000
1000
0001
0010
0100
1000
0100
0000
0010
,
0001
0100
0000
0100
0000
0000
0000
0000
0100
0001
1000
0010
1000
0100
0000
0010
,
0001
0010
0000
0100
0000
0000
0000
0000
1000
0001
1000
0010
1000
0100
0000
0010
,
0100
1000
0000
0100
0000
0000
0000
0000
0010
0100
1000
0010
0001
0010
0000
1000
,
0010
0100
0000
0001
0000
0000
0000
0000
0100
0001
0010
0100
1000
0010
0000
0001
,
1000
0010
0000
0100
0000
0000
0000
0000
0100
0010
1000
0100
0010
0001
0000
1000
,
0100
1000
0000
0010
0000
0000
0000
0000
0001
0010
0100
1000
0010
0100
0000
0010
,
0100
0001
0000
0001
0000
0000
0000
0000
0010
0100
1000
0100
0010
0001
0000
1000
,
0100
0010
0000
0001
0000
0000
0000
0000
0001
0010
0100
1000
0010
0100
0000
1000
,
0001
0010
0000
0100
0000
0000
0000
0000
0100
0001
1000
0010
0100
0001
0000
0010
,
0100
0010
0000
0010
0000
0000
0000
0000
1000
0010
0100
0010
0001
1000
0000
0010
,
0100
1000
0000
0001
0000
0000
0000
0000
0010
0100
0001
0010
0100
1000
0000
0001
,
0010
1000
0000
0010
0000
0000
0000
0000
0001
0100
0010
0100
0001
1000
0000
0001
,
0100
1000
0000
0100
0000
0000
0000
0000
0001
0010
0100
1000
0100
0010
0000
0001
,
1000
0010
0000
0100
0000
0000
0000
0000
0100
0001
1000
0100
0010
0001
0000
0010
,
0100
0010
0001
0100
0010
1000
0100
0010
0100
1000
0010
1000
0100
0010
0001
0100
,
1000
0000
0100
0000
0100
0001
0000
0010
0100
0000
0100
0000
0010
1000
0000
1000
,
0001
0000
0100
0000
1000
0010
0000
0010
0100
0000
0001
0000
1000
0010
0000
0010
,
1000
0000
0010
0000
0100
0010
0000
0010
0001
0000
1000
0000
0100
0010
0000
0010
,
0100
0000
0001
0000
0010
1000
0000
0001
0100
0000
1000
0000
1000
0100
0000
0010
,
0001
0000
0100
0000
0010
0001
0000
0010
1000
0000
0001
0000
0100
1000
0000
0001
,
0010
0000
0100
0000
0001
1000
0000
0100
0010
0000
0100
0000
1000
0001
0000
0100
,
0010
0000
0100
0000
1000
0100
0000
0100
0001
0000
0100
0000
0001
0010
0000
0100
,
1000
0000
0010
0000
1000
0100
0000
0100
0001
0000
0100
0000
1000
0001
0100
0010
,
0100
0000
1000
0000
0100
0001
0000
0010
0100
0000
1000
0000
0100
0010
0000
0001
,
0010
0000
0100
0000
1000
0010
0000
0010
1000
0000
0100
0000
0010
0100
0000
1000
,
0001
0000
1000
0000
0010
1000
0000
0100
0010
0000
0001
0000
0100
0010
0000
1000
,
0010
0000
0100
0000
0010
0100
0000
0010
1000
0000
0001
0000
0100
0001
0000
1000
,
0100
0000
0010
0000
0010
0100
0000
1000
0001
0000
0010
0000
0100
1000
0000
0001
,
0100
0000
0010
0000
0100
0001
0000
1000
0010
0000
0100
0000
1000
0100
0000
0100
,
0010
0000
1000
0000
0100
0001
0000
1000
0010
0000
0100
0000
0010
0001
0000
1000
,
0100
0000
0010
0000
0001
0010
0000
0010
0100
1000
0100
0010
0001
0010
1000
0010
,
0001
1000
0001
0000
0001
1000
0001
0000
0001
1000
0001
0000
0001
1000
0001
0000
,
0001
1000
0001
0000
0001
1000
0001
0000
0001
1000
0001
0000
0001
1000
0001
0000
,
0001
1000
0001
0000
0001
1000
0001
0000
0001
1000
0001
0000
0001
1000
0001
0000
,
0001
1000
0001
0000
0001
1000
0001
0000
0001
1000
0001
0000
0001
1000
0001
0000
,
1000
0001
1000
0000
1000
0001
1000
0000
1000
0001
1000
0000
1000
0001
1000
0000
,
1000
0001
1000
0000
1000
0001
1000
0000
1000
0001
1000
0000
1000
0001
1000
0000
,
1000
0001
1000
0000
1000
0001
1000
0000
1000
0001
1000
0000
1000
0001
1000
0000
,
1000
0001
1000
0000
1000
0001
1000
0000
1000
0001
1000
0000
1000
0001
1000
0000
,
1001
1000
0001
0010
0100
0010
1000
0100
,
0001
0010
0100
0010
1000
0100
0001
0010
,
1000
0010
0001
0100
0001
0010
0100
1000
,
0010
1000
0100
1000
0001
0010
0100
0010
,
0001
0010
1000
0010
0001
0010
0100
1000
,
0001
0010
0100
1000
0100
0010
0100
0001
,
0010
1000
0010
0100
1000
0100
0001
0010
,
0100
0000
1000
0000
0010
0000
0001
0000
0100
0100
0000
0000
0100
0000
0000
0000
,
2002
0000
0000
0000
,
3003
0000
0000
0000
;
