#TITLE:PARANOiA ZOMBiE;
#SUBTITLE:;
#ARTIST:jaguarNANIWA;
#TITLETRANSLIT:;
#SUBTITLETRANSLIT:;
#ARTISTTRANSLIT:;
#CREDIT:;
#BANNER:PARANOIA ZOMBiE.png;
#BACKGROUND:PARANOiA ZOMBiE-bg.png;
#LYRICSPATH:;
#CDTITLE:cdtitle.png;
#MUSIC:PARANOiA ZOMBiE.mp3;
#OFFSET:0.000;
#SAMPLESTART:15.000;
#SAMPLELENGTH:12.000;
#SELECTABLE:YES;
#DISPLAYBPM:112.000;
#BPMS:0.000=112.000,192.000=56.000,200.000=112.000;
#STOPS:;
#BGCHANGES:;

//---------------dance-single - BASIC----------------
#NOTES:
     dance-single:
     BASIC:
     Easy:
     5:
     0.205,0.271,0.098,0.036,0.000:
0000
0000
0000
0000
,
0000
0000
0000
0000
,
0000
0000
0000
0000
,
0000
0000
0000
0000
,
0000
0000
0000
0000
,
0000
0000
0000
0000
,
0000
0000
0000
0000
,
1000
0001
0100
0101
,
0010
1000
0001
0110
,
0001
0100
0001
0110
,
1000
0100
1000
0110
,
0001
0010
0100
1100
,
1000
0010
0100
0011
,
0001
0100
1000
1001
,
1000
0100
0001
1001
,
2000
0000
0000
0000
,
0000
3000
0000
0000
,
0002
0000
0000
0000
,
0000
0003
0000
0000
,
2000
0000
0000
0000
,
0000
3000
0000
0000
,
0002
0000
0000
0000
,
0000
0003
0000
0000
,
1000
1000
0100
0000
0010
0000
1000
0000
,
0001
0001
0100
0000
0010
0000
0001
0000
,
0100
0100
0010
0000
0001
0000
1000
0000
,
0001
0001
0010
0000
0100
0000
0001
0000
,
1000
1000
0100
0000
0010
0000
0001
0000
,
0001
0001
0010
0000
1000
0000
0001
0000
,
0100
0100
0010
0000
0001
0000
1000
0000
,
0001
0001
0010
0000
1001
0000
1001
0000
,
1000
1000
0100
0000
0000
0010
0000
0000
,
0001
0010
0000
0000
0100
0000
0000
0000
,
0001
0001
0100
0000
0000
0010
0000
0000
,
1000
0010
0000
0000
0100
0000
0000
0000
,
0001
0001
0100
0000
0000
0010
0000
0000
,
1000
0100
0000
0000
0010
0000
0000
0000
,
0001
0001
0100
0000
0000
0010
0000
0000
,
1000
0100
0000
0000
0010
0000
0000
0000
,
0001
0001
0000
0000
0000
0010
0010
0010
,
1000
0100
0001
0000
0000
0000
0001
0000
,
1000
1000
0000
0000
0000
0010
0010
0010
,
0001
0100
1000
0000
0000
0000
1000
0000
,
0001
0001
0000
0000
0000
0010
0010
0010
,
1000
0100
0001
1000
0100
0001
1000
0000
,
0001
0001
0000
0000
0000
0010
0010
0010
,
0001
0100
1000
0001
0100
1000
0001
0000
,
1001
0000
0000
0000
;

//---------------dance-single - TRICK----------------
#NOTES:
     dance-single:
     TRICK:
     Medium:
     7:
     0.306,0.376,0.107,0.071,0.107:
0000
0000
0000
0000
,
0000
0000
0000
0000
,
0000
0000
0000
0000
,
0000
0000
0000
0000
,
0000
0000
0000
0000
,
0000
0000
0000
0000
,
0000
0000
0000
0000
,
1000
0100
0001
0100
1000
0010
0100
0000
,
0010
0100
1000
0100
0001
1000
0100
0000
,
0001
0010
0100
1000
0010
0100
0001
0000
,
1000
0010
0100
1000
0100
0001
0010
0000
,
0011
0000
0010
1000
0100
1000
1100
0000
,
1010
0000
0001
0100
0001
0010
0011
0000
,
1001
0000
0100
1000
0010
1000
1001
0000
,
1001
0000
1000
0100
0001
0000
1001
0000
,
2000
0000
0010
0000
,
0001
3000
1000
0000
,
0002
0000
0100
0000
,
1000
0003
0001
0000
,
2000
0000
0010
0000
,
0001
3000
1000
0000
,
0002
0000
0010
0000
,
1000
0003
0001
0000
,
1000
1000
0100
0001
0010
0100
1000
0000
,
0001
0001
0100
0010
1000
0100
0001
0000
,
0100
0100
0010
1000
0001
0010
1000
0000
,
0001
0001
0010
1000
0100
0010
0001
0000
,
2000
0100
3100
1000
0100
0010
0001
0000
,
0002
0100
0103
0001
0100
0010
1000
0000
,
2000
0100
3100
1000
0010
0100
1000
0000
,
0002
0010
0013
1000
0001
0000
1001
0000
,
1000
1000
0000
0100
0000
0000
0010
0000
1000
0000
0010
0000
0100
0000
0000
0000
,
0001
0010
0000
1000
0100
1000
0010
0000
,
0001
0001
0000
0100
0000
0000
0010
0000
0001
0000
0010
0000
0100
0000
0000
0000
,
1000
0010
0000
0001
0100
0001
0010
0000
,
0001
0001
0000
0100
0000
0000
0010
0000
0010
0000
1000
0000
0100
0000
0000
0000
,
1000
0100
0000
0001
0001
0010
1000
0000
,
0001
0001
0000
0100
0000
0000
0010
0000
0010
0000
1000
0000
0100
0000
0000
0000
,
1000
0100
0000
0001
0001
0010
1000
0000
,
0001
0001
0000
0000
0000
0000
0000
0000
0000
0000
0010
0010
0000
0010
0000
0000
,
1000
0100
0000
0000
0001
0000
0000
0000
1000
0000
0000
0000
0001
0000
0000
0000
,
1000
1000
0000
0000
0000
0000
0000
0000
0000
0000
0010
0010
0000
0010
0000
0000
,
0001
0100
0000
0000
1000
0000
0000
0000
0001
0000
0000
0000
1000
0000
0000
0000
,
0001
0001
0000
0000
0110
0000
0000
0000
0000
0000
0010
0010
0000
0010
0000
0000
,
1000
0100
0000
0000
0001
0000
1000
0000
0100
0000
0001
0000
1000
0000
0000
0000
,
1000
1000
0000
0000
0110
0000
0000
0000
0000
0000
0010
0010
0000
0010
0000
0000
,
0001
0100
0000
0000
1000
0000
0001
0000
0100
0000
1000
0000
0001
0000
0000
0000
,
1001
0000
0000
0000
;

//---------------dance-single - HEAVY----------------
#NOTES:
     dance-single:
     HEAVY:
     Hard:
     8:
     0.531,0.625,0.621,0.053,0.315:
0000
0000
0000
0000
,
0000
0000
0000
0000
,
0000
0000
0000
0000
,
0000
0000
0000
0000
,
0000
0000
0000
0000
,
0000
0000
0000
0000
,
0000
0000
0000
0000
,
1000
0100
0011
0100
1000
0011
1100
1001
,
0010
0100
1100
0100
0001
1010
0101
1001
,
0001
0010
0101
1000
0010
1100
0101
1001
,
1000
0010
0101
1000
0100
0011
1010
1001
,
0011
1000
1010
1000
0100
1000
1100
1001
,
1010
0001
0011
0100
0001
0010
0011
0101
,
1001
0010
0100
1000
0010
1000
1001
0110
,
1001
0000
1000
0100
0001
0000
1001
0000
,
2000
0100
0100
0000
0010
0000
0001
0001
,
0001
0010
3100
0000
1000
0000
0110
0000
,
0002
0010
0010
0000
0100
0000
1000
1000
,
1000
0100
0013
0000
0001
0000
0110
0000
,
2000
0100
0100
0000
0010
0000
0001
0001
,
0001
0010
3100
0000
1000
0000
0110
0000
,
0002
0010
0010
0000
0100
0000
1000
1000
,
1000
0100
0013
0000
0001
0000
0110
0000
,
1000
0100
1000
0000
0100
0000
0001
0000
0010
0000
0100
0000
1001
0000
0101
0000
,
0001
0100
0001
0000
0100
0000
0010
0000
1000
0000
0100
0000
1001
0000
0110
0000
,
0100
0010
0100
0000
0010
0000
1000
0000
0001
0000
0010
0000
1001
0000
0101
0000
,
0001
0010
0001
0000
0010
0000
1000
0000
0100
0000
0010
0000
0101
0000
1010
0000
,
1000
0100
1000
0000
0100
0000
1000
0000
0101
0000
0010
0000
0101
0000
0110
0000
,
0001
0100
0001
0000
0100
0000
0001
0000
0101
0000
0010
0000
1010
0000
1100
0000
,
1000
0100
1000
0000
0100
0000
1000
0000
1010
0000
0100
0000
1010
0000
0101
0000
,
0001
0010
0001
0000
0010
0000
0100
0000
2002
0000
0000
0000
3003
0000
0000
0000
,
1000
1000
0000
0100
0000
0000
0010
0000
1000
0000
0010
0000
0100
0000
0010
0000
,
0001
0000
0010
0000
0000
0000
1000
0000
0100
1000
0100
1000
0001
0001
0010
0000
,
0001
0001
0000
0100
0000
0000
0010
0000
0001
0000
0010
0000
0100
0000
0010
0000
,
1000
0000
0010
0000
0000
0000
0001
0000
0100
0001
0100
0001
1000
1000
0001
0000
,
0001
0001
0000
0100
0000
0000
0010
0100
0010
0100
1000
0001
0100
0010
0100
0000
,
1001
0000
0110
0000
1000
0010
1000
0010
1000
0100
0010
0001
1000
0010
0100
0000
,
1000
1000
0000
0100
0000
0000
0010
0100
0010
0100
0001
1000
0100
0010
0100
0000
,
1001
0000
0110
0000
0001
0010
0001
0010
0001
0010
0100
1000
0001
0100
0010
0000
,
0001
0101
0000
0000
0010
0000
1000
0000
0100
0000
0010
0010
0000
1001
0000
0000
,
1000
1100
0000
0000
0001
0000
0010
0000
1000
0000
0001
0000
0010
0000
1000
0000
,
1000
1100
0000
0000
0010
0000
0001
0000
0100
0000
0010
0010
0000
1001
0000
0000
,
0001
0101
0000
0000
1000
0000
0100
0000
0001
0000
1000
0000
0100
0000
0001
0000
,
0001
0101
0100
0010
0110
0000
1000
0000
0100
0000
0010
0010
0000
1010
0000
0000
,
1000
1100
0100
0010
0001
0100
0010
1000
0100
0010
0100
1000
0001
1000
0001
0000
,
1000
1100
0100
0010
0110
0000
0001
0000
0100
0000
0010
0010
0000
0011
0000
0000
,
0001
0101
0100
0010
1000
0100
0001
0100
1000
0010
0001
0100
1000
0001
1000
1001
;

//---------------dance-single - ONI----------------
#NOTES:
     dance-single:
     ONI:
     Challenge:
     10:
     1.000,1.000,1.000,1.000,1.000:
0000
0000
0000
0000
,
0000
0000
0000
0000
,
0000
0000
0000
0000
,
1002
2000
0003
3200
0000
0300
0020
0000
0032
0000
2003
0000
3020
0000
0030
0000
,
2002
3003
0220
0330
2000
0000
3002
0000
0203
0000
0320
0000
2030
3000
0220
0330
,
2002
3000
0000
0000
0000
0000
0000
0000
0000
0000
0000
0000
0200
0000
0000
0000
0000
0000
0000
0000
0000
0000
0000
0000
0003
0000
0000
0000
0000
0000
0000
0000
0000
0000
0000
0000
0320
0000
0000
0000
0000
0000
0000
0000
0000
0000
0000
0000
0000
0000
0000
0000
0000
0000
0000
0000
0000
0000
0000
0000
0030
0000
0000
0000
0000
0000
0000
0000
0000
0000
0000
0000
2000
0000
0000
0000
0000
0000
0000
0000
0000
0000
0000
0000
0000
0000
0000
0000
0000
0000
0000
0000
0000
0000
0000
0000
3020
0000
0000
0000
0000
0000
0000
0000
0000
0000
0000
0000
0000
0000
0000
0000
0000
0000
0000
0000
0000
0000
0000
0000
0230
0000
0000
0000
0000
0000
0000
0000
0000
0000
0000
0000
0000
0000
0000
0000
0000
0000
0000
0000
0000
0000
0000
0000
0302
0000
0000
0000
0000
0000
0000
0000
0000
0000
0000
0000
0000
0000
0000
0000
0000
0000
0000
0000
0000
0000
0000
0000
0003
0000
0000
0000
0000
0000
0000
0000
0000
0000
0000
0000
0000
0000
0000
0000
0000
0000
0000
0000
0000
0000
0000
0000
,
2002
0000
0000
0000
3003
0000
0000
0000
0220
0000
0000
0000
0330
0000
0000
0000
2000
0000
0000
0000
0000
0000
0000
0000
3002
0000
0000
0000
0000
0000
0000
0003
0220
0000
0000
0000
0330
0000
0000
0000
2002
0000
0000
0000
3003
0000
0000
0000
0220
0000
0000
0000
0000
0000
0000
0000
0330
0000
0000
0000
0000
0000
0000
0000
,
1000
0010
0100
0000
1010
0000
0100
0001
1000
0001
0011
0000
1100
0000
1001
0000
,
0010
0001
0100
0000
1100
0000
1000
0010
0100
0010
1010
0000
0101
0000
1001
0000
,
0001
1000
0010
0000
0101
0000
1000
0100
0010
0100
1100
0000
0101
0000
1001
0000
,
1000
0100
0010
0000
0101
0000
1000
0010
0100
0001
0011
0000
1010
0000
1001
0000
,
0011
0001
1000
0010
1010
0000
1000
0010
0100
0010
1000
0100
1100
0000
1001
0000
,
1010
1000
0001
0010
0011
0000
0010
0001
0010
0100
0010
0001
0011
0000
0101
0000
,
1001
1000
0010
0100
0010
0000
1000
0100
0010
0100
1000
0000
1001
0000
0110
0000
,
2001
0000
0000
0000
3001
0000
0000
0000
1000
0100
0000
0000
0100
0001
0000
0000
0001
0010
0000
0000
0110
0000
0000
0000
1001
0000
0000
0000
0000
0000
0000
0000
,
1002
1000
1003
0010
0100
0001
0100
0010
1000
0100
0010
0001
0010
0001
0010
0100
,
2000
0100
3001
0010
1000
0100
1000
0100
1000
0010
0100
0010
0110
0000
1000
1000
,
2001
0001
3001
0010
0100
1000
0100
0010
0001
0100
0010
1000
0010
1000
0010
0100
,
0002
0100
1003
0010
0001
0100
0001
0100
0001
0010
0100
0010
0110
0000
0001
0001
,
1002
1000
1003
0010
0100
0001
0100
0010
1000
0100
0010
0001
0010
0001
0010
0100
,
2000
0100
3001
0010
1000
0100
1000
0100
1000
0010
0100
0010
0110
0000
1000
1000
,
2001
0001
3001
0010
0100
1000
0100
0010
0001
0100
0010
1000
0010
1000
0010
0100
,
0002
0100
1003
0010
0001
0100
0001
0100
0001
0010
0100
0010
0220
0000
0330
0000
,
1000
0100
1000
0010
0100
0001
0100
0010
1000
1000
0100
1000
1001
0001
0101
0100
,
0001
0100
0001
0100
0010
1000
0010
0100
0001
0001
0100
0001
1001
1000
1100
0100
,
1000
0100
1000
0010
0100
0001
0100
0010
1000
1000
0010
1000
1001
0001
0101
0100
,
0001
0010
0001
0100
0010
1000
0010
0100
0001
0001
0010
0001
1001
1000
1100
0100
,
1000
0100
1000
0010
0100
0001
0100
0010
1000
1000
0010
1000
1001
0001
0101
0100
,
0001
0100
0001
0010
0100
1000
0100
0010
0001
0001
0010
0001
1001
1000
1100
0100
,
1000
0100
1000
0010
0100
0001
0010
0100
1000
1000
0100
0010
0011
0001
0101
0100
,
0001
0010
0001
0100
0010
1000
0100
0010
2002
0000
0000
0000
3003
0000
0000
0000
,
1000
1100
0000
1002
0000
0000
0013
0000
1000
0001
0100
0010
1000
0100
1000
0000
,
1001
0000
0011
0000
0000
0000
1000
0000
0010
0100
0010
0100
0001
0100
0010
1000
,
0001
0101
0000
2001
0000
0000
3010
0000
0001
0010
0001
0100
0010
1000
0010
1000
,
1010
0000
0101
0000
0100
0001
0010
0001
0100
0010
0100
0001
1000
1000
0001
1000
,
0001
0101
0000
1002
0000
0000
0013
0100
0010
0100
1000
0001
0100
0010
0100
0000
,
1001
0000
0110
0000
1000
0010
1000
0010
1000
0100
0010
0001
1000
0010
0100
0000
,
0001
0101
0000
1002
0000
0000
0013
0100
0010
0100
1000
0001
0100
0010
0100
0001
,
1001
0000
0110
0000
0001
0010
0001
0010
0001
0010
0100
1000
0001
0100
0010
0000
,
0001
0102
0000
0000
0023
0000
2030
0000
3200
0000
0310
0110
0000
2002
0000
3000
,
1003
1100
1000
0100
1000
0010
0100
0010
1000
0100
1000
0001
0010
0001
1000
0100
,
1000
2100
0000
0000
3020
0000
0032
0000
0203
0000
0310
0110
0000
2002
0000
0003
,
3001
0101
0001
0100
0001
1000
0100
1000
0010
0100
0010
1000
0100
1000
0001
0100
,
0001
0102
0100
0013
0120
0000
2030
0000
3200
0000
0310
0011
0000
2200
0000
3000
,
1300
1100
0100
0010
0001
0100
0010
1000
0100
0010
0100
1000
0001
1000
0001
1000
,
1000
2100
0100
3010
0210
0000
0302
0000
0203
0000
0310
1010
0000
0202
0000
0003
,
0301
0101
0100
0010
1000
0100
0001
0100
1000
0010
0001
0100
1000
0001
1000
2002
,
0000
0000
0000
3003
,
2002
0000
0000
3003
0000
0000
0000
0000
0000
0000
0000
0000
0200
0300
0000
0000
0000
0000
0020
0030
0000
0000
0000
0000
2002
0000
0000
3003
0000
0000
0000
0000
0000
0000
0000
0000
0000
0000
0000
0000
0000
0000
0220
0000
0000
0330
0000
0000
0000
0000
0000
0000
0000
0000
2002
0000
0000
3003
0000
0000
0000
0000
0000
0000
0000
0000
0000
0000
0000
0000
0000
0000
0200
0300
0000
0000
0000
0000
0020
0030
0000
0000
0000
0000
0002
0003
0000
0000
0000
0000
0000
0000
0000
0000
0000
0000
2020
0000
0000
3030
0000
0000
0000
0000
0000
0000
0000
0000
0202
0000
0000
0303
0000
0000
0000
0000
0000
0000
0000
0000
0020
0030
0000
0000
0000
0000
0200
0300
0000
0000
0000
0000
2000
3000
0000
0000
0000
0000
0000
0000
0000
0000
0000
0000
0000
0000
0000
0000
0000
0000
0022
0000
0000
0033
0000
0000
0000
0000
0000
0000
0000
0000
2200
0000
0000
3300
0000
0000
0000
0000
0000
0000
0000
0000
2000
3000
0000
0000
0000
0000
0200
0300
0000
0000
0000
0000
2002
0000
0000
3003
0000
0000
,
0000
0000
0000
0000
0000
0000
0000
0000
0000
0000
0000
0000
2020
0000
0000
3030
0000
0000
0000
0000
0000
0000
0000
0000
0202
0000
0000
0303
0000
0000
0000
0000
0000
0000
0000
0000
0002
0003
0000
0000
0000
0000
0200
0300
0000
0000
0000
0000
2002
0000
0000
3003
0000
0000
0000
0000
0000
0000
0000
0000
0000
0000
0000
0000
0000
0000
0220
0000
0000
0330
0000
0000
0000
0000
0000
0000
0000
0000
2002
0000
0000
3003
0000
0000
0000
0000
0000
0000
0000
0000
2000
3000
0000
0000
0000
0000
0200
0300
0000
0000
0000
0000
0002
0003
0000
0000
0000
0000
0000
0000
0000
0000
0000
0000
0000
0000
0000
0000
0000
0000
0022
0000
0000
0033
0000
0000
0000
0000
0000
0000
0000
0000
2200
0000
0000
3300
0000
0000
0000
0000
0000
0000
0000
0000
0000
0000
0000
0000
0000
0000
0002
0003
0000
0000
0000
0000
0200
0300
0000
0000
0000
0000
2000
3000
0000
0000
0000
0000
0000
0000
0000
0000
0000
0000
0000
0000
0000
0000
0000
0000
0220
0000
0000
0330
0000
0000
0000
0000
0000
0000
0000
0000
,
2002
3003
0000
0000
0000
0000
0000
0000
0000
0000
0000
0000
0000
0000
0000
0000
0000
0000
0000
0000
0000
0000
0000
0000
0000
0000
0000
0000
0000
0000
0000
0000
;

//---------------dance-double - ----------------
#NOTES:
     dance-double:
     :
     Hard:
     8:
     0.438,0.511,0.302,0.098,0.235: // measure 1
00000000
00000000
00000000
00000000
,  // measure 2
00000000
00000000
00000000
00000000
,  // measure 3
00000000
00000000
00000000
00000000
,  // measure 4
00000000
00000000
00000000
00000000
,  // measure 5
00000000
00000000
00000000
00000000
,  // measure 6
00000000
00000000
00000000
00000000
,  // measure 7
00000000
00000000
00000000
00000000
,  // measure 8
01000000
10000000
01010000
00010000
01100000
00001000
00010000
00010010
,  // measure 9
00000110
00000001
00000010
00000110
00001000
00000101
00001000
00000100
,  // measure 10
00000110
00010000
00001000
00000110
00001000
00010000
01100000
00010000
,  // measure 11
01100000
10000000
00010000
01100000
00001000
00010000
00010010
00000000
,  // measure 12
00000101
00000010
00001100
00000000
00010000
00000100
00000110
00001000
,  // measure 13
00000101
00000010
00001000
00010100
00001000
00100000
10010000
00000000
,  // measure 14
01100000
10000000
00010000
01010000
00100000
00001000
00010010
00000000
,  // measure 15
00000110
00000000
00001100
00000010
00000011
00000000
00001001
00000000
,  // measure 16
00000002
00000100
00000100
00000000
00001000
00001000
00001003
00000000
,  // measure 17
00020000
01000000
01000000
00000000
10000000
10000000
10030000
00000000
,  // measure 18
20000000
00100000
00100000
00000000
00010000
00010000
30010000
00000000
,  // measure 19
00002000
00000010
00000010
00000000
00000001
00000001
00003001
00000000
,  // measure 20
00000002
00000100
00001000
00001000
00001000
00001000
00001003
00000000
,  // measure 21
00020000
01000000
10000000
10000000
10000000
10000000
10030000
00000000
,  // measure 22
20000000
00100000
00010000
00010000
00010000
00010000
30010000
00000000
,  // measure 23
00002000
00000010
00000001
00000001
00000001
00000001
00003001
00000000
,  // measure 24
00000100
00001000
00000010
00000000
00000001
00000000
00000010
00001000
00000100
00000000
00010000
00000000
00001000
00000000
00100000
00000000
,  // measure 25
00010000
10000000
01000000
00000000
00100000
00000000
00010000
00100000
01000000
00000000
10000000
00000000
00100000
01000000
00010000
00000000
,  // measure 26
00001000
00000100
00000010
00000000
00001000
00000000
00000100
00000010
00000001
00000000
00000100
00000000
00000010
00000000
00001000
00000000
,  // measure 27
00000100
00010000
00001000
00000000
00100000
00000000
00010000
10000000
01000000
00000000
00100000
00000000
00001000
00000000
00010000
00000000
,  // measure 28
00000010
00000000
00000100
00000001
00000010
00000000
00000100
00001000
00000010
00000000
00000100
00000000
00001000
00000000
00010000
00000000
,  // measure 29
01000000
00000000
00100000
00010000
01000000
00000000
00100000
10000000
01000000
00000000
00100000
00000000
00010000
00000000
00001000
00000000
,  // measure 30
00010000
00000100
00000010
00000001
00000100
00000000
00000010
00001000
00000100
00000000
00010000
00000000
00000010
00000000
00000100
00000000
,  // measure 31
00001000
00010000
01000000
00100000
01000000
10000000
00010000
00000000
20020000
00000000
00000000
00000000
30030000
00000000
00000000
00000000
,  // measure 32
10000000
00100000
00000000
01100000
00000000
00000000
01000000
00000000
00010000
00000000
00100000
00000000
00001000
00000000
00010000
00000000
,  // measure 33
00000010
00000110
00000000
00001000
00000001
00000100
00000010
00010000
,  // measure 34
00000100
00010000
00000000
00011000
00000000
00000000
00100000
00000000
00010000
00000000
10000000
00000000
01000000
00000000
00100000
00000000
,  // measure 35
00001000
00011000
00000000
00000010
00000100
00000001
00000010
00000100
,  // measure 36
00010000
00000010
00000000
00000110
00000000
00000000
00001000
00000000
00010000
00000000
01000000
00000000
10000000
00000000
00100000
00000000
,  // measure 37
01000000
01010000
00000000
00010000
00001000
00000100
00000010
00001000
,  // measure 38
00000001
00000010
00000000
00001100
00000000
00000000
00010000
00000000
00000100
00000000
00000010
00000000
00001000
00000000
00010000
00000000
,  // measure 39
01000000
00000000
11000000
00000000
00000000
00000000
00100000
00000000
00010000
00000000
00001000
00010000
00001000
00000000
00000100
00000010
,  // measure 40
00000100
00001000
00000000
00000000
00000100
00000000
00000000
00000010
00000000
00000000
00000001
00000000
00000000
00000100
00000000
00000000
,  // measure 41
00000010
00010000
00000000
00000000
00001000
00000000
00000000
00100000
00000000
00000000
00010000
00000000
00000000
10000000
00000000
00000000
,  // measure 42
01000000
00100000
00000000
00000000
00001000
00000000
00000000
00010000
00000000
00000000
00000010
00000000
00000000
00000100
00000000
00000000
,  // measure 43
00000001
00001000
00000000
00000000
00000100
00000000
00000000
00000010
00000000
00000000
00000001
00000000
00000000
00000100
00000000
00000000
,  // measure 44
00010000
00001000
00000000
00000000
00100000
00000000
00000000
01000000
00000000
00000000
10000000
00000000
00000000
00010000
00000000
00000000
,  // measure 45
00100000
01000000
00000000
00000000
00001000
00000000
00000000
00010000
00000000
00000000
00000010
00000000
00000000
00000100
00000000
00000000
,  // measure 46
00000001
00000010
00000000
00000000
00000100
00000000
00000000
00001000
00000000
00000000
00010000
00000000
00000000
00001000
00000000
00000000
,  // measure 47
00010000
01000000
00000000
00000000
10000000
00000000
00000000
00010000
00000000
00000000
01000000
00000000
00000000
00001000
00000000
00000000
,  // measure 48
00020000
00000000
00000000
00000000
,  // measure 49
00030000
00000000
00000000
00000000
;

//---------------dance-double - ----------------
#NOTES:
     dance-double:
     :
     Medium:
     6:
     0.226,0.298,0.009,0.222,0.036: // measure 1
00000000
00000000
00000000
00000000
,  // measure 2
00000000
00000000
00000000
00000000
,  // measure 3
00000000
00000000
00000000
00000000
,  // measure 4
00000000
00000000
00000000
00000000
,  // measure 5
00000000
00000000
00000000
00000000
,  // measure 6
00000000
00000000
00000000
00000000
,  // measure 7
00000000
00000000
00000000
00000000
,  // measure 8
01000000
10000000
00100000
01000000
00100000
00000000
00010000
00000000
,  // measure 9
00001000
00000100
00000010
00000100
00000001
00000000
00000010
00000000
,  // measure 10
00000100
00001000
00010000
01000000
00100000
00000000
10000000
00000000
,  // measure 11
01000000
00010000
00001000
00000100
00000010
00000000
00000110
00000000
,  // measure 12
00000001
00001000
00000010
00000100
00000000
00010000
00001000
00000000
,  // measure 13
00100000
01000000
10000000
00010000
00000000
01000000
00100000
00000000
,  // measure 14
00001000
00010000
00000100
00000010
00000000
00000001
00000100
00000000
,  // measure 15
00000010
00001000
00010000
01000000
00000000
10000000
00010000
00000000
,  // measure 16
02000000
00000000
00000000
00000000
,  // measure 17
03200000
00000000
00000000
00000000
,  // measure 18
00302000
00000000
00000000
00000000
,  // measure 19
00023000
00000000
00000000
00000000
,  // measure 20
00030020
00000000
00000000
00000000
,  // measure 21
00000032
00000000
00000000
00000000
,  // measure 22
00000203
00000000
00000000
00000000
,  // measure 23
00002300
00000000
00000000
00000000
,  // measure 24
00013000
01000000
00000000
10000000
00000000
10000000
00000000
01000000
,  // measure 25
00100000
00001000
00000000
00010000
00000000
00010000
00000000
00000010
,  // measure 26
00000100
00001000
00000000
00001000
00000000
00000001
00000000
00000100
,  // measure 27
00001000
00000010
00000000
00000010
00000000
00010000
00000000
00001000
,  // measure 28
00100000
01000000
00000000
10000000
00000000
01000000
00000000
00010000
,  // measure 29
00001000
00100000
00000000
01000000
00000000
00100000
00000000
00010000
,  // measure 30
00001000
00000100
00000000
00000001
00000000
00000010
00000000
00000100
,  // measure 31
00010000
00000010
00000000
00001000
00000000
00000001
00000100
00000000
,  // measure 32
00020000
00000000
00000000
00002000
00000000
00000000
00000000
00000000
00000000
00000000
00003000
00000000
00030000
00000000
00000000
00000000
,  // measure 33
02000000
00200000
00000000
00000000
00000000
00300000
03000000
00000000
,  // measure 34
20000000
00000000
00000000
02000000
00000000
00000000
00000000
00000000
00000000
00000000
03000000
00000000
30000000
00000000
00000000
00000000
,  // measure 35
00002000
00020000
00000000
00000000
00000000
00030000
00003000
00000000
,  // measure 36
00000200
00000000
00000000
00000020
00000000
00000000
00000000
00000000
00000000
00000000
00000030
00000000
00000300
00000000
00000000
00000000
,  // measure 37
00000002
00002000
00000000
00000000
00000000
00003000
00000003
00000000
,  // measure 38
00000200
00000000
00000000
00020000
00000000
00000000
00000000
00000000
00000000
00000000
00030000
00000000
00000300
00000000
00000000
00000000
,  // measure 39
00002000
00200000
00000000
00000000
00000000
00300000
00003000
00000000
,  // measure 40
00000010
00000000
00000100
00000000
00000000
00000000
00001000
00000000
00000000
00000000
00010000
00000000
00000000
00010000
00000000
00000000
,  // measure 41
01000000
00100000
00000000
10000000
00000000
00010000
00000000
00010000
,  // measure 42
01000000
00000000
00100000
00000000
00000000
00000000
00010000
00000000
00000000
00000000
00001000
00000000
00000000
00001000
00000000
00000000
,  // measure 43
00000010
00000100
00000000
00000001
00000000
00000100
00000000
00001000
,  // measure 44
00010000
00000000
00010000
00000000
00000000
00000000
00100000
00000000
00000000
00000000
01000000
00000000
00000000
01000000
00000000
00000000
,  // measure 45
10000000
10000000
00000000
01000000
00000000
00001000
00000000
00010000
,  // measure 46
00000010
00000000
00000010
00000000
00000000
00000000
00000100
00000000
00000000
00000000
00000001
00000000
00000000
00000001
00000000
00000000
,  // measure 47
00001000
00000100
00000000
00000010
00000000
00000100
00000000
00020000
,  // measure 48
00000000
00000000
00000000
00000000
,  // measure 49
00030000
00000000
00000000
00000000
;

//---------------dance-double - ----------------
#NOTES:
     dance-double:
     :
     Easy:
     2:
     0.119,0.146,0.000,0.142,0.000: // measure 1
00000000
00000000
00000000
00000000
,  // measure 2
00000000
00000000
00000000
00000000
,  // measure 3
00000000
00000000
00000000
00000000
,  // measure 4
00000000
00000000
00000000
00000000
,  // measure 5
00000000
00000000
00000000
00000000
,  // measure 6
00000000
00000000
00000000
00000000
,  // measure 7
00000000
00000000
00000000
00000000
,  // measure 8
10000000
01000000
01000000
00000000
,  // measure 9
00010000
01000000
01000000
00000000
,  // measure 10
00100000
00001000
00001000
00000000
,  // measure 11
00000010
00001000
00001000
00000000
,  // measure 12
00000001
00000000
00001000
00000000
,  // measure 13
00000100
00000010
00000010
00000000
,  // measure 14
00010000
00000000
00001000
00000000
,  // measure 15
00100000
01000000
01000000
00000000
,  // measure 16
00020000
00000000
00030000
00000000
,  // measure 17
20000000
00000000
30000000
00000000
,  // measure 18
02000000
00000000
03000000
00000000
,  // measure 19
00200000
00000000
00300000
00000000
,  // measure 20
00002000
00000000
00003000
00000000
,  // measure 21
00020000
00000000
00030000
00000000
,  // measure 22
00000020
00000000
00000030
00000000
,  // measure 23
00000200
00000000
00000300
00000000
,  // measure 24
00000100
00010000
00000010
00000000
,  // measure 25
01000000
00001000
00100000
00000000
,  // measure 26
00000010
00010000
00000100
00000000
,  // measure 27
00100000
00001000
01000000
00000000
,  // measure 28
10000000
00010000
01000000
00000000
,  // measure 29
00001000
00000001
00000100
00000000
,  // measure 30
00000010
00001000
00000001
00000000
,  // measure 31
00100000
00010000
10000000
00000000
,  // measure 32
00100000
00001000
00000000
00000000
,  // measure 33
00010000
00000010
00000000
00000000
,  // measure 34
00000100
00010000
00000000
00000000
,  // measure 35
01000000
00001000
00000000
00000000
,  // measure 36
00100000
10000000
00000000
00000000
,  // measure 37
00010000
00100000
00000000
00000000
,  // measure 38
00000100
00001000
00000000
00000000
,  // measure 39
00000001
00000100
00000000
00000000
,  // measure 40
00000020
00000000
00000000
00000000
,  // measure 41
00200030
00000000
00000000
00000000
,  // measure 42
02300000
00000000
00000000
00000000
,  // measure 43
03000200
00000000
00000000
00000000
,  // measure 44
00000302
00000000
00000000
00000000
,  // measure 45
00020003
00000000
00000000
00000000
,  // measure 46
20030000
00000000
00000000
00000000
,  // measure 47
30002000
00000000
00000000
00000000
,  // measure 48
00003000
00000000
00000000
00000000
;

//---------------dance-double - ----------------
#NOTES:
     dance-double:
     :
     Challenge:
     10:
     1.000,1.000,1.000,1.000,1.000: // measure 1
00000000
00000000
00000000
00000000
,  // measure 2
00000000
00000000
00000000
00000000
,  // measure 3
00000000
00000000
00000000
00000000
,  // measure 4
00000012
00000010
00000003
00000200
00000000
00000000
00020300
00000000
00230000
00000000
20300000
00000000
32000000
00000000
03020000
00000000
,  // measure 5
00002000
00033000
00000220
00000330
00000002
00000003
00000002
00000000
00002003
00003000
00002000
00003000
00002020
00003030
00202000
00303000
,  // measure 6
01020000
01000000
00000000
20030000
00000000
00000000
30200000
00000000
00320000
00000000
00032000
00000000
00003200
00000000
00000302
00000003
,  // measure 7
00002002
00003003
00000220
00000330
00002000
00000000
00200000
00303000
20020000
30030000
02200000
03300000
00022000
00033000
00000220
00000330
,  // measure 8
00000001
00000100
00001000
00000000
00001010
00000000
00001000
00010000
01000000
00100000
01100000
00000000
10010000
00000000
00110000
00000000
,  // measure 9
00010000
00000010
00000100
00000000
00000101
00000000
00000010
00001000
00000001
00000100
00001100
00000000
00011000
00000000
01010000
00000000
,  // measure 10
10000000
00100000
00010000
00000000
00011000
00000000
00010000
01000000
10000000
01000000
01100000
00000000
00011000
00000000
00010100
00000000
,  // measure 11
00000010
00000100
00001000
00000000
00000101
00000000
00000010
00001000
00000001
00001000
00001100
00000000
00000011
00000000
00001001
00000000
,  // measure 12
00001100
00010000
00000100
00010000
00101000
00000000
00010000
00100000
10000000
00100000
00010000
01000000
01100000
00000000
01010000
00000000
,  // measure 13
00011000
00010000
01000000
00100000
10100000
00000000
00010000
00100000
01000000
00010000
00001000
00000100
00001100
00000000
00000110
00000000
,  // measure 14
00000101
00000001
00000010
00001000
00001100
00000000
00011000
00000100
00010000
00000010
00001000
00000000
00011000
00000000
01100000
00000000
,  // measure 15
00012000
00000000
00000000
00000000
00013000
00000000
00000000
00000000
00000100
00000010
00000000
00000000
00001000
00000001
00000000
00000000
00000010
00000100
00000000
00000000
00011000
00000000
00000000
00000000
10010000
00000000
00000000
00000000
00000000
00000000
00000000
00000000
,  // measure 16
10020000
10000000
10030000
00100000
01000000
00010000
00001000
00000010
00000001
00000100
00001000
00000100
00000001
00000100
00000001
00000010
,  // measure 17
00002000
00000010
00003001
00000100
00001000
00010000
01000000
00010000
01000000
10000000
01000000
00010000
00110000
00000000
00001000
00000100
,  // measure 18
00000120
00000100
00000130
00010000
00000100
00010000
00000010
00000100
00001000
00010000
01000000
00100000
01000000
00100000
01000000
00001000
,  // measure 19
00020000
01000000
10030000
00100000
00010000
00001000
00010000
00001000
00010000
00000010
00000100
00000010
00000110
00000000
00001000
00001000
,  // measure 20
00002100
00000100
00003100
00000001
00000010
00001000
00010000
01000000
00010000
00100000
10000000
00100000
10000000
00100000
10000000
01000000
,  // measure 21
00020000
00100000
01030000
10000000
00100000
00010000
00100000
00010000
00100000
00001000
00010000
00001000
00011000
00000000
01000000
01000000
,  // measure 22
02010000
00010000
03010000
00100000
00010000
00001000
00000100
00000010
00000001
00000100
00000010
00001000
00000010
00001000
00000010
00000100
,  // measure 23
00002000
00010000
01003000
00100000
10000000
01000000
10000000
01000000
10000000
00100000
01000000
00100000
02200000
00000000
03300000
00000000
,  // measure 24
00010000
00001000
00000100
00000010
00001000
00010000
00000010
00000100
00000001
00000001
00000010
00001000
00001001
00001001
00011000
01000000
,  // measure 25
00001000
01000000
00001000
01000000
00010000
00100000
00010000
10000000
01000000
01000000
00010000
00001000
00001100
00000100
00000110
00000010
,  // measure 26
00000001
00000010
00001000
00000001
00001000
00010000
00100000
01000000
10000000
10000000
00100000
10000000
10010000
00010000
01010000
01000000
,  // measure 27
00010000
00001000
00000100
00000001
00000100
00001000
00000100
00000010
00000001
00000001
00000100
00001000
00001000
00010000
00010100
00001000
,  // measure 28
00010000
01000000
00100000
10000000
00100000
01000000
00010000
00001000
00000100
00000100
00000010
00000001
00001001
00001000
00001100
00000100
,  // measure 29
00000001
00000100
00000001
00000010
00000100
00001000
01000000
00100000
00010000
00010000
00100000
00010000
01010000
01000000
01100000
01000000
,  // measure 30
00010000
00100000
10000000
01000000
00010000
00001000
00000100
00000010
00000001
00000001
00000010
00000100
00001100
00001000
00011000
00001000
,  // measure 31
00010000
01000000
00100000
10000000
00100000
00010000
01000000
00010000
00022000
00000000
00000000
00000000
00033000
00000000
00000000
00000000
,  // measure 32
00001100
00001100
00000000
00000201
00000000
00000000
00001300
00000000
00010000
00001000
01000000
00100000
01000000
10000000
00100000
00000000
,  // measure 33
00110000
00000000
00020010
00000000
00000000
00000000
00030100
00000000
00000001
00000010
00001000
00000010
00000001
00000100
00001000
00010000
,  // measure 34
01000000
01010000
00000000
12000000
00000000
00000000
03100000
00000000
00010000
00001000
00000100
00000010
00000001
00000010
00001000
00000100
,  // measure 35
00000101
00000000
00001100
00000000
00001000
01000000
00100000
01000000
10000000
00100000
00010000
10000000
01000000
00010000
00001000
00010000
,  // measure 36
00000100
00000110
00000000
00000201
00000000
00000000
00001300
00000100
00010000
00000100
00001000
00100000
01000000
00100000
00010000
00000000
,  // measure 37
00011000
00000000
01100000
00000000
00001000
00100000
00001000
00100000
00010000
00000100
00010000
00000100
00000010
00000001
00001000
00000100
,  // measure 38
00000001
00000101
00000000
00001200
00000000
00000000
00010300
00000100
00010000
00000100
00001000
00010000
01000000
00100000
10000000
00010000
,  // measure 39
10010000
00000000
01100000
00000000
00010000
00100000
00010000
00001000
00000100
00000010
00000100
00000001
00000010
00001000
00000100
00000001
,  // measure 40
00001000
00010200
00000000
00000000
00002300
00000000
00203000
00000000
02300000
00000000
13000000
10100000
00000000
00220000
00000000
00330000
,  // measure 41
00010000
01010000
01000000
00010000
00001000
00000010
00000100
00000010
00000001
00000100
00000001
00001000
00000010
00001000
00010000
00100000
,  // measure 42
01000000
12000000
00000000
00000000
03200000
00000000
00320000
00000000
00032000
00000000
00003100
00000110
00000000
00002002
00000000
00003000
,  // measure 43
00010103
01010000
00001000
01000000
00100000
00010000
00000100
00010000
00001000
00000010
00001000
00000001
00000100
00000001
00001000
00100000
,  // measure 44
00001000
02010000
00010000
03001000
00010200
00000000
00000320
00000000
00000032
00000000
00001003
00000110
00000000
00000022
00000000
00000003
,  // measure 45
00001030
00001100
00000100
00000001
00000010
00001000
00010000
00100000
01000000
10000000
00100000
00010000
00001000
00010000
00001000
00000100
,  // measure 46
00000010
00000012
00000010
00000103
00000210
00000000
00020300
00000000
00032000
00000000
01003000
01100000
00000000
00220000
00000000
00030000
,  // measure 47
00301000
00010000
00000010
00000100
00000001
00000010
00001000
00010000
00001000
00000100
00000001
00000100
00010000
00001000
00000010
00000220
,  // measure 48
00000000
00000000
00000000
00000330
,  // measure 49
00022000
00033000
00000000
00000000
02000000
03000000
00200000
00300000
00000000
00000000
22000000
33000000
00000000
00000000
02020000
03030000
00000000
00000000
00022000
00033000
00000000
00000000
00000000
00000000
00000200
00000300
00000020
00000030
00000002
00000003
00000000
00000000
00000022
00000033
00000000
00000000
00002200
00003300
00000000
00000000
00020000
00030000
20000000
30000000
02000000
03000000
00000000
00000000
00000000
00000000
00220000
00330000
00000000
00000000
00002200
00003300
00000000
00000000
00000020
00000030
00000200
00000300
00002002
00003003
,  // measure 50
00000000
00000000
00000000
00000000
00202000
00303000
00000000
00000000
02020000
03030000
00000000
00000000
20000000
30000000
02000000
03000000
00220000
00330000
00000000
00000000
00000000
00000000
00002200
00003300
00000000
00000000
00000220
00000330
00000000
00000000
00000002
00000003
00000200
00000300
00002000
00003000
00000000
00000000
00000000
00000000
00022000
00033000
00000000
00000000
02200000
03300000
00000000
00000000
00000000
00000000
20000000
30000000
00020000
00030000
02000000
03000000
00000000
00000000
00000000
00000000
02200000
03300000
00000000
00000000
,  // measure 51
00022000
00000000
00030000
00003000
00000000
00000000
00000000
00000000
00000000
00000000
00000000
00000000
00000000
00000000
00000000
00000000
00000000
00000000
00000000
00000000
00000000
00000000
00000000
00000000
00000000
00000000
00000000
00000000
00000000
00000000
00000000
00000000
00000000
00000000
00000000
00000000
00000000
00000000
00000000
00000000
00000000
00000000
00000000
00000000
00000000
00000000
00000000
00000000
00000000
00000000
00000000
00000000
00000000
00000000
00000000
00000000
00000000
00000000
00000000
00000000
00000000
00000000
00000000
00000000
;

//---------------dance-single - ----------------
#NOTES:
     dance-single:
     :
     Beginner:
     1:
     0.081,0.123,0.142,0.000,0.000:
0000
0000
0000
0000
,
0000
0000
0000
0000
,
0000
0000
0000
0000
,
0000
0000
0000
0000
,
0000
0000
0000
0000
,
0000
0000
0000
0000
,
0000
0000
0000
0000
,
1000
0000
0000
0000
,
1000
0000
0000
0000
,
0001
0000
0000
0000
,
0001
0000
0000
0000
,
0010
0000
0000
0000
,
0010
0000
0000
0000
,
0100
0000
0000
0000
,
0100
0000
0000
0000
,
1000
0000
0000
0000
,
0100
0000
0000
0000
,
0001
0000
0000
0000
,
0010
0000
0000
0000
,
1000
0000
0000
0000
,
0010
0000
0000
0000
,
0001
0000
0000
0000
,
0100
0000
0000
0000
,
1000
0000
1000
0000
,
0001
0000
0001
0000
,
0100
0000
0100
0000
,
0010
0000
0010
0000
,
0001
0000
0001
0000
,
1000
0000
1000
0000
,
0100
0000
0100
0000
,
0010
0000
0010
0000
,
1001
0000
0000
0000
,
0110
0000
0000
0000
,
1001
0000
0000
0000
,
0110
0000
0000
0000
,
1001
0000
0000
0000
,
0110
0000
0000
0000
,
1001
0000
0000
0000
,
0110
0000
0000
0000
,
1100
0000
0000
0000
,
0101
0000
0000
0000
,
1100
0000
0000
0000
,
0101
0000
0000
0000
,
1100
0000
0000
0000
,
0101
0000
0000
0000
,
1100
0000
0000
0000
,
0101
0000
0000
0000
;
