#TITLE:PARANOiA GENOCiDE;
#SUBTITLE:;
#ARTIST:The Scarecrow;
#TITLETRANSLIT:;
#SUBTITLETRANSLIT:;
#ARTISTTRANSLIT:;
#CREDIT:;
#BANNER:PARANOiA GENOCiDE.png;
#BACKGROUND:PARANOiA GENOCiDE-bg.png;
#LYRICSPATH:;
#CDTITLE:cdtitle.png;
#MUSIC:PARANOiA GENOCiDE.mp3;
#OFFSET:0.000;
#SAMPLESTART:63.180;
#SAMPLELENGTH:12.000;
#SELECTABLE:YES;
#BPMS:0.000=180.000,0.500=190.000,1.000=200.000,1.500=220.000,2.000=240.000,2.500=260.000,3.000=280.000,3.500=300.000,4.000=320.000,4.500=349.999,5.000=389.999,5.500=419.998,6.000=449.998,6.500=479.998,7.000=509.997,7.500=529.997,8.000=569.996,16.000=285.001;
#STOPS:;
#BGCHANGES:;

//---------------dance-single - BASIC----------------
#NOTES:
     dance-single:
     BASIC:
     Easy:
     7:
     0.570,0.786,0.733,0.190,0.000:
0000
0000
0000
0000
,
0000
0000
0000
0000
,
0000
0000
0000
0000
,
0000
0000
0000
0000
,
1000
0000
0000
0000
,
0000
0000
0000
0000
,
0000
0000
0000
0000
,
0000
0000
0000
0000
,
1000
0000
0000
0000
,
0000
0000
0000
0000
,
0001
0000
0000
0000
,
1000
0000
0001
0100
,
1001
0000
0000
0000
,
0000
0000
0000
0000
1000
0001
1000
0001
,
1000
0000
0000
0000
,
0010
0000
0000
1010
0000
0000
0101
0000
,
1000
0000
0000
0000
,
0010
0000
1000
0000
0001
1000
0001
1000
,
0001
0000
1000
0000
,
0010
0001
0100
1000
,
1001
1000
0100
1000
,
0100
0100
0010
0001
,
0010
0010
0100
1000
,
0001
1000
0100
0010
,
0100
1000
0100
1000
,
1000
0010
0001
0010
,
0010
1000
0001
1000
,
0020
0000
0000
0030
,
1000
0010
0100
0010
,
1001
0100
0100
1000
,
1000
0010
0001
1000
,
0100
0001
1000
0100
,
1100
1000
0001
0100
,
1000
1000
0001
0010
,
1000
0100
1000
0001
,
2002
0000
0000
3003
,
1010
1010
1010
0000
,
0101
0101
0101
0000
,
1010
1010
1010
0000
,
0101
0101
0101
0000
,
0011
0011
0011
0000
,
1100
1100
1100
0000
,
0011
0011
0011
0000
,
1100
1100
1100
0000
,
1000
0100
0001
0100
,
1000
0100
0100
0100
,
0001
0100
1000
0100
,
0002
2000
3003
0000
,
0001
0100
1000
0100
,
0001
0100
0100
0100
,
1000
0100
0001
0100
,
2000
0002
3003
0000
,
1010
1000
1100
0100
,
0101
0100
1000
0010
,
0011
0010
1010
1000
,
0002
2000
3003
0000
,
0011
0001
0101
0100
,
1100
0100
0001
0010
,
1010
0010
0011
0001
,
2000
0002
3003
0000
,
0000
1001
0000
0000
0000
0000
0000
0000
,
0000
0000
0000
0001
0000
0000
1000
0001
,
0000
0100
0000
0000
0000
0001
0000
0000
,
0000
0000
0000
1000
0000
0000
0000
0000
,
0000
1001
0000
0000
0000
0000
0000
0000
,
0000
0000
0000
1000
0000
0000
0001
1000
,
0000
0100
0000
0000
0000
1000
0000
0000
,
0000
0000
0000
0001
0000
0000
0000
0000
,
0000
1001
0000
0000
0000
0000
0000
0000
,
0000
0000
0000
0001
0000
0000
1000
0001
,
0000
0100
0000
0000
0000
0001
0000
0000
,
0000
0000
0000
1000
0000
0000
0000
0000
,
0000
1001
0000
0000
0000
0000
0000
0000
,
0000
0000
0000
1000
0000
0000
0001
1000
,
0000
0100
0000
0000
0000
1000
0000
0000
,
0000
0000
0000
0001
0000
0000
0000
0000
,
2002
0000
0000
0000
,
0000
0000
0000
0000
,
0000
0000
0000
0000
,
0000
0000
0000
0000
,
0000
0000
0000
0000
,
0000
0000
0000
0000
,
0000
0000
0000
0000
,
0000
0000
0000
0000
,
3003
1000
0010
0100
,
0010
1000
0100
0001
,
0100
1000
0010
0001
,
0010
1000
0100
0010
,
0100
1000
0100
0001
,
0100
1000
0010
0001
,
0100
1000
0010
0001
,
0100
1000
0001
1000
,
1000
0100
0001
0100
,
1000
0100
0100
0100
,
0001
0100
1000
0100
,
0002
2000
3003
0000
,
0001
0100
1000
0100
,
0001
0100
0100
0100
,
1000
0100
0001
0100
,
2000
0002
3003
0000
,
1010
1000
1100
0100
,
0101
0100
1000
0010
,
0011
0010
1010
1000
,
0002
2000
3003
0000
,
0011
0001
0101
0100
,
1100
0100
0001
0010
,
1010
0010
0011
0001
,
2000
0002
3003
0000
,
0010
0100
0001
0100
,
0010
1000
0100
0100
,
0001
0100
1000
0010
,
1000
0001
0100
0100
,
0010
1000
0100
0010
,
0100
1000
0010
0001
,
0010
1000
0100
0100
,
1000
0100
0001
1000
,
0011
0011
0011
0000
,
1100
1100
1100
0000
,
0011
0011
0011
0000
,
1100
1100
1100
0000
,
1010
1010
1010
0000
,
0101
0101
0101
0000
,
1010
1010
1010
0000
,
0101
0101
0101
0000
,
1001
0000
0000
0000
;

//---------------dance-single - TRICK----------------
#NOTES:
     dance-single:
     TRICK:
     Medium:
     9:
     0.763,0.954,1.000,0.226,0.000:
0000
0000
0000
0000
,
0000
0000
0000
0000
,
0000
0000
0000
0000
,
0000
0000
0000
0000
,
1001
0000
0000
0000
,
0000
0000
0000
0000
,
0000
0000
0000
0000
,
0000
0000
0000
0000
,
1000
0000
0000
0000
,
0000
0000
0000
0000
,
0001
0000
0000
0000
,
1000
0000
0000
0000
0001
0010
0100
1000
,
0001
1000
0100
0001
,
1000
0000
0001
0000
1000
0001
1000
0001
,
1000
0100
0010
0001
,
0010
0000
0000
1000
0000
0000
0001
0000
,
1001
0000
0010
0000
,
0010
0000
1000
0000
0001
1000
0001
1000
,
0001
0000
1001
0000
,
1000
1000
0001
0001
,
1001
1000
0100
0000
,
1001
0000
0001
0000
0100
0001
0100
0001
,
0100
0010
0100
0000
,
1000
0000
0000
0110
0000
0000
0011
0000
,
0001
0100
0001
0000
,
1000
0000
0001
0000
1000
0010
1000
0010
,
1000
1000
0001
0000
,
0010
1000
0100
0000
,
1000
1010
0100
1010
,
1001
0100
1000
0001
,
0011
0100
0011
1001
,
0100
0001
1000
0001
,
1000
1100
0010
1100
,
1001
1000
0010
0100
,
0101
0010
0101
1001
,
1000
0001
0100
0000
,
1010
0101
1010
0000
,
0011
1100
0011
0000
,
1010
0101
1010
0000
,
0011
1100
0011
0000
,
1001
0110
1001
0000
,
1001
0110
1001
0000
,
0011
1010
1100
0000
,
1010
0011
0101
0000
,
2010
3010
0012
0013
,
0011
0000
1010
0000
1000
0010
1000
0010
,
1000
0100
1000
0100
,
0001
0010
1000
0001
,
0102
0103
2100
3100
,
1100
0000
0101
0000
0001
0100
0001
0100
,
0001
0100
0001
0100
,
1000
0010
0001
1000
,
1020
0130
2100
3010
,
0101
1100
1000
0001
,
0012
0103
0201
0310
,
1010
1001
1000
0001
,
0021
0130
0102
0013
,
1100
0101
0001
1000
,
2010
3100
1200
0310
,
1010
1001
0001
1000
,
0000
1000
0000
0100
0000
0010
0000
0100
,
0000
1000
0000
0100
0000
0001
0000
0100
,
0000
0100
0000
0010
0000
1000
0000
0100
,
0000
1000
0000
0001
0000
0010
0000
0010
,
0000
0100
0000
1000
0000
0100
0000
1000
,
0000
0010
0000
0001
0000
0010
0000
0001
,
0000
0001
0000
0100
0000
0100
0000
1000
,
0000
1000
0000
0010
0000
0010
0000
0001
,
0000
0001
0000
1000
0000
0100
0000
0010
,
0000
0001
0000
0100
0000
1000
0000
0100
,
0000
0001
0000
0010
0000
0100
0000
1000
,
0000
1000
0000
0001
0000
0001
0000
0100
,
0000
0010
0000
1000
0000
0100
0000
0001
,
0000
0100
0000
1000
0000
0010
0000
0001
,
0000
0100
0000
1000
0000
0010
0000
0001
,
0000
0100
0000
1000
0000
0001
0000
1000
,
1001
0000
0000
0000
,
0000
0000
0000
0000
,
0000
0000
0000
0000
,
0000
0000
0000
0000
,
1000
0000
0000
0000
,
0001
0000
0000
0000
,
1000
0000
0001
0000
,
1000
0000
0001
0000
1000
0010
0100
0001
,
1000
1000
1010
0001
,
1010
0000
1000
0010
0100
0000
0001
0010
,
0100
1000
0011
0001
,
0011
1000
0001
1000
,
0200
1300
1100
0001
,
1100
0000
1000
0100
0010
0000
0001
0010
,
0100
1000
0011
0001
,
0101
0001
1000
0001
,
2010
3010
0012
0013
,
0011
0000
1010
0000
1000
0010
1000
0010
,
1000
0100
1000
0100
,
0001
0010
1000
0001
,
0102
0103
2100
3100
,
1100
0000
0101
0000
0001
0100
0001
0100
,
0001
0100
0001
0100
,
1000
0010
0001
1000
,
1020
0130
2100
3010
,
0101
1100
1000
0001
,
0012
0103
0201
0310
,
1010
1001
1000
0001
,
0021
0130
0102
0013
,
1100
0101
0001
1000
,
2010
3100
1200
0310
,
1010
1001
0001
1000
,
1000
1100
0010
1100
,
1001
0010
1000
0001
,
0101
0010
0101
1001
,
0010
0001
1000
0001
,
1000
1010
0100
1010
,
1001
1000
0100
0010
,
0011
0100
0011
1001
,
1000
0001
0010
1000
,
1010
0101
1010
0000
,
0011
1100
0011
0000
,
1010
0101
1010
0000
,
0011
1100
0011
0000
,
1001
0110
1001
0000
,
1001
0110
1001
0000
,
1010
0011
0101
0000
,
0011
1010
1100
0000
,
1001
0000
0000
0000
;

//---------------dance-single - HEAVY----------------
#NOTES:
     dance-single:
     HEAVY:
     Hard:
     10:
     0.908,0.898,0.724,0.018,0.000:
0000
0000
0000
0000
,
0000
0000
0000
0000
,
0000
0000
0000
0000
,
0000
0000
0000
0000
,
1001
0000
0000
0000
,
0000
0000
0000
0000
,
0000
0000
0000
0000
,
0000
0000
0000
0000
,
1001
0000
0000
0000
,
0000
0000
0000
0000
,
1001
0000
0000
0000
,
1000
0000
0000
0000
0001
0010
0100
1000
,
0001
1000
1100
0001
,
0101
0000
1000
0000
0001
0010
0100
0010
,
0001
0100
0010
1000
,
1010
0000
0000
1001
0000
0000
0101
0000
,
1001
1000
1010
0001
,
0011
0000
0001
0000
1000
0100
0010
0100
,
1000
0001
1001
0000
,
1000
0010
0100
0001
0100
0010
1000
0001
,
1001
1000
0100
1000
,
1001
0000
0001
0000
0100
0001
0100
0001
,
0100
0010
0100
0001
,
1001
0001
0100
0001
,
1001
0001
1000
0001
,
1001
0000
0001
0000
1000
0100
1000
0100
,
1000
0010
0100
0001
,
1001
1000
0200
0300
,
1000
0010
1000
0000
1000
0001
1000
0000
,
1000
0100
1000
0000
1000
0100
1000
0000
,
0001
0100
0001
0000
0001
1000
0001
0000
,
0001
0010
0001
0000
0001
0010
0001
0000
,
1000
0010
1000
0000
1000
0001
1000
0000
,
1000
0100
1000
0000
1000
0100
1000
0000
,
0001
0100
0001
0000
0001
1000
0001
0000
,
0001
0010
0001
0000
0001
0010
0001
0000
,
0011
0110
1100
1000
,
1010
0110
0101
0001
,
0011
0110
1100
1000
,
1010
0110
0101
0001
,
1001
0110
1001
1000
,
1001
0110
1001
0001
,
0011
1010
1100
1000
,
1010
0011
0101
0001
,
0001
0010
0001
0010
0001
1000
0001
1000
,
0001
0010
0001
1000
0001
1000
0001
0000
,
1000
0010
1000
0010
1000
0001
1000
0001
,
1000
0010
1000
0001
1000
0001
1000
0000
,
0001
0010
0001
0010
0001
1000
0001
1000
,
0001
0010
0001
1000
0001
1000
0001
0000
,
1000
0010
1000
0010
1000
0001
1000
0001
,
1000
0010
0100
0001
0010
0100
1000
0000
,
0001
0100
0001
0100
0001
1000
0001
1000
,
0001
0100
0001
1000
0001
1000
0001
0000
,
1000
0100
1000
0100
1000
0001
1000
0001
,
1000
0100
1000
0001
1000
0001
1000
0000
,
0001
0100
0001
0100
0001
1000
0001
1000
,
0001
0100
0001
1000
0001
1000
0001
0000
,
1000
0001
1000
0001
1000
0100
1000
0100
,
1000
0001
1000
0010
0100
0001
1000
0000
,
0001
0000
0010
0000
1000
0100
1000
0010
,
0001
0000
1000
0000
0100
1000
0100
0000
,
1000
0010
1000
0100
,
0100
0000
0010
0000
0001
1000
0001
1000
,
0001
0000
0100
0000
0010
0100
1000
0100
,
0001
0000
1000
0000
0100
0001
0100
0000
,
1000
0010
1000
0001
,
1000
0000
0100
0000
0010
0001
0010
0001
,
0010
0000
0001
0000
0100
0010
1000
0001
,
1000
0000
0100
0000
0010
0001
0010
0000
,
0001
0100
0100
0010
,
1000
0000
0001
0000
1000
0001
1000
0001
,
1000
0000
0100
0000
0010
0100
1000
0100
,
0001
0000
0100
0000
1000
0100
1000
0000
,
0100
0010
0010
0001
,
1000
0000
0001
1000
0001
1000
0001
1000
,
1001
0000
0000
0000
,
0000
0000
0000
0000
,
0000
0000
0000
0000
,
0000
0000
0000
0000
,
1001
0000
0000
0000
,
1001
0000
0000
0000
,
0001
0000
1000
0000
,
0001
0000
1000
0000
0001
0100
0010
0100
,
0001
0000
0001
0000
0001
0100
1000
0100
,
0001
0000
1000
0010
0100
0001
1000
0010
,
0100
0001
0011
1001
,
0011
0001
1001
1100
,
0200
0000
1300
0000
1000
0100
0001
0100
,
1000
0000
1000
0010
0100
0001
1000
0100
,
0010
0001
0011
1001
,
0101
0001
1001
0101
,
0001
0010
0001
0010
0001
1000
0001
1000
,
0001
0010
0001
1000
0001
1000
0001
0000
,
1000
0010
1000
0010
1000
0001
1000
0001
,
1000
0010
1000
0001
1000
0001
1000
0000
,
0001
0010
0001
0010
0001
1000
0001
1000
,
0001
0010
0001
1000
0001
1000
0001
0000
,
1000
0010
1000
0010
1000
0001
1000
0001
,
1000
0010
1000
0001
1000
0001
1000
0000
,
0001
0010
0001
0010
0001
0100
0001
0100
,
0001
0010
0001
0100
0001
0100
0001
0000
,
1000
0010
1000
0010
1000
0100
1000
0100
,
1000
0010
1000
0100
1000
0100
1000
0000
,
0001
0010
0001
0010
0001
0100
0001
0100
,
0001
0010
0001
0100
0001
0100
0001
0000
,
1000
0100
1000
0100
1000
0010
1000
0010
,
1000
0100
1000
0010
1000
0010
1000
0000
,
1000
0010
1000
0000
0010
0100
1000
0000
,
0100
0010
0001
0000
0001
0010
1000
0000
,
0010
0100
0001
0000
1000
0010
0100
0000
,
0001
0100
0001
0000
1000
0100
0010
0000
,
0001
1000
0001
0000
1000
0100
1000
0000
,
0010
0100
1000
0000
1000
0100
0001
0000
,
0001
0010
0100
0000
1000
0010
0100
0000
,
0001
0100
0010
0000
1000
0010
0100
0000
,
0101
0110
0101
0010
,
1010
0110
1010
0100
,
0011
1001
0011
0100
,
1010
0101
1010
1000
,
0011
0110
1100
0001
,
1010
0110
0011
1000
,
1001
0110
1001
1000
,
1010
0011
0101
1000
,
1001
0000
0000
0000
;

//---------------dance-single - ONI----------------
#NOTES:
     dance-single:
     ONI:
     Challenge:
     11:
     1.000,1.000,0.570,0.009,0.000:
0000
0000
0000
0000
,
0000
0000
0000
0000
,
0000
0000
0000
0000
,
0000
0000
0000
0000
,
1001
0000
1000
0100
1000
0000
0010
0000
,
0010
0000
0001
0100
0001
0000
1000
0000
,
0001
0000
0100
0010
0100
0000
0001
0000
,
0001
0000
1000
0100
1000
0000
0010
0000
,
1010
0000
1000
0100
1000
0000
0001
0000
,
0001
0000
1000
0010
1000
0000
0001
0000
,
0011
0001
0100
0010
,
1000
0001
1000
0000
0001
0010
0100
1000
,
1001
1001
0110
1001
,
0101
0000
1001
0000
0001
0010
0100
0010
,
0001
0011
0110
1001
,
1010
0000
0000
1001
0000
0000
0101
0000
,
1001
1010
1001
0101
,
0011
0000
1001
0000
0001
0010
0100
0010
,
0001
0000
1000
0001
1000
0000
0001
1000
,
0001
0100
0010
1000
0010
0100
0001
1000
,
1001
0001
0100
0010
1000
0100
1000
0001
,
1000
0001
0100
0010
0100
0001
0010
0001
,
0100
0000
0010
1000
0100
0000
0001
1000
,
0001
0000
0001
0010
0100
0010
0001
0000
,
0001
1000
0001
0100
0010
0100
0001
0010
,
0001
1000
0001
1000
0010
0100
0010
0100
,
1000
0100
0010
0000
0100
0010
1000
0000
,
0001
1000
0100
1000
0200
0000
0300
0000
,
1000
0100
0010
0100
0001
0100
0010
0001
,
0100
0010
0100
0001
0010
0100
1000
0100
,
0010
1000
0100
1000
0100
1000
0010
0001
,
1000
0100
0010
0100
1000
0010
0100
0001
,
0100
0010
1000
0100
1000
0100
1000
0010
,
0100
0001
0010
0100
1000
0100
0001
0100
,
0010
0100
0010
0100
1000
0010
0100
0001
,
0010
0100
1000
0001
0100
0001
0010
0000
,
0001
1000
0001
0010
0001
0000
1001
0000
,
1000
0100
1000
0001
1000
0000
1001
0000
,
0001
0010
0001
0100
0001
0000
0101
0000
,
0100
0010
1000
0010
1000
0000
1010
0000
,
1000
0100
0010
0001
1000
0000
1001
0000
,
1000
0010
0100
0001
1000
0000
1001
0000
,
0001
0010
0100
0010
0001
0000
1001
0000
,
1000
0010
0100
0010
1000
0000
1001
0000
,
0001
0010
0001
0010
0001
1000
0001
1000
,
0001
0010
0001
1000
0001
1000
0001
0010
,
0100
1000
0100
1000
0100
0010
0100
0010
,
0100
1000
0100
0010
0100
0010
0100
0001
,
1000
0100
1000
0100
1000
0001
1000
0001
,
1000
0100
1000
0001
1000
0001
1000
0100
,
0010
0001
0010
0001
0010
0100
0010
0100
,
0010
0001
0010
0100
0010
0100
0010
1000
,
0001
0010
0001
0010
0001
1000
0001
1000
,
0001
0010
0001
1000
0001
1000
0001
0010
,
0100
1000
0100
1000
0100
0010
0100
0010
,
0100
1000
0100
0010
0100
0010
0100
0001
,
1000
0100
1000
0100
1000
0001
1000
0001
,
1000
0100
1000
0001
1000
0001
1000
0100
,
0010
0001
0010
0001
0010
0100
0010
0100
,
0010
0001
0010
0100
0010
0100
0010
1000
,
0001
0000
1010
0000
1000
0100
1000
0010
,
0001
0000
1100
0000
0100
1000
0100
0000
,
1000
0000
1010
0000
1000
0100
1000
0000
,
0100
0010
0100
0000
0001
1000
0001
1000
,
0001
0000
0011
0000
0010
0100
1000
0100
,
0001
0000
0101
0000
0100
0001
0100
0000
,
1100
0000
0100
1000
0100
0010
0001
1000
,
0100
1000
0100
0000
0010
0001
0010
0001
,
0100
0000
0101
0000
0100
0010
1000
0001
,
1000
0000
0110
0000
0010
0001
0010
0000
,
0110
0000
0100
0010
0100
0000
0010
0100
,
1000
0100
0001
0100
1000
0001
1000
0001
,
1000
0000
1010
0000
0010
0100
1000
0100
,
0001
0000
1100
0000
1000
0100
1000
0000
,
1100
0000
1000
0100
0010
0100
1000
0001
,
1000
0010
0001
1000
0001
1000
0001
1000
,
1001
0000
0000
0000
1000
0010
0100
0010
,
1000
0100
0010
0001
,
0100
0100
0010
0000
1000
1000
0001
0000
,
0010
0010
0100
0000
0001
0001
1000
0000
,
0001
0000
0010
0100
1000
0001
0100
0000
,
0010
0000
0100
0010
0100
0000
0001
1000
,
0001
0100
0010
0100
1000
0000
0100
0000
,
0001
0000
1000
0000
0001
0100
0001
0100
,
0101
0000
1001
0000
0001
0100
1000
0100
,
0001
0000
1001
0000
0100
0001
1000
0010
,
0100
0010
1000
0000
1001
0000
0001
0010
,
0001
0101
1001
1100
,
1000
0100
1000
0000
1000
0100
0001
0100
,
1000
0000
1000
0010
0100
0001
1000
0100
,
0010
0000
1001
0000
0011
0000
0001
0100
,
0001
0011
1001
0101
,
1000
0010
1000
0010
1000
0001
1000
0001
,
1000
0010
1000
0001
1000
0001
1000
0010
,
0100
0001
0100
0001
0100
0010
0100
0010
,
0100
0001
0100
0010
0100
0010
0100
1000
,
0001
0100
0001
0100
0001
1000
0001
1000
,
0001
0100
0001
1000
0001
1000
0001
0100
,
0010
1000
0010
1000
0010
0100
0010
0100
,
0010
1000
0010
0100
0010
0100
0010
0001
,
1000
0010
1000
0010
1000
0001
1000
0001
,
1000
0010
1000
0001
1000
0001
1000
0010
,
0100
0001
0100
0001
0100
0010
0100
0010
,
0100
0001
0100
0010
0100
0010
0100
1000
,
0001
0100
0001
0100
0001
1000
0001
1000
,
0001
0100
0001
1000
0001
1000
0001
0100
,
0010
1000
0010
1000
0010
0100
0010
0100
,
0010
1000
0010
0100
0010
0100
0010
0001
,
1000
0010
0100
0010
0001
0010
1000
0010
,
0100
0001
0010
1000
0010
0001
0100
0001
,
0010
0100
1000
0001
0010
1000
0010
0100
,
1000
0010
0001
0010
0100
0001
1000
0001
,
0010
0100
1000
0100
1000
0010
0100
0001
,
0010
0100
0010
0001
0010
1000
0100
0010
,
0001
0010
0001
0010
0100
1000
0010
1000
,
0100
0001
0010
0100
1000
0010
0001
0000
,
1000
0010
0100
0001
0100
0000
0110
0000
,
0010
0100
0001
0100
0010
0000
1010
0000
,
1000
0010
0100
0001
0100
0000
0101
0000
,
0001
0010
0100
0010
0001
0000
1001
0000
,
1000
0010
0100
0001
1000
0000
1001
0000
,
0001
1000
0100
1000
0010
0000
1010
0000
,
1000
0001
0010
0001
0100
0000
0101
0000
,
0001
0010
1000
0010
0100
1000
0100
0001
,
1001
0000
0000
0000
;

//---------------dance-double - ----------------
#NOTES:
     dance-double:
     :
     Hard:
     10:
     0.933,1.000,0.896,0.027,0.000: // measure 1
00000000
00000000
00000000
00000000
,  // measure 2
00000000
00000000
00000000
00000000
,  // measure 3
00000000
00000000
00000000
00000000
,  // measure 4
00000000
00000000
00000000
00000000
,  // measure 5
00011000
00000000
00000000
00000000
,  // measure 6
00000000
00000000
00000000
00000000
,  // measure 7
00000000
00000000
00000000
00000000
,  // measure 8
00000000
00000000
00000000
00000000
,  // measure 9
00011000
00000000
00000000
00000000
,  // measure 10
00000000
00000000
00000000
00000000
,  // measure 11
00011000
00000000
00000000
00000000
,  // measure 12
00000001
00000000
00000000
00000000
00001000
00100000
01000000
10000000
,  // measure 13
00010000
00001000
00001100
00000001
,  // measure 14
00000101
00000000
00000010
00000000
00010000
00001000
00000100
00000010
,  // measure 15
00010000
00000100
00000001
00000010
,  // measure 16
00001010
00000000
00000000
00011000
00000000
00000000
01010000
00000000
,  // measure 17
10100000
00100000
01010000
00010000
,  // measure 18
00011000
00000000
00000110
00000000
00000100
00000001
00001000
00000100
,  // measure 19
00000010
00000100
00000110
00000000
,  // measure 20
00000001
00000100
00001000
00000100
00001000
00010000
00100000
00000000
,  // measure 21
00110000
01000000
11000000
00010000
,  // measure 22
00011000
00000000
00000100
00000000
00000001
00000010
00000001
00000010
,  // measure 23
00000001
00000100
00001100
00010000
,  // measure 24
00011000
00000000
01100000
00000000
01000000
10000000
00010000
00000000
,  // measure 25
10010000
00010000
00001000
00000100
,  // measure 26
00000110
00000000
00000010
00000000
00000001
00001000
00000001
00001000
,  // measure 27
00000001
00000100
00000010
00010000
,  // measure 28
00011000
00100000
02000000
03000000
,  // measure 29
00010000
00100000
00010000
00000000
01000000
10000000
01000000
00000000
,  // measure 30
00100000
00001000
00100000
00000000
00001000
00010000
00001000
00000000
,  // measure 31
00000100
00010000
00000100
00000000
00000010
00000001
00000010
00000000
,  // measure 32
00001000
00000001
00001000
00000000
00000100
00000010
00000100
00000000
,  // measure 33
00010000
00000010
00010000
00000000
00001000
00100000
00001000
00000000
,  // measure 34
00100000
01000000
00100000
00000000
01000000
10000000
01000000
00000000
,  // measure 35
10000000
00010000
10000000
00000000
00010000
00100000
00010000
00000000
,  // measure 36
00100000
00001000
00100000
00000000
00001000
00010000
00001000
00000000
,  // measure 37
00001100
00000110
00000101
00010100
,  // measure 38
00010010
00101000
00110000
10010000
,  // measure 39
11000000
00110000
01100000
00101000
,  // measure 40
00010010
00011000
00000110
00001001
,  // measure 41
00000110
00010100
00010010
00101000
,  // measure 42
00011000
00110000
11000000
10010000
,  // measure 43
01100000
00101000
00010010
00011000
,  // measure 44
00000110
00001001
00000101
00001001
,  // measure 45
00000100
00000010
00000100
00000010
00000100
00010000
00000100
00010000
,  // measure 46
00001000
00010000
01000000
00010000
01000000
00010000
01000000
00000000
,  // measure 47
10000000
00100000
10000000
00100000
01000000
00100000
01000000
00100000
,  // measure 48
01000000
00010000
00001000
00010000
00001000
00010000
00001000
00000000
,  // measure 49
00000010
00001000
00000010
00001000
00000001
00001000
00000001
00001000
,  // measure 50
00000001
00000100
00000010
00000100
00000010
00000100
00000010
00000000
,  // measure 51
00000100
00001000
00000100
00001000
00010000
00001000
00010000
00001000
,  // measure 52
00010000
01000000
00100000
10000000
01000000
00100000
00010000
00000000
,  // measure 53
00010000
00001000
00010000
00001000
00000100
00001000
00000100
00001000
,  // measure 54
00000100
00000010
00000001
00000010
00000001
00000010
00000001
00000000
,  // measure 55
00000010
00001000
00000010
00001000
00000010
00000001
00000010
00000001
,  // measure 56
00000100
00000001
00001000
00000001
00001000
00000001
00001000
00000000
,  // measure 57
00000100
00010000
00000100
00010000
00001000
00010000
00001000
00010000
,  // measure 58
00100000
00010000
10000000
01000000
10000000
01000000
10000000
00000000
,  // measure 59
00100000
10000000
00100000
10000000
00010000
01000000
00010000
01000000
,  // measure 60
00010000
00001000
00000100
00000010
00000001
00000100
00001000
00000000
,  // measure 61
00010000
00000000
00100000
00000000
10000000
01000000
10000000
00100000
,  // measure 62
00010000
00000000
00001000
00000000
00000100
00001000
00000100
00000000
,  // measure 63
00000001
00000010
00001000
00000100
,  // measure 64
00000100
00000000
00000010
00000000
00001000
00010000
00001000
00010000
,  // measure 65
00001000
00000000
01000000
00000000
00100000
01000000
10000000
01000000
,  // measure 66
00010000
00000000
00001000
00000000
00000100
00000001
00000100
00000000
,  // measure 67
00000001
00000010
00000001
00001000
,  // measure 68
00010000
00000000
01000000
00000000
00100000
10000000
00100000
10000000
,  // measure 69
00100000
00000000
00010000
00000000
01000000
00100000
00010000
00001000
,  // measure 70
00010000
00000000
00000100
00000000
00000010
00000001
00000010
00000000
,  // measure 71
00001000
01000000
01000000
00100000
,  // measure 72
10000000
00000000
00010000
00000000
00001000
00010000
00001000
00010000
,  // measure 73
00001000
00000000
00000100
00000000
00000010
00000100
00001000
00000100
,  // measure 74
00000001
00000000
00000100
00000000
00001000
00000100
00001000
00000000
,  // measure 75
01000000
00100000
00100000
00010000
,  // measure 76
10000000
00000000
00010000
00001000
00010000
00001000
00010000
00001000
,  // measure 77
00001001
00000000
00000000
00000000
,  // measure 78
00000000
00000000
00000000
00000000
,  // measure 79
00000000
00000000
00000000
00000000
,  // measure 80
00000000
00000000
00000000
00000000
,  // measure 81
10010000
00000000
00000000
00000000
,  // measure 82
00001001
00000000
00000000
00000000
,  // measure 83
00000001
00000000
00010000
00000000
,  // measure 84
10000000
00000000
00010000
00000000
00001000
00000100
00000010
00000100
,  // measure 85
00000001
00000000
00000010
00000000
00001000
00000100
00000001
00000100
,  // measure 86
00001000
00000000
00001000
00100000
01000000
10000000
00100000
01000000
,  // measure 87
00010000
00001000
00001010
00001001
,  // measure 88
00000011
00000001
00001001
00001100
,  // measure 89
00000200
00000000
00010300
00000000
00010000
01000000
10000000
01000000
,  // measure 90
00010000
00000000
10000000
00100000
01000000
00010000
00001000
00000100
,  // measure 91
00000010
00000001
00000011
00001001
,  // measure 92
00001100
00010000
00011000
01010000
,  // measure 93
00010000
00100000
00010000
00100000
10000000
00100000
10000000
00100000
,  // measure 94
00010000
00100000
00010000
00001000
00010000
00001000
00010000
00000000
,  // measure 95
00001000
00000100
00001000
00000100
00000001
00000100
00000001
00000100
,  // measure 96
00000001
00000010
00001000
00000010
00001000
00000010
00001000
00000000
,  // measure 97
00010000
00100000
00010000
00100000
00010000
10000000
00010000
10000000
,  // measure 98
01000000
00010000
00001000
00000100
00001000
00000100
00001000
00000000
,  // measure 99
00000001
00000010
00000001
00000010
00000001
00001000
00000001
00001000
,  // measure 100
00000001
00000100
00001000
00010000
01000000
00010000
01000000
00000000
,  // measure 101
00100000
00010000
00001000
00000100
00001000
00000010
00001000
00000010
,  // measure 102
00000001
00000010
00000001
00000100
00000001
00000100
00000001
00000000
,  // measure 103
00000100
00001000
00000100
00001000
00010000
00100000
00010000
00100000
,  // measure 104
10000000
00100000
01000000
00100000
01000000
00100000
00000000
00000000
,  // measure 105
01000000
10000000
01000000
10000000
00010000
01000000
00010000
01000000
,  // measure 106
00001000
00100000
00001000
00010000
00001000
00010000
00001000
00000000
,  // measure 107
00010000
00000100
00010000
00000100
00001000
00000010
00001000
00000010
,  // measure 108
00000100
00000001
00000010
00000001
00000010
00000001
00000010
00000000
,  // measure 109
00000100
00000001
00000010
00000000
00000100
00001000
00000010
00000000
,  // measure 110
00000100
00000001
00000010
00000000
00000100
00001000
00000010
00000000
,  // measure 111
00010000
00001000
00000010
00000000
00001000
00010000
00100000
00000000
,  // measure 112
00010000
00001000
00000010
00000000
00001000
00010000
00100000
00000000
,  // measure 113
01000000
10000000
00100000
00000000
01000000
00010000
00100000
00000000
,  // measure 114
01000000
10000000
00100000
00000000
01000000
00010000
00100000
00000000
,  // measure 115
00010000
00001000
00000010
00000000
00001000
00010000
00100000
00000000
,  // measure 116
00010000
00001000
00000010
00000000
00001000
00010000
00100000
00000000
,  // measure 117
11000000
01100000
00101000
00011000
,  // measure 118
00010010
00001100
00001010
00000110
,  // measure 119
00001100
00001001
00010100
00010010
,  // measure 120
00101000
00011000
01100000
00110000
,  // measure 121
11000000
01100000
00101000
00010010
,  // measure 122
00011000
00000110
00000011
00001100
,  // measure 123
00001001
00000110
00001100
00011000
,  // measure 124
00101000
00110000
11000000
00120000
,  // measure 125
00030100
00000000
00000000
00000000
;

//---------------dance-double - ----------------
#NOTES:
     dance-double:
     :
     Medium:
     9:
     0.714,1.000,1.000,0.081,0.000: // measure 1
00000000
00000000
00000000
00000000
,  // measure 2
00000000
00000000
00000000
00000000
,  // measure 3
00000000
00000000
00000000
00000000
,  // measure 4
00000000
00000000
00000000
00000000
,  // measure 5
10010000
00000000
00000000
00000000
,  // measure 6
00000000
00000000
00000000
00000000
,  // measure 7
00000000
00000000
00000000
00000000
,  // measure 8
00000000
00000000
00000000
00000000
,  // measure 9
00001001
00000000
00000000
00000000
,  // measure 10
00000000
00000000
00000000
00000000
,  // measure 11
00010000
00000000
00000000
00000000
,  // measure 12
10010000
00000000
10000000
00000000
,  // measure 13
01000000
00100000
00001000
00010000
,  // measure 14
00000010
00000100
00000001
00000010
,  // measure 15
00000100
00010000
00000010
00000001
,  // measure 16
00000100
00010000
00000010
00000001
,  // measure 17
00000100
00010000
00001000
00100000
,  // measure 18
01100000
00001000
00010000
01000000
,  // measure 19
10000000
00100000
00001000
00010000
,  // measure 20
01000000
00100000
00001000
00010000
,  // measure 21
01000000
10000000
01000000
00010000
,  // measure 22
00001000
00000100
00000001
00000100
,  // measure 23
00001000
00010000
00000100
00000010
,  // measure 24
00000001
00000100
00000010
00010000
,  // measure 25
00001000
00100000
01000000
10000000
,  // measure 26
00010000
00100000
00001000
00010000
,  // measure 27
01000000
10000000
01000000
00010000
,  // measure 28
00001000
00000100
00000001
00000100
,  // measure 29
00000010
00010000
00001000
00000100
,  // measure 30
00000001
00000010
00000100
00010000
,  // measure 31
00000010
00000100
00001000
00010000
,  // measure 32
01000000
00100000
00001000
00010000
,  // measure 33
01000000
10000000
00010000
00100000
,  // measure 34
01000000
00100000
00001000
00010000
,  // measure 35
00000010
00000100
00000001
00000010
,  // measure 36
00000100
00010100
00001000
00000000
,  // measure 37
00000100
00000010
00010000
00001000
,  // measure 38
00100000
00010000
10000000
01000000
,  // measure 39
00001000
00100000
00010000
01000000
,  // measure 40
00100000
00001000
00010000
00000010
,  // measure 41
00000100
00000001
00000010
00010000
,  // measure 42
00000100
00000010
00000100
00001000
,  // measure 43
00010000
01000000
00100000
00011000
,  // measure 44
00010000
10000000
01000000
00000000
,  // measure 45
00010000
00101000
00001000
01000000
,  // measure 46
00100000
01000000
00010000
00001000
,  // measure 47
00000100
00000110
00010000
00000100
,  // measure 48
00000010
00000001
00000100
00000010
,  // measure 49
00001000
00001010
00010000
00000010
,  // measure 50
00000100
00001000
00010000
01000000
,  // measure 51
00100000
01100000
00001000
00100000
,  // measure 52
10000000
01000000
00100000
00010000
,  // measure 53
00001000
01000000
10000000
00100000
,  // measure 54
00010000
00001000
00000100
00000010
,  // measure 55
00000001
00001000
00000100
00000010
,  // measure 56
00000001
00000100
00000010
00010000
,  // measure 57
00000100
00000010
00001000
00010000
,  // measure 58
00000100
00000110
00010000
00000100
,  // measure 59
00000001
00000010
00000100
00010000
,  // measure 60
00001000
00100000
00010000
10000000
,  // measure 61
01000000
00000000
00101000
00000000
,  // measure 62
01000000
00010000
00001000
00000100
,  // measure 63
00000010
00001001
00000100
00000010
,  // measure 64
00000001
00000100
00000010
00010000
,  // measure 65
00001000
00101000
00100000
00010000
,  // measure 66
10000000
01000000
00100000
00001000
,  // measure 67
01100000
00010000
01000000
00010000
,  // measure 68
10000000
01100000
00001000
00010000
,  // measure 69
00000010
00000100
00000001
00000010
,  // measure 70
00001100
00000010
00000100
00000001
,  // measure 71
00000010
00010100
00000010
00000100
,  // measure 72
00001000
00010000
00100000
01000000
,  // measure 73
10010000
01000000
10000000
00100000
,  // measure 74
00001000
00010000
00000010
00000100
,  // measure 75
00001001
00000110
00000001
00000100
,  // measure 76
00000010
00001000
00010100
00001000
,  // measure 77
00110000
00000000
11000000
00000000
,  // measure 78
01000000
00000000
00100000
00000000
00000000
00101000
00000000
00000000
,  // measure 79
00010000
00000010
00000100
00000001
,  // measure 80
00000000
00000010
00000100
00000000
,  // measure 81
00022000
00033000
00000000
00000000
,  // measure 82
02200000
03300000
00000000
00000000
,  // measure 83
20020000
30030000
02200000
03300000
,  // measure 84
00010000
00001000
00000100
00000110
,  // measure 85
00000001
00000010
00001100
00000001
,  // measure 86
00000010
00001100
00000010
00010000
,  // measure 87
00001000
00000100
00011000
00000010
,  // measure 88
00000100
00011000
00000100
00010010
,  // measure 89
00001000
00010000
01001000
00010000
,  // measure 90
00001000
01010000
00100000
11000000
,  // measure 91
00010000
00100000
01010000
10000000
,  // measure 92
01000000
00110000
00001000
01010000
,  // measure 93
00001000
00100000
01010000
00001000
,  // measure 94
00010000
00001100
00000010
00000100
,  // measure 95
00000010
00000001
00000110
00001000
,  // measure 96
00000010
00001100
00010000
00000010
,  // measure 97
00000100
00001000
00010010
00000100
,  // measure 98
00001000
00010100
00000010
00000100
,  // measure 99
00001000
00000010
00011000
01000000
,  // measure 100
00100000
01010000
00100000
11000000
,  // measure 101
00100000
01000000
00110000
01000000
,  // measure 102
00010000
00101000
00010000
00001100
,  // measure 103
00000011
00000100
00000010
00001100
,  // measure 104
00000010
00010000
00000110
00000001
,  // measure 105
00000110
00001000
00000100
00010000
,  // measure 106
00101000
00010000
00100000
01000000
,  // measure 107
00110000
10000000
01000000
00100000
,  // measure 108
01001000
00100000
00001000
01000000
,  // measure 109
00110000
10000000
10010000
01000000
,  // measure 110
01100000
00101000
00011000
00000000
,  // measure 111
00010010
00001000
00000110
00000100
,  // measure 112
00001100
00000011
00000110
00000000
,  // measure 113
00001001
00000010
00000101
00001000
,  // measure 114
00000110
00001100
00010010
00000000
,  // measure 115
00011000
00100000
00101000
00001000
,  // measure 116
01010000
01100000
11000000
00000000
,  // measure 117
10010000
01100000
00110000
00101000
,  // measure 118
00110000
00101000
00011000
00010010
,  // measure 119
00011000
00010010
00000110
00001001
,  // measure 120
00000110
00001001
00000110
00000011
,  // measure 121
00000110
00001001
00001100
00010010
,  // measure 122
00010100
00000110
00001100
00011000
,  // measure 123
00010100
00101000
00010100
01100000
,  // measure 124
10100000
00110000
01200000
00000000
,  // measure 125
00301000
00000000
00000000
00000000
;

//---------------dance-double - ----------------
#NOTES:
     dance-double:
     :
     Easy:
     7:
     0.444,0.505,0.072,0.009,0.000: // measure 1
00000000
00000000
00000000
00000000
,  // measure 2
00000000
00000000
00000000
00000000
,  // measure 3
00000000
00000000
00000000
00000000
,  // measure 4
00000000
00000000
00000000
00000000
,  // measure 5
01100000
00000000
00000000
00000000
,  // measure 6
00000000
00000000
00000000
00000000
,  // measure 7
00000000
00000000
00000000
00000000
,  // measure 8
00000000
00000000
00000000
00000000
,  // measure 9
00001100
00000000
00000000
00000000
,  // measure 10
00000000
00000000
00000000
00000000
,  // measure 11
00000101
00000000
00000000
00000000
,  // measure 12
00010000
00000000
00001000
00100000
,  // measure 13
01000000
00000000
11000000
00000000
,  // measure 14
10000000
00000000
01000000
00000000
,  // measure 15
00010000
00000000
00001100
00000000
,  // measure 16
00000010
00000000
00010000
00001000
,  // measure 17
00000100
00000000
00000001
00001000
,  // measure 18
00000100
00000000
00000010
00000100
,  // measure 19
00010000
00000000
00001000
00000000
,  // measure 20
00100000
01000000
00010000
00000000
,  // measure 21
00001000
00010000
01000000
00000000
,  // measure 22
10000000
00100000
00010000
00000000
,  // measure 23
00001000
00010000
00000100
00000000
,  // measure 24
00000010
00000001
00001000
00000000
,  // measure 25
00000010
00000100
00010000
00000000
,  // measure 26
00001000
00000100
00010000
00000000
,  // measure 27
00100000
01000000
00001000
00000000
,  // measure 28
00010000
01000000
00001000
00000000
,  // measure 29
01000000
00000000
00100000
00001000
,  // measure 30
00010000
01000000
10000000
00000000
,  // measure 31
01000000
00000000
00100000
00001000
,  // measure 32
00010000
00000100
00000001
00000000
,  // measure 33
00000010
00001000
00000001
00000000
,  // measure 34
00000100
00000010
00010000
00000000
,  // measure 35
00001000
00000100
00000010
00000000
,  // measure 36
00001000
00010000
00000100
00000000
,  // measure 37
00001000
00100000
00010000
00100000
,  // measure 38
00010000
00100000
00010000
00000000
,  // measure 39
10000000
01000000
00100000
00001000
,  // measure 40
00100000
00001000
00100000
00000000
,  // measure 41
00001000
00010000
00000100
00000010
,  // measure 42
00000100
00000010
00000100
00000000
,  // measure 43
00001000
00000100
00010000
00000010
,  // measure 44
00000100
00000010
00000100
00000000
,  // measure 45
00001000
00000000
00010000
00000000
,  // measure 46
01000000
00100000
00001000
00000000
,  // measure 47
00010000
00000000
00100000
00000000
,  // measure 48
10000000
01000000
00100000
00000000
,  // measure 49
00001000
00000000
00010000
00000000
,  // measure 50
00000010
00000100
00000001
00000000
,  // measure 51
00000010
00000000
00010000
00000000
,  // measure 52
00000100
00001000
00000010
00000000
,  // measure 53
00010000
00001000
00100000
00000000
,  // measure 54
00001000
00010000
01000000
00000000
,  // measure 55
00100000
01000000
10000000
00000000
,  // measure 56
00100000
00001000
00010000
00000000
,  // measure 57
00001000
00000100
00000010
00000000
,  // measure 58
00010000
00001000
00000100
00000000
,  // measure 59
00000001
00000010
00000100
00000000
,  // measure 60
00010000
00000010
00000001
00000000
,  // measure 61
00001000
00000000
00000100
00000000
,  // measure 62
00010000
00001000
00010000
00001000
,  // measure 63
00100000
00000000
00010000
00000000
,  // measure 64
10000000
01000000
10000000
01000000
,  // measure 65
00010000
00000000
00001000
00000000
,  // measure 66
00100000
01000000
00100000
01000000
,  // measure 67
10000000
00000000
00100000
00000000
,  // measure 68
00010000
00001000
00010000
00001000
,  // measure 69
00000100
00000000
00000010
00000000
,  // measure 70
00001000
00000001
00001000
00000001
,  // measure 71
00000010
00000000
00000100
00000000
,  // measure 72
00010000
00000010
00010000
00000010
,  // measure 73
00000100
00000000
00001000
00000000
,  // measure 74
00000100
00000001
00000100
00000001
,  // measure 75
00001000
00000000
00000100
00000000
,  // measure 76
00010000
00000010
00001000
00000000
,  // measure 77
00100000
00000000
00000000
00000000
,  // measure 78
00000000
00000000
00000000
00000000
,  // measure 79
10000000
00000000
00000000
00000000
,  // measure 80
00000000
00000000
00000000
00000000
,  // measure 81
01010000
00000000
00000000
00000000
,  // measure 82
00011000
00000000
00000000
00000000
,  // measure 83
00000100
00000000
00000110
00000000
,  // measure 84
00000001
00000100
00001000
00000000
,  // measure 85
00010000
00001000
00010000
00001000
,  // measure 86
00010000
00100000
00000000
00000000
,  // measure 87
10000000
01000000
10000000
01000000
,  // measure 88
10000000
01000000
00100000
00000000
,  // measure 89
00001000
00010000
00001000
00010000
,  // measure 90
00001000
00000010
00000000
00000100
,  // measure 91
00000010
00001000
00000010
00001000
,  // measure 92
00000010
00001000
00000001
00000000
,  // measure 93
00000010
00000100
00000010
00000100
,  // measure 94
00000000
00010000
00001000
00000000
,  // measure 95
00100000
00010000
00100000
00010000
,  // measure 96
00000000
10000000
01000000
00000000
,  // measure 97
00010000
00100000
00010000
00100000
,  // measure 98
00000000
01000000
00001000
00000000
,  // measure 99
00010000
00000100
00010000
00000100
,  // measure 100
00000000
00000010
00000001
00000000
,  // measure 101
00001000
00000100
00001000
00000100
,  // measure 102
00000000
00010000
00000010
00000000
,  // measure 103
00000100
00001000
00000100
00001000
,  // measure 104
00000000
00010000
00100000
00000000
,  // measure 105
01000000
00100000
01000000
00100000
,  // measure 106
00000000
00010000
10000000
00000000
,  // measure 107
00100000
00010000
00100000
00010000
,  // measure 108
00000000
00001000
01000000
00000000
,  // measure 109
00010000
00001000
00000100
00000001
,  // measure 110
00001000
00000010
00000001
00000000
,  // measure 111
00001000
00010000
01000000
10000000
,  // measure 112
00010000
00100000
10000000
00000000
,  // measure 113
01000000
00010000
00100000
00000000
,  // measure 114
00001000
00010000
00000010
00000000
,  // measure 115
00000100
00001000
00000010
00000000
,  // measure 116
00001000
00010000
00100000
00000000
,  // measure 117
00001000
00100000
00001000
00010000
,  // measure 118
00000010
00001000
00000010
00010000
,  // measure 119
00001000
00100000
00010000
10000000
,  // measure 120
00010000
00100000
01000000
00100000
,  // measure 121
00001000
00010000
00000010
00010000
,  // measure 122
00001000
00000100
00000010
00001000
,  // measure 123
00000010
00000100
00000001
00000010
,  // measure 124
00000100
00010000
00000020
00000000
,  // measure 125
00000030
00000000
00000000
00000000
;

//---------------dance-double - ----------------
#NOTES:
     dance-double:
     :
     Challenge:
     11:
     1.000,1.000,0.779,0.091,0.000: // measure 1
00000000
00000000
00000000
00000000
,  // measure 2
00000000
00000000
00000000
00000000
,  // measure 3
00000000
00000000
00000000
00000000
,  // measure 4
00000000
00000000
00000000
00000000
,  // measure 5
11000000
00000000
00000000
00100000
00000000
00000000
00000000
00000000
,  // measure 6
00000000
00010000
00000000
00001000
00000000
00010000
00000000
00001000
,  // measure 7
00000000
00000100
00000000
00000010
00000000
00000000
00000000
00000000
,  // measure 8
00000000
00000001
00000000
00000100
00000000
00000010
00000000
00000000
,  // measure 9
00011000
00000000
00000000
00100000
00000000
00000000
00000000
00000000
,  // measure 10
00000000
01000000
00000000
10000000
00000000
00010000
00000000
00000000
,  // measure 11
01100000
00000000
00000000
00000000
,  // measure 12
00011000
00000000
00000000
00000000
00000100
00000001
00000100
00000001
,  // measure 13
00000100
00000010
00001000
00000000
00000010
00001000
00010000
00000000
,  // measure 14
00001000
00010000
01000000
00000000
10000000
01000000
00010000
00000000
,  // measure 15
00100000
00010000
00100000
00000000
01000000
10000000
00010000
00000000
,  // measure 16
00100000
00001000
00010000
00000010
00000100
00000001
00001000
00000000
,  // measure 17
00000100
00000010
00000001
00000100
00000010
00000000
00001000
00000000
,  // measure 18
00000100
00010000
00000010
00010000
00001000
00100000
00010000
00000000
,  // measure 19
10000000
01000000
00100000
00010000
00100000
01000000
00010000
00001000
,  // measure 20
00000100
00001000
00000010
00000001
00000010
00000100
00001000
00000000
,  // measure 21
00000101
00001010
00001100
00010010
,  // measure 22
00011000
00000000
00101000
00000000
00010000
10000000
01000000
10000000
,  // measure 23
00110000
01100000
00101000
00010010
,  // measure 24
00011000
00000000
00000100
00000010
00000000
00000100
00000010
00000000
,  // measure 25
00000110
00000101
00001100
00001010
,  // measure 26
00010100
00000000
00010010
00000000
00001000
00010000
00100000
00001000
,  // measure 27
00110000
11000000
00110000
01100000
,  // measure 28
00022000
00000000
00000000
00033000
,  // measure 29
00000010
00000100
00000001
00000010
00000100
00000010
00000001
00001000
,  // measure 30
00000100
00001000
00000010
00010000
00000100
00010000
00000010
00010000
,  // measure 31
00000100
00010000
00000010
00010000
00001000
00100000
00001000
00010000
,  // measure 32
00001000
01000000
00001000
00100000
00001000
00010000
01000000
00010000
,  // measure 33
00001000
00010000
01000000
10000000
01000000
00010000
01000000
00010000
,  // measure 34
00001000
00010000
01000000
00010000
01000000
00100000
00010000
00100000
,  // measure 35
00001000
00100000
00001000
00000100
00001000
00010000
00000010
00010000
,  // measure 36
00001000
00000100
00000010
00001000
00000001
00000010
00000100
00000000
,  // measure 37
00001000
00000001
00000100
00000010
00001000
00000001
00000010
00000100
,  // measure 38
00001000
00000100
00000001
00000010
00001000
00000010
00000100
00010000
,  // measure 39
00000010
00010000
00001000
00100000
00010000
10000000
01000000
00100000
,  // measure 40
00010000
10000000
01000000
00100000
00010000
00100000
00001000
00010000
,  // measure 41
00000010
00010000
00001000
00000100
00000010
00001000
00000001
00000010
,  // measure 42
00000100
00001000
00000001
00000100
00000010
00001000
00000100
00000010
,  // measure 43
00000001
00000100
00000010
00001000
00000100
00010000
00001000
00100000
,  // measure 44
00010000
10000000
00100000
01000000
00010000
10000000
01000000
00000000
,  // measure 45
00100000
00010000
00001000
00000100
00000001
00001000
00000100
00000001
,  // measure 46
00001000
00000100
00000001
00001000
00000100
00000001
00000010
00000000
,  // measure 47
00000100
00001000
00010000
00100000
10000000
00010000
00100000
10000000
,  // measure 48
00010000
00100000
10000000
00010000
00100000
10000000
01000000
00000000
,  // measure 49
10000000
01000000
00100000
00010000
00001000
00100000
00010000
00001000
,  // measure 50
00100000
00010000
00001000
00100000
00010000
00001000
00000100
00000000
,  // measure 51
00000001
00000010
00000100
00010000
00000010
00000100
00010000
00000010
,  // measure 52
00000100
00010000
00000010
00000100
00001000
00000100
00000010
00000000
,  // measure 53
00010000
00001000
01000000
00100000
00010000
00001000
00100000
01000000
,  // measure 54
00001000
00010000
01000000
00100000
00010000
00001000
00000100
00000000
,  // measure 55
00000010
00010000
00001000
01000000
00010000
00001000
01000000
00100000
,  // measure 56
00010000
10000000
00100000
01000000
10000000
00010000
01000000
00000000
,  // measure 57
10000000
00100000
00010000
00001000
00100000
01000000
00010000
00001000
,  // measure 58
00000100
00000010
00001000
00000001
00000010
00001000
00000100
00000000
,  // measure 59
00000010
00000001
00001000
00000100
00000001
00001000
00000100
00000010
,  // measure 60
00010000
00001000
00100000
01000000
00010000
00100000
10000000
00000000
,  // measure 61
01000000
10000000
01000000
10000000
01000000
00010000
01000000
00010000
,  // measure 62
00001000
00010000
01000000
00010000
00001000
00010000
01000000
00000000
,  // measure 63
00100000
00010000
00001000
00010000
00000010
00000100
00000010
00001000
,  // measure 64
00000100
00001000
00000001
00000010
00000001
00001000
00000100
00000000
,  // measure 65
00010000
00000010
00010000
00000100
00000010
00000100
00000001
00000010
,  // measure 66
00000001
00001000
00000100
00001000
00010000
00001000
01000000
00000000
,  // measure 67
00100000
01000000
00100000
01000000
00001000
01000000
00010000
00001000
,  // measure 68
00010000
00000010
00000100
00000010
00001000
00000010
00000100
00000000
,  // measure 69
00001000
00000010
00001000
00000001
00000100
00000001
00001000
00000100
,  // measure 70
00001000
00010000
00100000
00010000
01000000
10000000
01000000
00000000
,  // measure 71
00100000
10000000
00100000
00010000
01000000
00010000
00001000
00100000
,  // measure 72
00001000
00000100
00000001
00000100
00000010
00001000
00000010
00000000
,  // measure 73
00000100
00000001
00000100
00001000
00000010
00001000
00010000
01000000
,  // measure 74
00010000
00100000
10000000
00100000
00010000
00001000
00010000
00000000
,  // measure 75
00000100
00000010
00000100
00010000
00001000
00010000
00100000
01000000
,  // measure 76
00100000
10000000
00010000
10000000
01000000
00001000
01000000
00000000
,  // measure 77
02100000
00100000
00000000
00000000
00000000
00000000
00000000
00000000
,  // measure 78
00000000
00000000
00000000
00001000
00000000
00000000
03002000
00000000
,  // measure 79
00010000
00020000
00000000
00000000
00000000
00000000
00000000
00000000
,  // measure 80
00000000
00000000
00000000
00033000
,  // measure 81
00020100
00000100
00000000
00000000
00000000
00000000
00030000
00000000
,  // measure 82
00000201
00000000
00001000
00000000
00000000
00001000
00000300
00000000
,  // measure 83
00010200
00010000
00000300
00000000
02020000
00000000
03030000
00000000
,  // measure 84
11000000
00000000
01010000
00000000
00010000
00000100
00000001
00000010
,  // measure 85
00000100
00001000
00010000
00000010
00000100
00010000
00001000
00000010
,  // measure 86
00000100
00001000
00010000
00000010
00000001
00000010
00001000
00000000
,  // measure 87
01000000
00010000
00001000
00100000
01000000
00001000
00010000
00100000
,  // measure 88
01000000
00010000
00001000
00100000
00010000
00100000
10000000
00000000
,  // measure 89
00100000
00001000
00010000
01000000
00100000
00010000
00001000
01000000
,  // measure 90
00100000
00001000
00010000
01000000
10000000
01000000
00010000
00000000
,  // measure 91
00000010
00010000
00001000
00000100
00000010
00001000
00010000
00000100
,  // measure 92
00000010
00010000
00001000
00000100
00000001
00000100
00001000
00000000
,  // measure 93
01000000
00010000
01000000
00010000
10000000
01000000
10000000
01000000
,  // measure 94
00010000
00001000
00010000
00000100
00000010
00000100
00000001
00000000
,  // measure 95
00000100
00000001
00000100
00000001
00000100
00001000
00000100
00001000
,  // measure 96
00010000
00001000
00010000
00100000
10000000
00100000
00010000
00000000
,  // measure 97
00100000
00010000
00100000
00010000
10000000
01000000
10000000
01000000
,  // measure 98
00010000
00001000
00010000
00000100
00001000
00000100
00000001
00000000
,  // measure 99
00000100
00000001
00000100
00000001
00001000
00000010
00001000
00000010
,  // measure 100
00010000
00001000
00010000
00100000
10000000
00100000
00010000
00000000
,  // measure 101
00001000
00000100
00000001
00000100
00010000
00000100
00000010
00000100
,  // measure 102
00010000
00000010
00010000
00000100
00000010
00000100
00010000
00000000
,  // measure 103
00010000
00100000
10000000
00100000
00001000
00100000
01000000
00100000
,  // measure 104
00001000
01000000
00001000
00100000
01000000
00100000
00001000
00000000
,  // measure 105
00000100
00001000
00000100
00000001
00000100
00010000
00001000
00000100
,  // measure 106
00000010
00000001
00001000
00000010
00000001
00000100
00001000
00000000
,  // measure 107
00100000
00010000
00100000
10000000
00100000
00001000
00010000
00100000
,  // measure 108
01000000
00010000
10000000
01000000
10000000
00100000
00010000
00000000
,  // measure 109
00000110
00011000
00101000
00110000
,  // measure 110
11000000
00000000
00110000
00000000
00001000
00100000
00010000
00000010
,  // measure 111
00000110
00001001
00000110
00001001
,  // measure 112
00010100
00000000
00000100
00001000
00000000
00010000
00100000
00000000
,  // measure 113
10010000
01100000
00101000
00010010
,  // measure 114
00001100
00000000
00000011
00000000
00000010
00001000
00000001
00000010
,  // measure 115
00001100
00010010
00010100
00101000
,  // measure 116
00100000
00010000
01000000
10000000
00010000
00100000
01000000
00001000
,  // measure 117
00010010
00000011
00010010
00000011
,  // measure 118
00101000
10100000
00101000
10100000
,  // measure 119
00010010
00000011
00010010
00000011
,  // measure 120
00101000
10100000
00101000
10100000
,  // measure 121
00010100
00000101
00010100
00000101
,  // measure 122
01001000
11000000
01001000
11000000
,  // measure 123
00010100
00000101
00010100
00000101
,  // measure 124
01001000
11000000
01001000
11000000
;

//---------------dance-single - ----------------
#NOTES:
     dance-single:
     :
     Beginner:
     3:
     0.219,0.281,0.036,0.000,0.000:
0000
0000
0000
0000
,
0000
0000
0000
0000
,
0000
0000
0000
0000
,
0000
0000
0000
0000
,
1001
0000
0000
0000
,
0000
0000
0000
0000
,
0000
0000
0000
0000
,
0000
0000
0000
0000
,
0110
0000
0000
0000
,
0000
0000
0000
0000
,
1001
0000
0000
0000
,
1001
0000
0000
0000
,
1000
0000
0000
0000
,
0000
0000
0000
0000
,
0001
0000
0000
0000
,
0000
0000
0000
0000
,
1000
0000
0000
0000
,
0000
0000
0000
0000
,
0001
0000
0000
0000
,
0000
0000
0000
0000
,
0010
0000
0010
0000
,
0010
0000
0010
0000
,
0010
0000
0010
0000
,
0010
0000
0010
0000
,
0010
0000
0010
0000
,
0010
0000
0010
0000
,
0010
0000
0010
0000
,
0010
0000
0000
0000
,
0001
0000
0100
0000
,
0000
0000
0000
0000
,
1000
0000
0100
0000
,
0000
0000
0000
0000
,
0001
0000
0100
0000
,
0000
0000
0000
0000
,
1000
0000
0100
0000
,
0000
0000
0000
0000
,
0001
0000
0010
0000
,
0010
0000
0010
0000
,
1000
0000
0010
0000
,
0010
0000
0010
0000
,
0001
0000
0010
0000
,
0010
0000
0010
0000
,
1000
0000
0010
0000
,
0010
0000
0000
0000
,
0001
0000
0100
0000
,
1000
0000
0100
0000
,
0001
0000
0010
0000
,
1000
0000
0010
0000
,
0001
0000
0100
0000
,
1000
0000
0100
0000
,
0001
0000
0010
0000
,
1000
0000
0010
0000
,
0100
0000
0001
0000
,
0100
0000
1000
0000
,
0010
0000
0001
0000
,
0010
0000
1000
0000
,
0100
0000
0001
0000
,
0100
0000
1000
0000
,
0010
0000
0001
0000
,
0010
0000
0000
0000
,
0100
0000
0100
0000
,
0100
0000
0100
0000
,
0100
0000
0100
0000
,
0100
0000
0100
0000
,
0100
0000
0100
0000
,
0100
0000
0100
0000
,
0100
0000
0100
0000
,
0100
0000
0100
0000
,
0100
0000
0100
0000
,
0100
0000
0100
0000
,
0100
0000
0100
0000
,
0100
0000
0100
0000
,
0100
0000
0100
0000
,
0100
0000
0100
0000
,
0100
0000
0100
0000
,
0100
0000
0100
0000
,
0010
0000
0000
0000
,
0000
0000
0000
0000
,
0000
0000
0000
0000
,
0000
0000
0000
0000
,
0010
0000
0000
0000
,
0010
0000
0000
0000
,
0001
0000
0001
0000
,
1000
0000
1000
0000
,
0010
0000
0001
0000
,
0000
0000
0000
0000
,
0010
0000
1000
0000
,
0000
0000
0000
0000
,
0010
0000
0001
0000
,
0000
0000
0000
0000
,
0010
0000
1000
0000
,
0000
0000
0000
0000
,
0001
0000
0000
0000
,
1000
0000
0000
0000
,
0001
0000
0000
0000
,
0010
0000
0000
0000
,
1000
0000
0000
0000
,
0001
0000
0000
0000
,
1000
0000
0000
0000
,
0010
0000
0000
0000
,
0100
0000
0000
0000
,
0001
0000
0000
0000
,
1000
0000
0000
0000
,
0001
0000
0000
0000
,
0100
0000
0000
0000
,
1000
0000
0000
0000
,
0001
0000
0000
0000
,
1000
0000
0000
0000
,
0010
0000
0000
0000
,
0100
0000
0000
0000
,
0001
0000
0000
0000
,
1000
0000
0000
0000
,
0100
0000
0000
0000
,
0010
0000
0000
0000
,
1000
0000
0000
0000
,
0001
0000
0000
0000
,
0010
0000
0010
0000
,
0010
0000
0010
0000
,
0010
0000
0010
0000
,
0010
0000
0010
0000
,
0010
0000
0010
0000
,
0010
0000
0010
0000
,
0010
0000
0010
0000
,
0010
0000
0010
0000
,
0010
0000
0000
0000
;
