#TITLE:PARANOIA EVIL;
#SUBTITLE:(another);
#ARTIST:ReMIX by TIME;
#TITLETRANSLIT:;
#SUBTITLETRANSLIT:;
#ARTISTTRANSLIT:;
#CREDIT:;
#BANNER:PARANOiA EVIL(A).png;
#BACKGROUND:PARANOiA EVIL(A)-bg.png;
#LYRICSPATH:;
#CDTITLE:cdtitle.png;
#MUSIC:PARANOIA EVIL(A).mp3;
#OFFSET:0.060;
#SAMPLESTART:11.500;
#SAMPLELENGTH:12.000;
#SELECTABLE:YES;
#DISPLAYBPM:114.000:456.000;
#BPMS:0.000=228.000,84.000=114.000,92.000=228.000,352.000=912.010,355.000=455.997,360.000=303.999,364.000=259.999,367.000=199.999,368.000=114.999,369.000=59.999,370.000=44.999,372.000=912.010,375.000=143.999,376.000=455.997,412.000=228.000;
#STOPS:384.000=0.200
;
#BGCHANGES:;

//---------------dance-single - BASIC----------------
#NOTES:
     dance-single:
     BASIC:
     Easy:
     6:
     0.425,0.642,0.163,0.296,0.000:
0000
0000
0000
0000
,
0000
0000
0000
0000
,
0000
0000
0000
0000
,
0000
0000
0000
0000
,
0000
0000
0000
0000
,
1000
0010
0100
0001
,
1000
0100
0010
0001
,
0100
0010
1000
0100
,
0200
0000
0000
0300
,
0000
0001
0100
0010
,
1000
0001
0100
0010
,
1000
0001
0010
0100
,
0200
0000
0000
0300
,
0000
0010
0100
0001
,
1000
0010
0020
0030
,
0000
0001
0100
0010
,
1000
0001
0200
0300
,
0000
0100
0010
1000
,
0001
0100
0200
0300
,
0000
1000
0010
0100
,
0001
1000
0020
0030
,
1001
0110
1001
1010
,
0101
0110
1100
0110
,
1001
1000
0010
0100
,
0001
0100
0010
1000
,
0001
0100
0010
1000
,
0100
0001
0010
2000
,
3000
0001
0000
0001
0000
0001
0001
0001
,
0000
0001
0000
0001
0000
0001
0001
0001
,
0000
1000
0000
0100
0000
0001
0000
2002
,
0000
0000
3003
1000
,
0000
1000
0000
1000
0000
1000
1000
1000
,
0000
1000
0000
1000
0000
1000
1000
1000
,
0000
1000
0000
0100
0000
0001
0000
2002
,
0000
0000
3003
0001
,
0000
0100
1000
0100
,
0010
0001
0010
1000
,
0100
1000
0010
0001
,
0020
0030
0000
0000
,
0000
1000
0100
0010
,
1000
0100
0010
0001
,
0010
0100
0001
0010
,
0100
1000
0010
0100
0001
0000
0200
0000
,
0301
0000
0010
0100
,
0001
0110
1001
0000
,
2000
3020
0230
0302
,
0023
0000
0230
0000
2300
0000
3000
0002
,
2000
0000
0000
3003
,
1000
0000
1000
0000
,
1000
0000
0001
0001
,
0001
0000
0001
0000
,
0001
0000
1000
1000
,
1000
0000
1000
0000
,
1000
0000
0001
0001
,
0001
0000
0001
0000
,
0001
0000
1000
1000
,
1000
0010
0001
0010
,
0100
1000
0100
0001
,
0010
0001
0100
1000
,
0200
0300
0000
0000
,
0000
0001
0010
0100
,
0001
0010
0100
1000
,
0100
0010
1000
0100
,
0010
0001
0100
0010
1000
0000
0010
0000
,
1001
0000
0000
0000
0000
0000
0000
1000
,
0001
0000
0000
0000
0000
0000
0000
0100
,
0010
0000
0010
0000
,
0100
1000
0001
0100
,
1001
0000
0000
0000
0000
0000
0000
1000
,
0001
0000
0000
0000
0000
0000
0000
0100
,
0010
0000
0010
0000
,
0100
1000
0001
0100
,
1001
0010
0100
1000
,
0020
0000
0030
0000
,
0000
1000
0001
0010
,
1000
0200
0300
0000
,
1000
0100
0010
0001
,
0200
0000
0300
0000
,
0000
0001
1000
0100
,
0001
0020
0030
0000
,
1000
0100
0010
0001
,
0200
0000
0300
0000
,
0000
0001
1000
0100
,
0001
0020
0030
0000
,
0001
0010
0100
1000
,
0020
0000
0030
0000
,
0000
1000
0001
0010
,
1000
0200
0300
0000
,
1001
0000
0000
0000
,
0000
0000
0000
0000
,
0000
0000
0000
0000
,
0000
0000
0000
0000
,
0000
0000
0000
0000
,
0000
0000
0000
0000
,
1000
0000
0010
0000
,
0001
0000
0100
0000
,
1000
0000
0000
0000
;

//---------------dance-single - TRICK----------------
#NOTES:
     dance-single:
     TRICK:
     Medium:
     9:
     0.583,0.688,0.306,0.306,0.000:
0000
0000
0000
0000
,
0000
0000
0000
0000
,
0000
0000
0000
0000
,
0000
0000
0000
0000
,
0000
0000
0000
0000
,
1000
0100
0010
0000
1000
0100
0001
0000
,
0001
0010
0100
0000
0001
0100
1000
0000
,
0100
0010
1000
0100
,
0200
0000
0000
0300
,
1000
0100
0001
0000
1000
0100
0010
0000
,
0001
0100
1000
0000
0001
0010
0100
0000
,
1000
0001
0010
0100
,
0200
0000
0000
0300
,
0000
0000
0010
0100
0010
1000
0100
0010
,
0001
1000
0010
0100
0020
0000
0030
0000
,
0000
0000
0001
0010
0100
1000
0010
0100
,
0001
1000
0010
0100
0200
0000
0300
0000
,
0000
0000
0100
0010
0100
0001
0010
0100
,
1000
0001
0100
0010
0200
0000
0300
0000
,
0000
0000
1000
0100
0010
0001
0100
0010
,
1000
0001
0100
0010
0020
0000
0030
0000
,
1001
0000
0110
0000
1001
0000
1000
0100
,
0001
0000
0110
0000
1000
0100
0001
0010
,
1000
1010
0110
0101
,
0010
0110
0100
1001
,
0100
1010
0100
1001
,
0110
0000
1001
0000
0110
0000
1000
0100
,
0001
0010
0000
1000
0000
0100
0001
0010
,
0000
0001
0000
0010
0000
0100
1000
0010
,
0000
0001
0000
0100
0000
1000
0010
2002
,
0000
0000
3003
1000
,
0000
0100
0000
0001
0000
0010
1000
0100
,
0000
1000
0000
0100
0000
0010
0001
0100
,
0000
1000
0000
0010
0000
0001
0100
2002
,
0000
0000
0000
3003
,
0000
0100
1000
0100
,
0001
1000
0001
0000
0100
0000
1000
0000
,
0100
1000
0100
0010
0001
0010
0100
0010
,
0020
0000
0000
0030
,
0000
0000
1000
0100
0010
0000
0001
0000
,
0010
0100
1000
0100
0010
0001
0000
1000
,
0000
0010
0100
0010
1000
0001
0000
1000
,
0010
0100
0001
0100
0010
1000
0200
0000
,
0301
0000
0010
0100
,
0001
0110
1001
0000
,
2000
3020
0230
0302
,
2003
3000
0200
0300
0020
0030
0002
2003
,
0002
0000
0000
3003
,
1000
0100
1000
0010
,
1000
0100
0001
0010
,
0001
0100
0001
0010
,
1000
0100
1000
0010
,
1000
0010
0001
0010
,
0001
0100
0001
0100
,
1000
0100
1000
0010
,
1000
0010
0001
0100
,
1001
0010
0001
0010
,
1000
0100
1000
0000
0010
0000
0001
0000
,
0010
0001
0010
0100
1000
0100
0010
0100
,
0200
0000
0000
0300
,
0000
0000
0001
0010
0100
0000
1000
0000
,
0100
0010
0001
0010
0100
1000
0000
0001
,
0000
0100
0010
0100
0001
1000
0000
0001
,
0100
0010
1000
0010
0100
0001
0020
0000
,
1030
0000
0100
0000
0010
0000
0100
1000
,
1001
0000
0010
0000
0100
0000
0010
0100
,
0110
0000
1010
0000
,
1001
0010
0100
0110
,
1001
0000
0010
0000
0100
0000
0010
0001
,
1001
0000
0100
0000
0010
0000
0100
0010
,
0110
0000
0101
0000
,
1001
0100
0010
0110
,
1001
0010
0100
1000
,
0020
0000
0000
0000
1030
0010
0000
0100
,
0000
1000
0001
0010
,
1000
0200
0300
0000
,
1000
0100
0010
0001
,
0200
0000
0000
0000
0301
0100
0000
0010
,
0000
0001
1000
0100
,
0001
0020
0030
0000
,
1000
0100
0010
0001
,
0200
0000
0000
0000
0301
0100
0000
0010
,
0000
0001
1000
0100
,
0001
0020
0030
0000
,
0001
0010
0100
1000
,
0020
0000
0000
0000
1030
0010
0000
0100
,
0000
1000
0001
0010
,
1000
0200
0300
0000
,
1001
0000
0000
0000
,
0000
0000
0000
0000
,
0000
0000
0000
0000
,
0000
0000
0000
0000
,
0000
0000
0000
0000
,
0000
0000
0000
0000
,
1000
0001
0100
0010
,
1000
0001
0100
0010
,
1000
0000
0000
0000
;

//---------------dance-single - HEAVY----------------
#NOTES:
     dance-single:
     HEAVY:
     Hard:
     9:
     0.759,0.826,0.889,0.325,0.010:
0000
0000
0000
0000
,
0000
0000
0000
0000
,
0000
0000
0000
0000
,
0000
0000
0000
0000
,
0000
0000
0000
0000
,
1000
0010
0100
0001
0010
0100
0001
0000
,
1000
0010
0100
0010
0001
1000
0100
0000
,
0010
0000
0100
0000
1000
0000
0100
1000
,
1200
0000
0000
0300
,
0001
0100
0010
1000
0100
0010
1000
0000
,
0001
0100
0010
0100
1000
0001
0010
0000
,
0100
0000
0010
0000
0001
0000
0100
0001
,
0201
0000
0000
0300
,
0000
0000
0010
0100
0010
1000
0100
0010
,
0001
1000
0010
0100
0010
0000
1000
0100
,
0010
0000
0001
0010
0100
1000
0010
0100
,
0001
1000
0010
0100
0010
0000
1000
0001
,
0100
0000
0100
0010
0100
0001
0010
0100
,
1000
0001
0100
0010
0100
0000
0010
1000
,
0001
0000
1000
0100
0010
0001
0100
0010
,
1000
0001
0100
0010
0100
0001
1000
0000
,
1001
0000
0110
0000
1001
0000
1010
0100
,
0101
0000
0110
0000
1100
0100
0001
0010
,
1001
1010
0001
0101
,
0010
1100
0100
1001
,
0010
1000
1010
0000
0100
0001
1001
0000
,
0100
1000
1001
0000
0010
1000
0100
0001
,
0010
1000
0000
1100
0000
0100
0001
0010
,
0000
0001
0000
0011
0000
0100
1000
0010
,
0000
1001
0000
0110
0000
1000
0010
2002
,
0000
0000
3003
1000
,
0000
0100
0000
0101
0000
0010
1000
0100
,
0000
1000
0000
1100
0000
0010
0001
0100
,
0000
1001
0000
0110
0000
0001
0100
2002
,
0000
3003
0100
0010
0000
0000
1001
0000
,
0000
0000
0100
1000
1000
0100
0100
0010
,
0001
0010
0001
0010
0100
1000
1000
0100
,
0100
1000
0100
0010
0001
0010
0100
0010
,
0110
0000
0000
0011
0000
0000
1100
0000
,
0000
0000
1000
0100
0010
0001
0001
0010
,
0010
0100
1000
0100
0010
0001
1000
1000
,
0010
0010
0100
0010
1000
0001
0010
0010
,
1000
0100
1000
0010
1000
0001
0200
0000
,
0301
0000
0000
0000
0000
0000
0000
0000
1000
0001
0000
1000
0001
0000
0000
0000
,
1001
0110
1001
0000
,
2000
0000
3020
0000
0230
0000
0302
0003
,
2100
3000
0210
0300
0021
0030
1002
2003
,
0002
0000
0000
3003
,
1001
0100
1010
0010
,
1100
0100
0011
1010
,
0011
0010
0101
0010
,
1100
0100
1010
0011
,
1010
0100
1100
0010
,
0011
0100
1100
0101
,
1100
0010
0110
1000
,
0101
0010
1100
0101
,
1100
0000
0010
0001
0001
0010
0010
0100
,
1000
0100
1000
0100
0010
0001
0001
0010
,
0010
0001
0010
0100
1000
0100
0010
0100
,
1100
0000
0000
0110
0000
0000
0101
0000
,
0000
0000
0001
0010
0100
1000
1000
0100
,
0100
0010
0001
0010
0100
1000
0001
0001
,
0100
0100
0010
0100
0001
1000
0100
0100
,
0001
0010
0001
0100
0001
1000
0020
0000
,
1030
0000
0100
0000
0010
0000
0000
0001
,
1001
0000
0010
0000
0100
0000
0000
0100
,
0110
0001
1010
0100
,
1001
0000
0100
0000
1000
0010
0100
0001
,
1001
0000
0010
0000
0100
0000
0000
1000
,
1001
0000
0100
0000
0010
0000
0000
0010
,
0110
0010
0101
0100
,
1001
0000
0010
0000
0001
0010
0100
1000
,
1001
0000
0010
1000
0100
0010
0001
0100
,
0020
0000
0000
1030
0100
0000
0100
0000
,
0000
1100
0101
0110
,
1001
1200
0000
0300
,
0100
0001
0010
0100
1000
0010
0200
0000
,
0000
0000
0300
0001
0010
0000
0010
0000
,
0011
1010
0110
1001
,
0021
0000
0030
0000
,
1000
0000
0010
1000
0100
0010
0001
0100
,
0020
0000
0000
1030
0100
0000
0100
0000
,
0000
1100
0101
0110
,
1001
1200
0000
0300
,
0100
0001
0010
0100
1000
0010
0200
0000
,
0000
0000
0300
0001
0010
0000
0010
0000
,
0011
1010
0110
1001
,
0021
0000
0030
0000
,
1001
0000
0000
0000
,
0000
0000
0000
0000
,
0000
0000
0000
0000
,
0000
0000
0000
0000
,
0000
0000
0000
0000
,
0000
0000
0000
0000
,
0002
0203
2300
3020
,
0032
0203
2300
3020
,
0031
0000
0000
0000
;

//---------------dance-single - ONI----------------
#NOTES:
     dance-single:
     ONI:
     Challenge:
     12:
     0.978,1.000,1.000,0.478,0.368:
0000
0000
0000
0000
,
0000
0000
0000
0000
,
0000
0000
0000
0000
,
0000
0000
0000
0000
,
0000
0000
0000
0000
,
0000
0101
0110
1010
,
1001
0000
0110
0100
0101
0000
1100
0000
,
0110
0000
0101
0000
1010
0000
0110
0010
,
0210
0000
0000
0300
,
0000
1010
0110
0101
,
1001
0000
0110
0010
1010
0000
0011
0000
,
0110
0000
1010
0000
0101
0000
0110
0010
,
0210
0000
0000
0300
,
0000
0000
0010
0000
0100
0010
1000
0000
0001
0000
1000
0000
0010
0100
0000
0001
,
0000
1000
0100
0000
0010
0100
0010
0100
0010
0100
0010
0000
0001
0000
0001
0000
,
0001
0000
1000
0000
0100
0000
0010
0100
1000
0000
0001
0000
0100
0000
0010
0000
,
1000
0100
0010
0000
0001
0100
0001
0100
0001
0100
0001
0000
1000
0000
1000
0000
,
1000
0000
0010
0000
0100
0010
1000
0000
0001
0000
1000
0000
0010
0100
0000
0001
,
0000
1000
0100
0000
0010
0100
0010
0100
0010
0100
0010
0000
1000
0000
1000
0000
,
1000
0000
0001
0000
0010
0000
0100
0010
0001
0000
1000
0000
0010
0000
0100
0000
,
0001
0010
0100
0000
1000
0100
1000
0100
1000
0100
1000
0000
0001
0000
0001
0000
,
1001
0000
0110
0000
1001
0000
1010
0110
,
0101
0000
0000
0000
0110
0000
0000
0000
1100
0000
0100
0000
0001
0010
0100
1000
,
1001
1010
0001
0101
,
0010
1100
0100
1001
,
0000
1000
1010
1000
0000
0001
1001
0001
,
0000
1000
1001
1000
0010
1000
0100
0001
,
0010
1000
0000
1000
0000
0100
0001
0010
,
0000
0001
0000
0011
0000
0100
1000
0010
,
0000
1001
0000
0110
0000
1000
0010
2002
,
0000
0000
3000
1003
,
0000
0100
0000
0001
0000
0010
0001
0100
,
0000
1000
0000
1100
0000
0010
0001
0100
,
0000
1001
0000
0110
0000
1000
0100
2002
,
0000
0000
3003
0000
0100
0010
0100
0000
0000
0000
0000
0000
2002
3003
0000
0000
,
0000
0000
0000
1000
0100
0010
0100
1000
0100
1000
0001
0000
1000
0000
0010
0000
,
1000
0000
0001
0000
0001
0000
0010
0001
1000
0000
1000
0000
1000
0000
0100
0000
,
1000
0100
1000
0100
1000
0100
0010
0100
1000
0001
0010
0000
0100
0000
0010
0000
,
0220
0000
0330
0022
0000
0033
2200
0000
,
3300
0000
0000
1000
0100
0010
0100
1000
0001
1000
0001
0000
1000
0000
0010
0000
,
0100
0000
0001
0010
0100
0010
0001
1000
0001
0000
1000
0000
0100
0000
0010
0000
,
0001
0000
0100
0010
1000
0010
0100
0001
1000
0100
1000
0000
1000
0000
0010
0000
,
1000
0000
0100
0000
0001
0000
0010
0000
1000
0000
0001
0000
0100
0000
0000
0100
,
0001
0000
0000
0000
0000
0000
0000
0000
1000
0001
0000
0100
0010
0000
0100
0000
,
1001
0110
2002
3003
,
2000
0000
3020
0000
0230
0000
0302
0003
,
2100
3000
0210
0300
0021
0030
1002
2003
,
0002
0000
0000
3003
,
1001
0100
1010
0010
,
1100
0100
0011
1010
,
0011
0010
0101
0010
,
1100
0100
1010
0011
,
1010
0100
1100
0010
,
0011
0100
1100
0101
,
1100
0010
0110
1000
,
0101
0010
1100
0101
,
1100
0000
0000
0001
0010
0100
0010
0001
0010
0001
1000
0000
0001
0000
0100
0000
,
0001
0000
1000
0000
1000
0000
0100
1000
0001
0000
0001
0000
0001
0000
0010
0000
,
0001
0010
0001
0010
0001
0010
0100
0010
0001
1000
0100
0000
0010
0000
0100
0000
,
0220
0000
0330
2200
0000
3300
0022
0000
,
0033
0000
0000
0001
0010
0100
0010
0001
1000
0001
1000
0000
0001
0000
0100
0000
,
0010
0000
1000
0100
0010
0100
1000
0001
1000
0000
0001
0000
0010
0000
0100
0000
,
1000
0000
0010
0100
0001
0100
0010
1000
0001
0010
0001
0000
0001
0000
0100
0000
,
0001
0000
0010
0000
1000
0000
0100
0000
0001
0000
1000
0000
0010
0000
0000
0010
,
1000
0100
0100
0010
0010
0000
0000
0001
,
1001
0001
0010
0010
0100
0000
0000
0100
,
0110
0001
1010
0100
,
1001
0000
0110
0000
1000
0010
0100
0001
,
1001
0001
0010
0010
0100
0000
0000
1000
,
1001
1000
0100
0100
0010
0000
0000
0010
,
0110
0010
0101
0100
,
1001
0000
0110
0000
0001
0010
0100
1000
,
1001
0000
0100
0000
0000
0000
1000
0000
0000
0000
0010
0000
0001
0000
0100
0020
,
0000
0000
0000
1030
0100
0000
0100
0000
,
1000
0100
0010
0001
1001
0000
0110
0000
,
1001
1100
0101
1100
,
0100
0000
0001
0000
0000
0000
0100
0000
0000
0000
0010
0000
0100
0000
0001
0200
,
0000
0000
0300
0001
0010
0000
0010
0000
,
0001
0010
0100
1000
1001
0000
0110
0000
,
0101
1100
0101
1001
,
0001
0000
0010
0000
0000
0000
0001
0000
0000
0000
0100
0000
1000
0000
0010
0200
,
0000
0000
0000
0301
0010
0000
0010
0000
,
0001
0010
0100
1000
1001
0000
0110
0000
,
1001
0011
1010
0011
,
0010
0000
1000
0000
0000
0000
0010
0000
0000
0000
0100
0000
0010
0000
1000
0020
,
0000
0000
0030
1000
0100
0000
0100
0000
,
1000
0100
0010
0001
1001
0000
0110
0000
,
1100
0101
1100
1001
,
1000
0100
1000
0100
,
0010
0001
0010
0001
,
1000
0010
0100
0001
,
1000
0100
0010
0001
,
0100
0000
0000
0000
0000
0000
0000
0000
0000
0000
0000
0000
0000
0000
0000
0000
1000
0000
0000
0000
0000
0000
0000
0000
0000
0000
0000
0000
0000
0000
0000
0000
1020
0000
0000
0000
0000
0000
0000
0000
0000
0000
0000
0000
0000
0000
0000
0030
0201
0000
0000
0000
0000
0000
0000
0000
0000
0000
0000
0000
0000
0000
0000
0000
,
0301
1000
0001
1000
,
2002
3003
0200
0300
0020
0030
0200
0300
,
2002
3003
0020
0030
0200
0300
0020
0030
,
2002
3003
0000
0000
0000
0000
0000
0000
;

//---------------dance-single - Copied from BASIC----------------
#NOTES:
     dance-single:
     Copied from BASIC:
     Beginner:
     2:
     0.235,0.367,0.143,0.000,0.000:
0000
0000
0000
0000
,
0000
0000
0000
0000
,
0000
0000
0000
0000
,
0000
0000
0000
0000
,
0000
0000
0000
0000
,
1000
0000
0000
0001
,
1000
0000
0000
0001
,
0000
0000
0100
0100
,
0100
0000
0000
0000
,
0000
0001
0000
0000
,
1000
0001
0000
0000
,
1000
0000
0100
0100
,
0100
0000
0000
0000
,
0000
0010
0000
0010
,
0000
0010
0010
0010
,
0000
0100
0000
0100
,
0000
0100
0100
0100
,
0000
1000
0000
1000
,
0000
1000
1000
1000
,
0000
0001
0000
0001
,
0000
0001
0001
0001
,
1000
0010
0100
0001
,
0100
0010
1000
0001
,
1001
0000
0010
0000
,
0100
0000
0001
0000
,
1000
0000
0010
0000
,
0001
0000
0100
0000
,
1000
0001
0000
0001
,
0000
0001
0000
0001
,
0000
0000
1000
0000
,
1001
0000
0000
0000
,
0000
1000
0000
1000
,
0000
1000
0000
1000
,
0000
0000
0001
0000
,
1001
0000
0000
0000
,
0000
0100
0000
0100
,
0000
0001
0000
1000
,
0000
1000
0000
0000
,
0010
0010
0010
0000
,
0000
0000
0000
1000
,
1000
0000
0000
0001
,
0001
0000
0100
0100
,
0000
0010
0000
0100
,
0000
0000
0000
0110
,
0000
0000
1001
0000
,
1000
0000
0001
0000
,
0100
0000
0010
0000
,
1001
0000
0000
0000
,
1000
0000
1000
0000
,
1000
0000
0001
0001
,
0001
0000
0001
0000
,
0001
0000
1000
1000
,
1000
0000
1000
0000
,
1000
0000
0001
0001
,
0001
0000
0001
0000
,
0001
0000
1000
0000
,
0000
0001
0000
0100
,
0000
0100
0000
0001
,
0000
1000
0000
1000
,
0000
0010
0010
0010
,
0000
0000
0000
1000
,
1000
0000
0000
0001
,
0001
0000
0100
0100
,
0000
0010
0000
0100
,
0000
0000
0000
0000
,
1001
0000
0000
0000
,
0110
0000
0000
0000
,
0000
0110
0000
0000
,
1001
0000
0000
0000
,
1001
0000
0000
0000
,
0110
0000
0000
0000
,
0110
0000
0000
0000
,
1001
0000
0100
0000
,
0010
0000
0010
0000
,
0000
1000
0000
0010
,
0000
0000
0100
0000
,
1000
0000
0001
0000
,
0100
0000
0000
0000
,
0000
0001
0000
0100
,
0000
0010
0000
0000
,
1000
0000
0010
0000
,
0100
0000
0000
0000
,
0000
0001
0000
0100
,
0000
0010
0000
0000
,
0001
0000
0100
0000
,
0010
0000
0000
0000
,
0000
1000
0000
0010
,
0000
0100
0000
0000
,
1001
0000
0000
0000
,
0000
0000
0000
0000
,
0000
0000
0000
0000
,
0000
0000
0000
0000
,
0000
0000
0000
0000
,
0000
0000
0000
0000
,
0010
0000
0000
0000
,
0000
0000
0000
0000
,
0100
0000
0000
0000
,;

//---------------dance-double - ----------------
#NOTES:
     dance-double:
     :
     Hard:
     10:
     0.778,0.780,0.076,0.096,0.010: // measure 1
00000000
00000000
00000000
00000000
,  // measure 2
00000000
00000000
00000000
00000000
,  // measure 3
00000000
00000000
00000000
00000000
,  // measure 4
00000000
00000000
00000000
00000000
,  // measure 5
00000000
00000000
00000000
00000000
,  // measure 6
10000000
01000000
00100000
00000000
00001000
00010000
00000010
00000000
,  // measure 7
00000100
00000001
00000010
00000100
00001000
00000010
00000100
00000000
,  // measure 8
00000001
00000010
00000100
00000000
00001000
00000010
00010000
00000000
,  // measure 9
00001000
00100000
00010000
10000000
00000000
01000000
00100000
00001000
,  // measure 10
00010000
00000010
00000100
00000000
00000001
00000010
00000100
00000000
,  // measure 11
00001000
00000010
00000100
00000000
00000001
00000010
00000100
00000000
,  // measure 12
00000010
00000001
00000100
00000000
00000010
00001000
00000100
00000000
,  // measure 13
00000010
00000001
00000100
00000000
00001000
00010000
01000000
10000000
,  // measure 14
01000000
00010000
00001000
00000000
00010000
01000000
00100000
00000000
,  // measure 15
00010000
00100000
01000000
00000000
10000000
01000000
00100000
00000000
,  // measure 16
00001000
00010000
00000010
00000000
00010000
00001000
00100000
00000000
,  // measure 17
01000000
00100000
00010000
00000000
00001000
00010000
00000010
00000000
,  // measure 18
00000100
00000010
00001000
00000001
00000010
00000100
00001000
00000000
,  // measure 19
00000100
00000010
00000100
00001000
00000010
00010000
00001000
00100000
,  // measure 20
00010000
10000000
01000000
00100000
00000000
00010000
10000000
00100000
,  // measure 21
01000000
00100000
00010000
00001000
00000010
00000100
00000001
00000010
,  // measure 22
00000100
00001000
00000100
00000001
00000010
00001000
00010000
00100000
,  // measure 23
01000000
00000000
10000000
00000000
01000000
00000000
00010000
00000000
00001000
00000000
00000010
00000000
00000100
00000001
00000010
00001000
,  // measure 24
00010000
00001000
00100000
01000000
00000000
10000000
00010000
00000000
,  // measure 25
00100000
01000000
00100000
00001000
00010000
00000010
00000100
00000000
,  // measure 26
00000001
00000010
00000100
00000000
00001000
00000010
00000100
00000000
,  // measure 27
00000010
00000001
00000100
00010000
00001000
00100000
00010000
10000000
,  // measure 28
01000000
00100000
00010000
00001000
00000010
00010000
00000000
00000100
,  // measure 29
00000001
00000010
00000000
00000100
00001000
00000010
00010000
00000000
,  // measure 30
00001000
00100000
00000000
00010000
10000000
00000000
01000000
00100000
,  // measure 31
00000000
00001000
00010000
00000000
00000010
00000100
00000001
00000000
,  // measure 32
00000010
00000100
00010000
00000000
00001000
00100000
00010000
00000000
,  // measure 33
10000000
01000000
00100000
00000000
00010000
00100000
00001000
00000000
,  // measure 34
00010000
00000010
00001000
00000000
00000010
00010000
00001000
00010000
,  // measure 35
00000100
00000010
00000000
00000001
00000100
00000010
00001000
00000100
,  // measure 36
00010000
00000000
00101000
00000000
00010000
10000000
01000000
00100000
,  // measure 37
00001000
00010000
00000010
00000100
00000001
00000010
00000100
00000000
,  // measure 38
00001000
00000010
00010000
00001000
00100000
00010000
10000000
01000000
,  // measure 39
00100000
00000000
00000000
00001000
00000000
00000000
00000010
00000000
,  // measure 40
00000000
00000100
00000001
00001000
00000100
00001000
00000010
00010000
,  // measure 41
00001000
00000000
00100000
00010000
10000000
01000000
00100000
00001000
,  // measure 42
00010000
00000000
00000010
00000100
00000001
00000010
00000100
00001000
,  // measure 43
00000010
00010000
00001000
00100000
00010000
10000000
01000000
00100000
,  // measure 44
00000000
00000000
00001000
00010000
00000010
00000000
00000100
00000001
,  // measure 45
00000010
00000000
00000100
00001000
00000010
00001000
00010000
00100000
,  // measure 46
00010000
00000000
10000000
01000000
00100000
00000000
00010000
00100000
,  // measure 47
00001000
00000000
00010000
00000010
00000100
00000001
00000010
00000100
,  // measure 48
00001000
00000000
00000000
00000000
00000000
00000000
00000000
00010000
,  // measure 49
01000000
00100000
10000000
01000000
00010000
01000000
00100000
00001000
,  // measure 50
00000000
00010000
00000010
00000100
00000001
00000010
00000100
00000000
,  // measure 51
00001000
00000010
00010000
00001000
00100000
00000000
10000000
00010000
,  // measure 52
01000000
00000000
00100000
00001000
00010000
00000010
00000100
00000000
,  // measure 53
00000001
00000010
00000100
00000000
00001000
00000010
00010000
00000000
,  // measure 54
00001000
00100000
00001000
00000000
00010000
00001000
00010000
00000000
,  // measure 55
01000000
10000000
01000000
00000000
00100000
01000000
00000000
00010000
,  // measure 56
00001000
00000000
00000100
00000010
00000010
00000001
00000010
00000100
,  // measure 57
00001000
00000001
00000100
00000010
00001000
00000100
00010000
00001000
,  // measure 58
00100000
00000000
00010000
10000000
01000000
00100000
00010000
00001000
,  // measure 59
00000010
00000000
00000100
00000001
00000010
00000100
00001000
00000010
,  // measure 60
00010000
00000000
00000000
00100000
00000000
00000000
10000000
00000000
,  // measure 61
00000000
01000000
00001000
00010000
00000010
00010000
00001000
00000100
,  // measure 62
00000001
00000000
00000010
00000100
00001000
00000010
00000100
00000001
,  // measure 63
00000010
00000000
00000100
00001000
00000010
00010000
00001000
00100000
,  // measure 64
00010000
10000000
01000000
00100000
00001000
00010000
00000000
00000010
,  // measure 65
00000100
00000000
00000000
00000000
00000001
00000000
00000100
00010000
,  // measure 66
00001000
00000000
00100000
00000000
01000000
00000000
10000000
00010000
,  // measure 67
00100000
00000000
00000000
00001000
00010000
00000000
00000000
00000010
,  // measure 68
00001000
00000000
00001010
00000000
00000001
00000100
00000010
00001000
,  // measure 69
00010000
01000000
10000000
01000000
00010000
01000000
00000000
01000000
,  // measure 70
01010000
00000000
00000100
00000001
00000100
00001000
00000000
00000001
,  // measure 71
00000011
00000000
00001010
00000000
,  // measure 72
00011000
00000000
01100000
00000000
10000000
01000000
00100000
00010000
,  // measure 73
00001000
00010000
00001000
00000100
00001000
00010000
00001000
00000100
,  // measure 74
00000010
00000100
00000001
00000100
00000010
00000100
00000001
00000100
,  // measure 75
00000010
00001000
00000010
00010000
00000010
00001000
00000010
00010000
,  // measure 76
00000010
00001000
00010000
00001000
00000010
00001000
00010000
00001000
,  // measure 77
01000000
00100000
01000000
00010000
01000000
00100000
01000000
00010000
,  // measure 78
01000000
10000000
00010000
00100000
01000000
10000000
00010000
00100000
,  // measure 79
00001000
00010000
00000010
00000100
00000001
00000010
00000100
00001000
,  // measure 80
00000010
00000100
00000001
00000010
00000100
00001000
00000010
00000000
,  // measure 81
00001000
00000100
00000001
00000000
00000001
00000010
00001000
00000000
,  // measure 82
00010000
01000000
10000000
00000000
10000000
00100000
00010000
00000000
,  // measure 83
00001000
00010000
00000010
00000000
00000100
00000001
00000010
00000000
,  // measure 84
00001000
00010000
00100000
00000000
01000000
10000000
00100000
00000000
,  // measure 85
01000000
00100000
00001000
00010000
00000010
00000100
00000001
00000010
,  // measure 86
00000100
00001000
00000010
00010000
00001000
00100000
00010000
10000000
,  // measure 87
01000000
00100000
00001000
00010000
00000010
00000100
00000001
00000010
,  // measure 88
00000100
00001000
00000010
00010000
00001000
00000000
00100000
00000000
,  // measure 89
02200000
00000000
00000000
00000000
,  // measure 90
00000000
00000000
00000000
00000000
,  // measure 91
00000000
00000000
00000000
00000000
,  // measure 92
00000000
00000000
00000000
00000000
,  // measure 93
00000000
00000000
00000000
00000000
,  // measure 94
00000000
00000000
00000000
03300000
,  // measure 95
00020000
00030020
00000032
00000203
,  // measure 96
00002300
00203000
20300000
32000000
,  // measure 97
03010000
00000000
00000000
00000000
;

//---------------dance-double - ----------------
#NOTES:
     dance-double:
     :
     Medium:
     7:
     0.534,0.642,0.354,0.029,0.000: // measure 1
00000000
00000000
00000000
00000000
,  // measure 2
00000000
00000000
00000000
00000000
,  // measure 3
00000000
00000000
00000000
00000000
,  // measure 4
00000000
00000000
00000000
00000000
,  // measure 5
00000000
00000000
00000000
00000000
,  // measure 6
00000000
00000000
10000000
01000000
00000000
00000000
00100000
01000000
,  // measure 7
00000000
00000000
00001000
01000000
00000000
00000000
00100000
01000000
,  // measure 8
00000000
00000000
00010000
00000010
00000000
00000000
00000100
00000010
,  // measure 9
00000000
00000000
00000001
00000010
00000000
00000000
00000100
00000010
,  // measure 10
00000000
00000000
00010000
00001000
00000000
00000000
00100000
01000000
,  // measure 11
00000000
00000000
00001000
00010000
00000000
00000000
00100000
01000000
,  // measure 12
00000000
00000000
10000000
00100000
00000000
00000000
01000000
00100000
,  // measure 13
00000000
00000000
00001000
00100000
00000000
00000000
00010000
00000010
,  // measure 14
00000100
00000101
00001000
00000100
,  // measure 15
00000010
00000000
00001100
00000000
00010000
00000010
00000100
00000000
,  // measure 16
00001000
00011000
01000000
00100000
,  // measure 17
00010000
00000000
00110000
00000000
10000000
01000000
00100000
00000000
,  // measure 18
00001000
00011000
00000010
00000100
,  // measure 19
00000001
00000000
00000110
00000000
00001000
00000001
00000100
00000000
,  // measure 20
00000010
00001100
00010000
00001000
,  // measure 21
00100000
00000000
00110000
00000000
10000000
01000000
00010000
00001000
,  // measure 22
00010000
00001000
00000100
00000010
,  // measure 23
00000001
00000100
00000010
00010000
00001000
00100000
01000000
10000000
,  // measure 24
00100000
01000000
00010000
00000000
00001000
00000000
00000100
00000000
,  // measure 25
00000010
00001000
00000001
00000000
00000010
00000000
00000100
00000000
,  // measure 26
00001000
00000001
00000100
00000000
00000010
00001000
00000100
00000000
,  // measure 27
00010000
00001000
00100000
00010000
10000000
01000000
00100000
00000000
,  // measure 28
00001000
00010000
00000010
00000000
00000100
00000000
00000001
00000000
,  // measure 29
00000010
00000100
00001000
00000000
00000010
00000000
00010000
00000000
,  // measure 30
00001000
00100000
00010000
00000000
10000000
00000000
01000000
00000000
,  // measure 31
00100000
00000000
00001000
00010000
00000010
00000000
00000100
00000000
,  // measure 32
00000001
00000010
00000100
00000000
00001000
00000000
00000001
00000000
,  // measure 33
00000100
00000010
00001000
00000000
00000100
00000000
00010000
00000000
,  // measure 34
00001000
00100000
00010000
00000000
00100000
00000000
00001000
00000000
,  // measure 35
00010000
01000000
10000000
00000000
01000000
00100000
00020000
00000000
,  // measure 36
00030000
00000000
00001000
00000100
00000010
00000000
00000001
00000010
,  // measure 37
00000100
00010000
00100000
01000000
,  // measure 38
10000000
00000000
00100000
00010000
01000000
00000000
01000000
00010000
,  // measure 39
00100000
00000000
00000000
00100000
00000000
00000000
00100000
00000000
,  // measure 40
00000000
00000000
00010000
00000010
00000100
00000000
00000010
00000100
,  // measure 41
00001000
00000000
00000001
00000100
00000010
00000000
00000100
00010000
,  // measure 42
00000010
00000000
00000100
00001000
00010000
00000000
00001000
00100000
,  // measure 43
01000000
01000000
01000000
00000000
01000000
00000000
01000000
00000000
,  // measure 44
00100000
00000000
00001000
00001000
,  // measure 45
00001000
00001000
00001000
00000000
,  // measure 46
00010000
00010000
00010000
00010000
,  // measure 47
00001000
00001000
00001000
00001000
,  // measure 48
01100000
00000000
00000000
00000000
,  // measure 49
11000000
00000000
01010000
00000000
,  // measure 50
00011000
01010000
00011000
00000000
,  // measure 51
00001100
00000000
00011000
00000000
,  // measure 52
00001100
00000110
00000101
00000000
,  // measure 53
00000011
00000000
00000110
00000000
,  // measure 54
00000011
00000110
00001010
00000000
,  // measure 55
00000110
00000000
00011000
00000000
,  // measure 56
00101000
00011000
01010000
00000000
,  // measure 57
00000000
00000000
10000000
01000000
00010000
00000000
00010000
01000000
,  // measure 58
10000000
00000000
00100000
00010000
00001000
00000000
00010000
00001000
,  // measure 59
00000100
00000000
00000010
00001000
00000100
00000000
00000010
00000001
,  // measure 60
00000100
00000000
00000000
00000100
00000000
00000000
00000100
00000000
,  // measure 61
00000000
00000000
00000010
00001000
00000100
00000000
00000100
00000010
,  // measure 62
00001000
00000000
00010000
00001000
00010000
00000000
00100000
00010000
,  // measure 63
00100000
00000000
01000000
10000000
01000000
00000000
00100000
00010000
,  // measure 64
01000000
01000000
01000000
00000000
00001000
00001000
00001000
00000000
,  // measure 65
00000110
00000000
00000000
00000000
00000001
00000000
00000000
00000100
,  // measure 66
00001000
00000000
00000000
00000000
00010000
00000000
00000000
01000000
,  // measure 67
10000000
00000000
01010000
00000000
,  // measure 68
00010010
00000000
01010000
00000000
00100000
00010000
00001000
00000100
,  // measure 69
00000001
00000000
00000100
00000000
00000010
00000000
00000000
00010000
,  // measure 70
00000100
00000000
00001000
00000000
00100000
00000000
00000000
00001000
,  // measure 71
01000000
00000000
11000000
00000000
,  // measure 72
01100000
00000000
00011000
00000000
00001000
00000100
00000001
00000010
,  // measure 73
00001000
00000000
00000000
00010000
00000000
00010000
00000000
00000000
,  // measure 74
01000000
00100000
00100000
00000000
,  // measure 75
10000000
00000000
00000000
00010000
00000000
00010000
00000000
00000000
,  // measure 76
01000000
00001000
00001000
00000000
,  // measure 77
00010000
00000000
00000000
00000010
00000000
00000010
00000000
00000000
,  // measure 78
00000100
00000001
00000001
00000000
,  // measure 79
00000010
00000000
00000000
00000100
00000000
00000100
00000000
00000000
,  // measure 80
00010000
00001000
00010000
00000000
,  // measure 81
01000000
00000000
00000000
00100000
00000000
00100000
00000000
00000000
,  // measure 82
10000000
00010000
10000000
00000000
,  // measure 83
00010000
00000000
00000000
01000000
00000000
01000000
00000000
00000000
,  // measure 84
00100000
00001000
00010000
00000000
,  // measure 85
00000010
00000000
00000000
00001000
00000000
00000001
00000000
00000000
,  // measure 86
00000100
00000010
00010000
00000000
,  // measure 87
00001000
00000000
00000000
00100000
00000000
01000000
00000000
00000000
,  // measure 88
10000000
00010000
01000000
00000000
,  // measure 89
02200000
00000000
00000000
00000000
,  // measure 90
00000000
00000000
00000000
00000000
,  // measure 91
00000000
00000000
00000000
00000000
,  // measure 92
00000000
00000000
00000000
00000000
,  // measure 93
00000000
00000000
00000000
00000000
,  // measure 94
03300000
00000000
00000000
00000000
,  // measure 95
10000000
01000000
10000000
01000000
,  // measure 96
00100000
00010000
00100000
00010000
,  // measure 97
00001000
00000000
00000000
00000000
;

//---------------dance-double - ----------------
#NOTES:
     dance-double:
     :
     Easy:
     5:
     0.392,0.597,0.115,0.019,0.000: // measure 1
00000000
00000000
00000000
00000000
,  // measure 2
00000000
00000000
00000000
00000000
,  // measure 3
00000000
00000000
00000000
00000000
,  // measure 4
00000000
00000000
00000000
00000000
,  // measure 5
00000000
00000000
00000000
00000000
,  // measure 6
00000000
10000000
00000000
00000000
,  // measure 7
00000000
01000000
00000000
00000000
,  // measure 8
00000000
00001000
00000000
00000000
,  // measure 9
00000000
00100000
00000000
00000000
,  // measure 10
00000000
00010000
00000000
00000000
,  // measure 11
00000000
00000100
00000000
00000000
,  // measure 12
00000000
00000001
00000000
00000000
,  // measure 13
00000000
00000010
00000000
00000000
,  // measure 14
00000000
00000100
00010000
00000000
,  // measure 15
00000000
00001000
00100000
00000000
,  // measure 16
00000000
10000000
00010000
00000000
,  // measure 17
00000000
01000000
00100000
00000000
,  // measure 18
00000000
00001000
00010000
00000000
,  // measure 19
00000000
00000010
00000100
00000000
,  // measure 20
00000000
00000001
00001000
00000000
,  // measure 21
00000000
00000100
00010000
00000000
,  // measure 22
00001000
00010000
00100000
10000000
,  // measure 23
00010000
01000000
00001000
00010000
,  // measure 24
00000010
00000100
00000001
00000010
,  // measure 25
00000100
00001000
00000010
00000001
,  // measure 26
00001000
00000100
00010000
00000010
,  // measure 27
00000100
00001000
00010000
00100000
,  // measure 28
10000000
01000000
00010000
00001000
,  // measure 29
00100000
01000000
10000000
00100000
,  // measure 30
00001000
00010000
01000000
00100000
,  // measure 31
00001000
00010000
00000100
00000000
,  // measure 32
00000010
00000100
00010000
00000010
,  // measure 33
00010000
00001000
00000100
00000001
,  // measure 34
00000010
00000100
00010000
00000010
,  // measure 35
00010000
00001000
01000000
00000000
,  // measure 36
00100000
00001000
00010000
00100000
,  // measure 37
10000000
00000000
01000000
00010000
,  // measure 38
00001000
00000100
00000010
00001000
,  // measure 39
00000001
00000000
00000000
00000001
00000000
00000000
00000001
00000000
,  // measure 40
00000100
00010000
00000010
00000100
,  // measure 41
00001000
00010000
01000000
00100000
,  // measure 42
00001000
00010000
01000000
10000000
,  // measure 43
00010000
00010000
00010000
00010000
,  // measure 44
01000000
00000000
00001000
00010000
,  // measure 45
01000000
00100000
00001000
00000000
,  // measure 46
00010000
00000000
00000010
00000100
,  // measure 47
00000001
00000010
00000100
00000000
,  // measure 48
00000010
00000000
00010000
00000000
,  // measure 49
00001000
00100000
00001000
00010000
,  // measure 50
00001000
00000100
00000010
00000000
,  // measure 51
00001000
00010000
01000000
00100000
,  // measure 52
00001000
00100000
01000000
00000000
,  // measure 53
00010000
00100000
10000000
01000000
,  // measure 54
00010000
00001000
00000100
00000000
,  // measure 55
00010000
00001000
00000010
00000100
,  // measure 56
00000001
00000010
00010000
00000000
,  // measure 57
00001000
00000100
00000010
00010000
,  // measure 58
00000100
00000010
00000100
00010000
,  // measure 59
00001000
00100000
00010000
10000000
,  // measure 60
01000000
00000000
00000000
01000000
00000000
00000000
01000000
00000000
,  // measure 61
00100000
00001000
00010000
00001000
,  // measure 62
00000100
00000001
00001000
00000100
,  // measure 63
00010000
00000010
00000001
00000100
,  // measure 64
00000010
00000010
00000010
00000010
,  // measure 65
00010000
00010100
00001000
00000000
,  // measure 66
00001000
01001000
00010000
00000000
,  // measure 67
00011000
00000000
01100000
00000000
,  // measure 68
00011000
00000110
00011000
01100000
,  // measure 69
10000000
01000000
00010000
00000000
,  // measure 70
00001000
00000010
00000001
00000000
,  // measure 71
00000100
00001000
00010000
00100000
,  // measure 72
10000000
01000000
01100000
00011000
,  // measure 73
00000010
00000100
00000001
00000010
,  // measure 74
00000100
00000000
00001000
00000000
00000010
00000000
00000000
00010000
,  // measure 75
00000000
00001000
01000000
00100000
,  // measure 76
00001000
00010000
01000000
00000000
,  // measure 77
00100000
10000000
01000000
00100000
,  // measure 78
00001000
00000000
00010000
00000000
00000100
00000000
00000000
00000010
,  // measure 79
00000000
00000001
00001000
00000010
,  // measure 80
00000100
00000010
00010000
00000000
,  // measure 81
00001000
00100000
00010000
00010000
,  // measure 82
00001000
00010000
01000000
00100000
,  // measure 83
01000000
10000000
01000000
01000000
,  // measure 84
00010000
00001000
00100000
01000000
,  // measure 85
00100000
00001000
00001000
00010000
,  // measure 86
00000010
00000100
00000001
00000001
,  // measure 87
00000010
00000100
00010000
00000010
,  // measure 88
00010000
00000100
00000100
00000010
,  // measure 89
00022000
00000000
00000000
00000000
,  // measure 90
00000000
00000000
00000000
00000000
,  // measure 91
00000000
00000000
00000000
00000000
,  // measure 92
00000000
00000000
00000000
00000000
,  // measure 93
00033000
00000000
00000000
00000000
,  // measure 94
00000000
00000000
00000000
00000000
,  // measure 95
00100000
00000000
00010000
00000000
,  // measure 96
00001000
00000000
00000100
00000000
,  // measure 97
00000110
00000000
00000000
00000000
;

//---------------dance-double - ----------------
#NOTES:
     dance-double:
     :
     Challenge:
     11:
     0.974,1.000,0.382,0.449,0.186: // measure 1
00000000
00000000
00000000
00000000
,  // measure 2
00000000
00000000
00000000
00000000
,  // measure 3
00000000
00000000
00000000
00000000
,  // measure 4
00000000
00000000
00000000
00000000
,  // measure 5
00000000
00000000
00000000
00000000
,  // measure 6
01000000
10000000
01000000
00010000
00000000
00000010
00000100
00000010
,  // measure 7
00000001
00000010
00000000
01000000
00100000
01000000
10000000
01000000
,  // measure 8
00000000
00000100
00000010
00000100
00000001
00000010
00000000
00010000
,  // measure 9
01000000
10000000
00100000
01000000
00100000
00010000
00000000
00000100
,  // measure 10
00000010
00000100
00000001
00000010
00000100
00000010
00000000
00010000
,  // measure 11
00100000
01000000
10000000
00100000
01000000
00001000
00000100
00000001
,  // measure 12
00000010
00000100
00010000
00100000
01000000
10000000
00000000
01000000
,  // measure 13
00010000
00000010
00000100
00010000
00000010
00000001
00001000
00000100
,  // measure 14
00000001
00000000
00000001
00000100
00001000
00000000
00000000
00000000
00000001
00000000
00000001
00000100
00001000
00000000
00000000
00000000
,  // measure 15
00000100
00000000
00000100
00001000
00010000
00000000
00000000
00000000
00000100
00000000
00000100
00001000
00010000
00000000
00000000
00000000
,  // measure 16
00001000
00000000
00001000
00010000
00100000
00000000
00000000
00000000
00001000
00000000
00001000
00010000
00100000
00000000
00000000
00000000
,  // measure 17
00010000
00000000
00010000
00100000
10000000
00000000
00000000
00000000
00010000
00000000
00010000
00100000
10000000
00000000
00000000
00000000
,  // measure 18
00100000
00000000
00100000
10000000
01000000
00000000
00000000
00000000
00100000
00000000
00100000
10000000
01000000
00000000
00000000
00000000
,  // measure 19
10000000
00000000
10000000
01000000
00010000
00000000
00000000
00000000
10000000
00000000
10000000
01000000
00010000
00000000
00000000
00000000
,  // measure 20
01000000
00000000
01000000
00010000
00001000
00000000
00000000
00000000
01000000
00000000
01000000
00010000
00001000
00000000
00000000
00000000
,  // measure 21
00010000
00000000
00010000
00001000
00000010
00000000
00000000
00000000
00010000
00000000
00010000
00001000
00000010
00000000
00000000
00000000
,  // measure 22
00001001
00000100
00000001
00000010
00000110
00010000
00000010
00001000
,  // measure 23
01100000
00000000
10000000
00000000
11000000
00000000
00010000
00000000
01010000
00000000
10000000
00000000
00010000
00000100
00000001
00000010
,  // measure 24
00001000
00000000
00001000
00010000
01000000
00000000
00000000
00000000
01000000
00000000
10000000
00000000
01000000
00000000
00000000
00000000
,  // measure 25
01000000
00000000
01000000
10000000
00100000
00000000
00000000
00000000
00100000
00000000
00001000
00000000
00100000
00000000
00000000
00000000
,  // measure 26
00100000
00000000
00100000
00010000
00001000
00000000
00000000
00000000
00002000
00000000
00000000
00000000
00003100
00000000
00000000
00000000
,  // measure 27
00000100
00000000
00000100
00000001
00000010
00000000
00000000
00000000
00000010
00000000
00001000
00000000
00000010
00000000
00001000
00000000
,  // measure 28
00010000
00100000
00010000
00100000
00010000
00001000
00010000
00001000
,  // measure 29
00000100
00001000
00000100
00001000
00010000
00001000
00010000
00001000
,  // measure 30
00010000
00100000
00010000
00100000
00010000
00001000
00010000
00001000
,  // measure 31
00000100
00000001
00010000
00000100
00000001
00000010
00001000
00000000
,  // measure 32
00010000
00000010
00010000
00000010
00001000
00010000
00001000
00010000
,  // measure 33
00001000
01000000
00001000
01000000
00010000
00001000
00010000
00001000
,  // measure 34
00010000
00000010
00010000
00000010
00001000
00010000
00001000
00010000
,  // measure 35
00001000
01000000
10000000
00100000
00010000
00001000
01000000
00000000
,  // measure 36
00000000
10000000
01000000
00100000
00001000
00010000
00000010
00000100
,  // measure 37
00000001
00000000
00000001
00000100
00000010
00001000
00010000
00100000
,  // measure 38
01000000
00000000
01000000
10000000
00100000
00010000
00001000
00000100
,  // measure 39
00000002
00000000
00000003
00000202
00000000
00000303
00002020
00000000
,  // measure 40
00003030
00000001
00000100
00000010
00010000
00001000
00100000
01000000
,  // measure 41
10000000
01000000
10000000
00100000
01000000
00001000
00010000
00000010
,  // measure 42
00000100
00000001
00000100
00000010
00010000
00001000
00100000
01000000
,  // measure 43
00010000
00000000
00010000
00000000
00010000
00000000
00010000
00000000
10000000
00000000
00010000
10000000
00000000
10000000
00010000
00000000
,  // measure 44
01100000
00000000
00000000
00000000
00000000
00000000
00000000
00000000
00100000
01000000
00100000
00000000
00100000
01000000
00100000
00000000
,  // measure 45
00100000
00000010
00000110
00000000
,  // measure 46
00000001
00000000
00000001
00001000
00000001
00000000
00000001
00000000
00001000
00000000
00001000
00000001
00001000
00000000
00001000
00000000
,  // measure 47
00000100
00000000
00000100
00000010
00000100
00000000
00000100
00000010
00000100
00000000
00000100
00000010
00000100
00000000
00000100
00000010
,  // measure 48
00020000
00001000
00001000
00001000
00001000
00000000
00031000
00010000
,  // measure 49
10000000
01000000
00010000
00001000
00000001
00000100
00001000
00010000
,  // measure 50
01100000
00000000
00011000
00000000
00000220
00000000
00000330
00001000
,  // measure 51
00000001
00000100
00001000
00010000
10000000
01000000
00010000
00001000
,  // measure 52
00000110
00000000
00011000
00000000
02200000
00000000
03300000
00010000
,  // measure 53
10000000
01000000
00010000
00001000
00000001
00000100
00001000
00010000
,  // measure 54
01100000
00000000
00011000
00000000
00000220
00000000
00000330
00001000
,  // measure 55
00000001
00000100
00001000
00010000
10000000
01000000
00010000
00001000
,  // measure 56
00000110
00000000
00011000
00000000
01200000
00000000
00301000
00000010
,  // measure 57
00000000
00000001
00000100
00000010
00010000
00001000
00100000
01000000
,  // measure 58
10000000
00000000
10000000
01000000
00100000
00010000
00001000
00000010
,  // measure 59
00000100
00000000
00000100
00000001
00000010
00001000
00010000
01000000
,  // measure 60
00200000
00000000
00300000
22000000
00000000
33000000
00220000
00000000
,  // measure 61
00330000
10000000
01000000
00100000
00001000
00010000
00000010
00000100
,  // measure 62
00000001
00000100
00000001
00000010
00000100
00010000
00001000
00100000
,  // measure 63
01000000
10000000
01000000
00100000
00001000
00010000
00000010
00000100
,  // measure 64
00001000
00000000
00001000
00000000
00001000
00000000
00001000
00000000
00000001
00000000
00001000
00000001
00000000
00000001
00001000
00000000
,  // measure 65
00000110
00000000
00000100
00000010
00000100
00000000
00000000
00000000
00000000
00000000
00000000
00000000
00000000
00000000
10010000
00000000
,  // measure 66
01100000
00000000
01000000
00100000
01000000
00000000
00010000
00000000
00010000
00000000
00010000
00000000
00010000
00000000
00011000
00000000
,  // measure 67
00000110
00000000
00000100
00000010
00000100
00000000
00000100
00000000
00000110
00000000
00000001
00000000
00000100
00000000
00001000
00000000
,  // measure 68
00011000
00000000
01100000
00000000
10000000
01000000
00010000
00100000
,  // measure 69
00011000
00000000
00000100
00000010
00000100
00000000
00000100
00000000
00000100
00000000
00000100
00000000
00000100
00000000
00011000
00000000
,  // measure 70
01100000
00000000
01000000
00100000
01000000
00000000
01000000
00000000
01000000
00000000
01000000
00000000
01000000
00000000
00011000
00000000
,  // measure 71
00000110
00000100
00000100
00000100
00000110
00000100
00000100
00000100
,  // measure 72
00011000
00000000
01100000
00000000
00001000
00000100
00000001
00000010
,  // measure 73
00000100
00000001
00000000
00001000
00000100
00000001
00000000
00010000
,  // measure 74
01000000
10000000
00000000
00001000
00000100
00000001
00000010
00000000
,  // measure 75
00010000
00001000
00000000
00010000
01000000
10000000
00000000
00001000
,  // measure 76
00000100
00000001
00000010
00001000
00010000
01000000
10000000
00000000
,  // measure 77
01000000
00010000
00000000
00001000
00000100
00000001
00000000
00010000
,  // measure 78
01000000
10000000
00100000
00010000
00001000
00000100
00000001
00000000
,  // measure 79
00000100
00001000
00000000
00010000
01000000
10000000
00000000
00001000
,  // measure 80
00000100
00000001
00000010
00001000
00010000
01000000
10000000
00000000
,  // measure 81
00100000
00010000
00000000
00001000
00000010
00000001
00000000
00010000
,  // measure 82
00100000
10000000
01000000
00010000
00001000
00000010
00000001
00000000
,  // measure 83
00000100
00001000
00000000
00010000
00100000
10000000
00000000
00001000
,  // measure 84
00000010
00000001
00000100
00001000
00010000
00100000
10000000
00000000
,  // measure 85
01000000
00001000
00000000
00010000
00000100
00000001
00000000
00001000
,  // measure 86
01000000
10000000
00100000
00001000
00010000
00000100
00000001
00000000
,  // measure 87
00000100
00010000
00000000
10000000
01000000
00010000
00000000
00000001
,  // measure 88
00000100
00001000
00010000
00100000
10000000
01000000
00010000
00000000
,  // measure 89
00000020
00000230
00000320
00000230
,  // measure 90
00000320
00000230
00000320
00000230
,  // measure 91
00000320
00000230
00000320
00000230
,  // measure 92
00000320
00000230
00000320
00000230
,  // measure 93
00000320
00000230
00000320
00000230
,  // measure 94
00010300
00001000
00010000
00001000
,  // measure 95
00002000
02003000
23000000
30200000
,  // measure 96
00320000
00000000
00000000
00000000
00000000
00000000
00000000
00000000
00000000
00000000
00000000
00000000
00000000
00000000
00000000
00000000
00030200
00000000
00000000
00000000
00000000
00000000
00000000
00000000
00000000
00000000
00000000
00000000
00000000
00000000
00000000
00000000
00000302
00000000
00000000
00000000
00000000
00000000
00000000
00000000
00000000
00000000
00000000
00000000
00000000
00000000
00000000
00000000
00000023
00000000
00000000
00000000
00000000
00000000
00000000
00000000
00000000
00000000
00000000
00000000
00000000
00000000
00000000
00000030
,  // measure 97
00010010
00000000
00000000
00000000
;
