#TITLE:Out of Curiosity[Long version];
#SUBTITLE:(Type03 the Spiral);
#ARTIST:TSUKASA YATOKI;
#TITLETRANSLIT:;
#SUBTITLETRANSLIT:;
#ARTISTTRANSLIT:;
#CREDIT:;
#BANNER:Out of Curiosity (Type03 the Spiral).png;
#BACKGROUND:Out of Curiosity (Type03 the Spiral)-bg.png;
#LYRICSPATH:;
#CDTITLE:cdtitle.png;
#MUSIC:Out of Curiosity (Type03 the Spiral).mp3;
#OFFSET:-0.560;
#SAMPLESTART:151.420;
#SAMPLELENGTH:13.980;
#SELECTABLE:YES;
#DISPLAYBPM:140.000;
#BPMS:0.000=140.000;
#STOPS:;
#BGCHANGES:;

//---------------dance-single - BASIC----------------
#NOTES:
     dance-single:
     BASIC:
     Easy:
     3:
     0.149,0.287,0.044,0.067,0.000: // measure 1
0000
0000
0000
0000
,  // measure 2
0000
0000
0000
0000
,  // measure 3
0000
0000
0000
0000
,  // measure 4
0000
0000
0000
0000
,  // measure 5
0000
0000
0000
0000
,  // measure 6
0000
0000
0000
0000
,  // measure 7
0000
0000
0000
0000
,  // measure 8
0000
0000
0000
0000
,  // measure 9
1000
0000
0000
0000
,  // measure 10
0100
0000
0000
0000
,  // measure 11
0010
0000
0000
0000
,  // measure 12
0010
0000
0000
0000
,  // measure 13
0100
0000
0000
0000
,  // measure 14
0100
0000
0000
0000
,  // measure 15
0001
0000
0000
0000
,  // measure 16
1000
0000
0000
0000
,  // measure 17
1001
0000
0000
0000
,  // measure 18
0001
0000
0000
0000
,  // measure 19
0001
0000
0000
0000
,  // measure 20
0000
0000
0000
0000
,  // measure 21
1001
0000
0000
0000
,  // measure 22
1000
0000
0000
0000
,  // measure 23
1000
0000
0000
0000
,  // measure 24
0000
0000
0000
0000
,  // measure 25
1001
0000
0000
0000
,  // measure 26
0001
0000
0000
0000
,  // measure 27
1000
0000
0000
0000
,  // measure 28
0000
0000
0000
0000
,  // measure 29
1001
0000
0000
0000
,  // measure 30
1000
0000
0000
0000
,  // measure 31
0001
0000
0000
0000
,  // measure 32
0000
0000
0000
0000
,  // measure 33
2000
0000
0000
0010
0000
0000
0000
0000
,  // measure 34
3000
0000
0000
0000
,  // measure 35
0002
0000
0000
0010
0000
0000
0000
0000
,  // measure 36
0003
0000
0000
0000
,  // measure 37
2000
0000
0000
0001
0000
0000
0000
0000
,  // measure 38
3000
0000
0000
0000
,  // measure 39
0000
0020
0000
0100
0000
0000
0000
0000
,  // measure 40
0030
0000
0000
0000
,  // measure 41
1000
0000
0000
0000
,  // measure 42
1000
0000
0000
0000
,  // measure 43
0001
0000
0000
0000
,  // measure 44
0001
0000
0000
0000
,  // measure 45
1000
0000
0000
0001
0000
0000
0000
0000
,  // measure 46
0000
0000
0000
0000
,  // measure 47
0001
0000
0000
1000
0000
0000
0000
0000
,  // measure 48
0000
0000
0000
0000
,  // measure 49
1001
0000
0000
0000
,  // measure 50
0100
0000
0000
0000
,  // measure 51
0200
0000
0000
0000
0000
0300
0000
0000
,  // measure 52
0000
0000
0000
0000
,  // measure 53
0001
0000
0000
0000
,  // measure 54
0001
0000
0000
0000
,  // measure 55
0020
0000
0000
0000
0000
0030
0000
0000
,  // measure 56
0000
0000
0000
0000
,  // measure 57
1000
0000
0000
0000
,  // measure 58
0100
0000
0000
0000
,  // measure 59
0002
0000
0000
0000
0000
0003
0000
0000
,  // measure 60
1000
0000
0000
0000
,  // measure 61
0001
0000
0000
0000
,  // measure 62
0100
0000
0000
0000
,  // measure 63
1000
0000
0000
0000
,  // measure 64
0001
0000
0000
0000
,  // measure 65
1001
0000
0000
0000
,  // measure 66
1000
0000
0000
0000
,  // measure 67
0100
0000
0000
0000
,  // measure 68
0010
0000
0000
0000
,  // measure 69
0001
0000
0000
0000
,  // measure 70
0100
0000
0000
0000
,  // measure 71
0010
0000
0000
0000
,  // measure 72
1000
0000
0000
0000
,  // measure 73
0001
0000
0100
0000
,  // measure 74
0010
0000
1000
0000
,  // measure 75
0001
0000
1000
0000
,  // measure 76
0100
0000
0010
0000
,  // measure 77
0001
0000
1000
0000
,  // measure 78
0100
0000
1000
0000
,  // measure 79
0010
0000
0100
0000
,  // measure 80
1000
0000
0100
0000
,  // measure 81
0001
0000
1000
0000
,  // measure 82
0100
0000
1000
0000
,  // measure 83
1000
0000
0001
0000
,  // measure 84
0010
0000
0010
0000
,  // measure 85
0100
0000
1000
0000
,  // measure 86
0001
0000
1000
0000
,  // measure 87
0001
0000
0100
0000
,  // measure 88
1000
0000
0010
0000
,  // measure 89
0001
0100
1000
0100
,  // measure 90
0001
0100
1000
0100
,  // measure 91
0001
0000
0010
0000
,  // measure 92
0100
0000
1000
0000
,  // measure 93
0002
0000
0000
0010
0000
0000
0000
0000
,  // measure 94
2003
0000
0000
0010
0000
0000
0000
0000
,  // measure 95
3002
0000
0000
2000
0000
0000
0000
0000
,  // measure 96
0000
0000
0000
0000
0000
0000
0000
3003
0000
0000
0000
0000
0000
0000
0000
0000
,  // measure 97
1000
0001
0100
0100
,  // measure 98
1000
1000
0001
1000
,  // measure 99
0001
0010
0100
1000
,  // measure 100
0001
0100
1000
0001
,  // measure 101
1000
0000
1000
0000
,  // measure 102
0001
0001
0100
1000
,  // measure 103
0010
0010
0100
1000
,  // measure 104
0010
0001
0100
1000
,  // measure 105
0001
0000
1000
0000
,  // measure 106
0001
1000
0001
1000
,  // measure 107
0100
1000
0100
1000
,  // measure 108
0010
0001
0010
0001
,  // measure 109
2000
0000
0001
0000
,  // measure 110
3010
0100
1000
0001
,  // measure 111
0001
0010
0100
1000
,  // measure 112
0001
0000
0000
0000
,  // measure 113
1001
0000
1000
0000
,  // measure 114
0001
0100
0010
0010
,  // measure 115
1000
1000
0100
0001
,  // measure 116
0010
0000
0100
1000
,  // measure 117
0001
0000
1000
0000
,  // measure 118
0001
1000
0001
1000
,  // measure 119
0010
0100
0010
0100
,  // measure 120
1000
0001
1000
0001
,  // measure 121
1001
0000
0010
0000
,  // measure 122
0100
1000
0001
0100
,  // measure 123
1000
0010
0100
1000
,  // measure 124
0001
0000
1000
0000
,  // measure 125
0100
0000
0000
0000
,  // measure 126
0100
0000
0000
0000
,  // measure 127
0020
0000
0000
0000
,  // measure 128
0000
0000
0000
0000
,  // measure 129
0130
0000
0000
0000
,  // measure 130
1000
0000
0000
0000
,  // measure 131
0002
0000
0000
0000
0000
0003
0000
0000
,  // measure 132
0100
0000
0000
1000
0000
0000
0000
0000
,  // measure 133
1000
0000
0000
0000
,  // measure 134
0010
0000
0000
0000
,  // measure 135
0200
0000
0000
0000
,  // measure 136
0300
0000
0000
0000
,  // measure 137
0001
0000
0000
0000
,  // measure 138
1000
0000
0000
0000
,  // measure 139
0200
0000
0000
0000
0000
0300
0000
0000
,  // measure 140
0000
0000
0000
0000
,  // measure 141
0001
0000
0000
0000
,  // measure 142
1000
0000
0000
0000
,  // measure 143
0020
0000
0000
0000
0000
0000
0000
0030
,  // measure 144
0000
0000
0000
0000
,  // measure 145
0100
0000
0000
0100
,  // measure 146
1000
0000
0000
0001
,  // measure 147
0100
0000
0000
0000
,  // measure 148
0100
0000
0000
0000
,  // measure 149
0001
0000
0000
0100
,  // measure 150
1000
0000
0000
0001
,  // measure 151
0100
0000
0000
0000
,  // measure 152
1000
0000
0000
0000
,  // measure 153
0010
0000
0000
0100
,  // measure 154
0001
0000
0000
1000
,  // measure 155
0001
0000
0000
0000
,  // measure 156
0010
0000
0000
0000
,  // measure 157
0100
0000
0000
0000
,  // measure 158
1000
0000
0000
0001
,  // measure 159
0100
0000
0000
0000
,  // measure 160
0020
0000
0000
0030
,  // measure 161
1001
0100
1000
0001
,  // measure 162
0100
0010
1000
0100
,  // measure 163
0001
0010
0100
1000
,  // measure 164
0001
1000
0001
1000
,  // measure 165
0020
0000
2030
0000
,  // measure 166
3200
0000
0302
0000
,  // measure 167
0013
1000
0010
0001
,  // measure 168
0010
1000
0010
0001
,  // measure 169
1000
0000
0000
0100
0000
0000
0010
0000
,  // measure 170
0000
0001
0000
0000
0100
0000
0000
0000
,  // measure 171
1001
0000
0110
0000
,  // measure 172
1001
0000
0000
0000
,  // measure 173
1000
0001
0100
0010
,  // measure 174
0010
1000
0100
0001
,  // measure 175
1000
1000
0001
0001
,  // measure 176
0100
0100
0100
0100
,  // measure 177
1001
0000
0000
1000
,  // measure 178
1000
0000
0000
0001
,  // measure 179
0001
0000
0000
1000
,  // measure 180
1000
0000
0000
0001
,  // measure 181
0001
0000
0000
1000
,  // measure 182
1000
0000
0000
0001
,  // measure 183
0001
0000
0000
1000
,  // measure 184
1000
0000
0000
0001
,  // measure 185
0001
0000
1000
0000
,  // measure 186
0100
0000
0010
0000
,  // measure 187
1000
0000
0001
0000
,  // measure 188
0010
0000
0100
0000
,  // measure 189
0001
0000
0000
0000
,  // measure 190
1000
0000
0000
0100
0000
0000
0001
0000
,  // measure 191
1001
0000
0110
0000
,  // measure 192
1001
0000
0000
0000
,  // measure 193
0001
0000
0000
0000
,  // measure 194
0001
0000
0000
0000
,  // measure 195
1000
0000
0000
0000
,  // measure 196
0000
0000
0000
0000
,  // measure 197
1000
0000
0000
0000
,  // measure 198
1000
0000
0000
0000
,  // measure 199
0020
0000
0000
0000
0000
0000
0000
0030
,  // measure 200
0000
0000
0000
0000
,  // measure 201
1000
0000
0000
0000
,  // measure 202
1000
0000
0000
0000
,  // measure 203
0001
0000
0000
0000
,  // measure 204
0000
0000
0000
0000
,  // measure 205
0001
0000
0000
0000
,  // measure 206
0001
0000
0000
0000
,  // measure 207
0020
0000
0000
0000
0000
0000
0000
0030
;

//---------------dance-single - TRICK----------------
#NOTES:
     dance-single:
     TRICK:
     Medium:
     6:
     0.325,0.518,0.214,0.055,0.024:
0000
0000
0000
0000
,
0000
0000
0000
0000
,
0000
0000
0000
0000
,
0000
0000
0000
0000
,
0000
0000
0000
0000
,
0000
0000
0000
0000
,
0000
0000
0000
0000
,
0000
0000
0000
0000
,
1000
0000
0000
0100
0000
0001
0100
0000
,
1000
0000
0000
1000
0000
0000
0000
0000
,
0001
0000
0000
0010
0000
1000
0010
0000
,
0100
0000
0000
0001
0000
0000
0000
0000
,
0100
0000
0000
0001
0000
0100
1000
0000
,
0100
0000
0000
0010
0000
0000
0000
0000
,
0001
0000
0000
0100
0000
1000
0010
0000
,
0100
0000
0000
1000
0000
0000
0000
0000
,
1001
0000
1000
0001
0000
0000
0000
0000
,
0101
0000
0000
1010
0000
0000
0000
0000
,
1001
0000
0001
1000
0000
0000
0000
0000
,
0000
0000
1010
0000
0000
0010
0000
0000
0000
0000
1001
0000
0000
0000
0000
0000
,
1001
0000
1000
0001
0000
0000
0000
0000
,
0011
0000
0000
1100
0000
0000
0000
0000
,
1001
0000
0001
1000
0000
0000
0000
0000
,
0000
0000
0011
0000
0000
0010
0000
0000
0000
0000
1001
0000
0000
0000
0000
0000
,
1001
0000
0010
0100
0000
0000
0000
0000
,
0001
0010
0000
1000
0000
0000
0000
0000
,
1001
0000
0010
0100
0000
0000
0000
0000
,
0000
0000
1000
0000
0000
0010
0000
0000
0000
0000
0100
0000
0000
0000
0000
0000
,
1001
0000
0010
0100
0000
0000
0000
0000
,
1000
0010
0000
0001
0000
0000
0000
0000
,
1001
0000
0010
0100
0000
0000
0000
0000
,
0000
0000
0010
0000
0000
0100
0000
0000
0000
0000
1000
0000
0000
0000
0000
0000
,
0010
0000
0010
0100
0000
0000
0001
0000
,
0100
1000
0001
0100
,
0010
0000
0010
0100
0000
0000
1000
0000
,
0100
0001
1000
0100
,
0010
0000
0010
1000
0000
0000
0100
0000
,
0001
1000
0100
0001
,
0000
0010
0000
0010
0000
0000
1000
0000
,
0010
0001
0100
1000
,
0010
0000
0010
0100
0000
0000
0100
0000
,
1000
0010
0001
1000
,
0010
0000
0010
0100
0000
0000
0010
0000
,
0001
0100
1000
0001
,
1000
0100
0100
0010
0000
0000
0000
0000
,
0001
0000
0000
1000
0000
0000
0000
0000
,
0001
0100
0100
0010
0000
0000
0000
0000
,
0000
0000
1000
0000
0000
0010
0000
0000
0100
0000
0000
0001
0000
0000
1000
0000
,
1001
0000
0000
0000
,
0100
0000
0000
0000
,
0001
0000
0000
0000
0000
2000
0000
0000
,
3001
0000
0000
0100
0000
0000
0000
0000
,
0010
0000
0000
0000
,
0001
0000
0000
0000
,
1000
0000
0000
0000
0000
0020
0000
0000
,
0130
0000
0001
0000
,
1000
0000
0010
0000
,
0100
0000
0001
0000
,
1000
0000
0000
0000
0000
0020
0000
0000
,
1030
0000
0000
0100
0000
0000
0000
0000
,
0001
0000
0000
0010
0000
0000
0000
0100
,
0000
0000
0000
1000
0000
0000
0000
0000
,
1000
0000
0000
0020
,
0130
0000
0000
0000
,
1000
0100
0010
0001
,
0100
0010
1000
0001
,
0100
0010
1000
0100
,
0010
0100
1000
0010
,
0001
0010
1000
0010
,
0100
1000
0100
0001
,
0010
0100
0001
0100
,
1000
0010
1000
0001
,
1000
0100
1000
0010
,
0100
0001
0010
0100
,
1000
0010
1000
0001
,
0100
0010
0100
1000
,
0001
0100
1000
0100
,
0001
0100
1000
0010
,
0100
0001
0100
1000
,
0100
0001
0010
0100
,
1001
0000
0010
0000
1000
0001
0100
0000
,
0100
0000
0100
0000
0001
0010
0100
0000
,
1000
1100
0001
0011
,
0010
1000
0010
0001
,
0100
0100
1000
0000
1000
0000
0010
0100
,
0001
0100
1000
0100
,
0002
0010
1000
0100
,
0100
0000
1000
0000
0010
0000
0010
0003
,
1001
1100
0101
0011
,
1001
1100
0101
0011
,
1001
0000
0100
0000
0010
0000
1000
0100
,
0010
0100
0001
1000
,
0001
0000
0010
0010
0000
0000
0110
0000
,
1000
0000
0010
0010
0000
0110
0000
0000
,
0001
0000
0100
1000
0000
0010
0000
0000
,
0000
0000
0001
0000
0000
0010
0000
0000
0100
0000
0000
1000
0000
0000
0110
0000
,
1001
0000
0010
1000
0100
0000
0100
0000
,
1100
1000
0011
0010
,
0101
0000
0001
1000
0100
0000
0100
0000
,
0020
1000
0031
0101
,
1000
0000
1000
0010
0100
0000
0100
0000
,
1000
0110
0001
0110
,
0200
0000
1000
0000
0310
0000
1000
0100
,
0001
0001
0010
0100
,
1001
0100
1000
0001
,
0001
0100
1000
0000
1000
0010
0001
0000
,
0101
1000
0101
1000
,
0010
1000
0010
0001
0010
1000
0010
0000
,
1001
0000
0010
0100
0001
0000
0010
0000
,
0010
1100
1000
0001
,
0001
1000
0010
0100
0001
0010
0100
1000
,
0020
1000
0001
0130
,
1001
0000
0110
0000
1000
0010
0100
0000
,
0101
0000
1010
0000
0010
0001
0010
0000
,
1000
1010
0200
0001
,
1300
0000
0010
0000
0100
1000
0010
0000
,
0001
1000
0100
0000
0010
0000
0010
0000
,
1000
0100
1000
0000
0001
0010
0001
0000
,
0020
0100
0001
0230
,
1000
0000
0301
0010
0100
1000
0001
0000
,
1000
0010
0100
0000
0101
0000
0010
0000
,
1100
0000
1000
0010
0001
0010
0100
0000
,
1100
0000
1000
0100
0001
0000
0010
0000
,
0001
0010
1000
0000
1010
0000
0101
0000
,
1001
0000
0000
1000
0000
0000
0000
0000
,
0100
0000
0000
0010
0000
0000
1000
0000
,
0100
0000
0000
0010
0000
0000
0000
0000
,
0002
0000
0000
0003
,
1001
0000
0000
0010
0000
0000
0100
0000
,
1000
0000
0000
1000
0000
0100
0000
0000
,
0001
0000
0000
0000
0000
0020
0000
0000
,
0130
0000
0000
1000
0000
0000
0000
0010
,
0010
0000
0000
0100
0000
0000
0001
0000
,
0010
0000
0000
0100
0000
0000
1000
0000
,
1000
0000
0000
0010
0000
0000
0100
0000
0001
0000
0000
0010
0000
0000
0100
0000
,
1000
0000
0000
0000
,
0001
0000
0000
1000
0000
0000
0010
0000
,
0100
0000
0000
0100
0000
0010
0000
0000
,
0100
0000
0000
0000
0000
2000
0000
0000
,
0000
3001
0000
0000
0000
0000
0100
0000
,
0001
0000
0000
0010
0000
0000
0100
0000
,
1000
0000
0000
1000
0000
0000
0100
0000
,
0020
0000
0000
0000
0000
0000
0000
0030
,
0000
0000
0000
0000
,
0010
0000
0000
0001
0000
0010
0100
0000
,
1000
0000
0000
1000
0000
0001
0000
0100
,
0100
0000
0000
0000
0000
0020
0000
0000
,
0130
0000
0000
1001
0000
0000
0000
0001
,
0001
0000
0000
1000
0000
0000
0100
0000
,
1000
0000
0010
0100
0000
0010
0001
0000
,
0100
0000
0000
0010
0000
0000
1000
0000
0100
0000
0000
0010
0000
0000
0001
0000
,
1000
0000
0000
0000
,
0010
0000
0000
1000
0000
0001
0100
0000
,
0100
0000
0100
0010
0000
0010
0000
0000
,
0001
0000
0000
0000
0000
1000
0000
0000
,
0010
0000
0100
0001
0000
0000
0000
0010
,
0100
1000
0100
0010
0000
0000
0001
0000
,
1000
0000
0010
0100
0000
0000
0001
0000
,
1000
0000
1000
0100
0000
1000
0100
0001
,
0020
0000
0000
0030
,
0001
0010
0100
0000
1000
0000
0001
0000
,
1000
0010
0100
0000
1000
0000
0100
0000
,
0001
0010
0100
0000
0100
0000
1000
0000
,
0001
1000
0001
1000
,
1000
0000
0000
0100
0000
0000
0010
0000
0000
0001
0000
0000
0001
0000
0100
0000
,
1000
0000
0100
0000
0001
0010
0100
1000
,
0010
0001
0010
0100
0010
0001
0010
1000
,
0010
0001
0010
1000
0100
0010
0001
0000
,
1100
0000
0000
1001
0000
0000
0101
0000
,
0000
1001
0000
0200
0000
0000
0000
0300
,
0001
0000
0000
0010
0000
0000
0100
0000
1000
0000
0000
0010
0000
0000
0100
0000
,
0001
0000
0000
0001
0000
0000
0001
0000
0000
0000
0000
0000
1000
0000
0000
0000
,
1000
0010
0001
0000
0101
0000
0100
0000
,
0010
0000
1010
0000
1000
0100
0001
0000
,
1001
0110
0001
1000
,
0010
0100
1000
0100
0001
0010
0100
0000
,
1001
0100
0010
1000
,
1001
0100
0010
0001
,
1001
0001
0001
0001
,
1001
0001
0001
0001
,
1001
0010
0100
1000
,
1001
0010
0100
0001
,
1001
1000
1000
1000
,
1001
1000
1000
1000
,
1001
1000
0100
0001
,
0100
1000
0010
0100
,
1000
0010
0001
0010
,
1000
0100
0010
0001
,
1000
0000
0000
0100
0000
0000
0001
0000
,
1000
0000
0000
0100
0000
0000
0001
0000
,
1001
0000
0110
0000
,
1001
0000
0000
0000
,
0001
0000
0000
0001
0000
0000
0000
0000
,
0001
0000
0010
0100
0000
0000
0000
0000
,
0001
0000
0000
0001
0000
0001
1000
0100
,
0000
0000
0000
0001
0000
0000
0000
0000
,
1000
0000
0000
1000
0000
0000
0000
0000
,
1000
0010
0100
0001
0000
0000
0000
0000
,
0010
0000
0000
0100
0000
0100
0001
1000
,
0000
0000
0000
0100
0000
0000
0000
0000
,
1000
0000
0000
1000
0000
0000
0000
0000
,
1000
0000
0010
0100
0000
0000
0000
0000
,
1000
0000
0000
1000
0000
1000
0001
0100
,
0000
0000
0000
1000
0000
0000
0000
0000
,
0001
0000
0000
0001
0000
0000
0000
0000
,
0001
0010
0100
1000
0000
0000
0000
0000
,
0010
0000
0000
0100
0000
0100
2000
0002
,
0000
0000
0000
0000
0000
3003
0000
0000
;

//---------------dance-single - HEAVY----------------
#NOTES:
     dance-single:
     HEAVY:
     Hard:
     9:
     0.527,0.864,0.360,0.139,0.083:
0000
0000
0000
0000
,
0000
0000
0000
0000
,
0000
0000
0000
0000
,
0000
0000
0000
0000
,
0000
0000
0000
0000
,
0000
0000
0000
0000
,
0000
0000
0000
0000
,
0000
0000
0000
0000
,
1000
0100
0010
0001
0000
0001
0000
0001
,
0000
0000
0000
0001
0010
0000
0100
1000
,
0000
1000
0000
1000
0000
1000
0000
1000
,
0000
0000
0000
0000
0000
0000
1000
0100
0001
0000
0000
0001
0000
0000
0010
0000
,
0100
1000
0001
0010
0000
0010
0000
0100
,
0000
0000
0000
0100
0000
0000
0000
0000
,
0001
0100
1000
0010
0000
0010
0000
0010
,
0000
0010
0010
0010
0000
0000
0100
0000
,
1001
0100
0001
1000
0000
0100
0100
0000
,
0011
0000
0100
1100
0000
0100
0100
0000
,
1001
0100
1000
0001
0000
0100
0100
0000
,
0000
0000
1000
0000
0100
0010
0000
0000
0000
0000
1001
0000
0000
0000
0000
0000
,
1001
0100
1000
0001
0000
0100
0100
0000
,
1010
0000
0100
0101
0000
0100
0100
0000
,
1001
0100
0001
1000
0000
0100
0100
0000
,
0000
0000
0001
0000
0100
0010
0000
0000
0000
0000
1001
0000
0000
0000
0000
0000
,
1001
1000
0010
0100
0000
1000
0100
0000
,
0101
0010
0010
1010
0000
1000
0100
0000
,
1001
0001
0001
0110
0000
0010
1000
0000
,
0000
0000
1000
0000
0001
0010
0000
0000
0000
0000
0100
0000
0000
0000
0000
0000
,
1001
0001
0010
0100
0000
0001
0100
0000
,
1100
0010
0010
0011
0000
0001
0100
0000
,
1001
1000
1000
0110
0000
0010
0001
0000
,
0000
0000
0001
0000
1000
0010
0000
0000
0000
0000
0100
0000
0000
0000
0000
0000
,
1001
1000
1000
1100
0000
0100
0001
0010
,
1100
1000
1000
1010
0001
0010
0100
0000
,
0011
0010
0010
1100
0000
1000
0010
0001
,
0101
0100
0100
0100
0010
0001
0100
0000
,
0110
0010
0010
1010
0000
0100
0001
1000
,
1100
0100
0100
0101
0001
0010
0100
0000
,
0000
0110
MMMM
0110
0000
0100
1000
1000
,
0100
0001
0100
1000
0100
0001
0010
0100
,
1001
0010
0100
1001
0000
1000
0100
1000
,
0001
0010
0010
0100
1000
0010
0100
0000
,
1001
0010
0100
1001
0000
0010
0100
0001
,
0001
0100
0010
1000
1000
0100
0001
0000
,
1001
0010
0100
1001
0000
0000
1000
0000
,
0001
0000
0010
1000
0000
0100
0100
0000
,
1001
0010
0100
1001
0000
0000
0000
0000
,
0000
0000
1010
0000
0000
0011
0000
0000
0101
0000
0000
1100
0000
0000
0110
0000
,
1001
0000
0000
0000
,
0100
0000
0000
0000
,
0001
0000
0000
0000
0000
2000
0000
0000
,
3001
0000
0000
0100
0000
0000
0000
0000
,
0010
0000
0000
0000
,
0001
0000
0000
0000
,
1000
0000
0000
0000
0000
0020
0000
0000
,
0130
0000
0001
0000
,
1000
1000
0000
0000
0010
0000
0000
0000
,
0100
0100
0000
0000
1000
0000
0000
0000
,
0001
0000
0000
0000
0000
0020
0000
0000
,
1030
0000
0000
0100
0000
0000
0000
0000
,
0001
0000
0010
0000
0001
0000
0010
0000
0000
0000
0000
0100
0000
0000
1000
0000
,
0000
0000
0000
0001
0000
0000
0000
0000
,
0010
0000
0000
0010
,
1100
0000
0000
0000
,
1000
0001
0010
0100
,
1000
1010
0001
0101
,
0100
0100
1000
0100
,
1000
0100
0010
0001
,
0001
0010
0100
1000
,
0100
0011
0100
1010
,
0001
0010
0001
0010
,
0100
0000
1000
0000
0100
0000
0010
0001
,
1000
0100
1000
0010
0100
0001
0100
1000
,
0100
0001
0010
0100
0010
0001
1000
0010
,
0100
0001
1000
0010
0100
0010
1000
0001
,
0100
0010
1000
0100
0010
0001
0100
0010
,
1000
0001
1000
0010
0100
0001
0010
0100
,
1000
0100
0010
0100
1000
0001
0010
1000
,
0010
0001
1000
0010
0100
0001
0100
0010
,
1000
0010
0100
0001
0010
0100
1000
0010
,
1001
0100
0010
0100
1000
0001
0100
0010
,
1000
0100
0001
1000
0010
0001
0010
0100
,
1000
0010
0100
1000
0100
0001
0010
0100
,
0001
0100
1000
0010
0100
0001
1000
0010
,
0100
0001
0100
1000
0100
0001
0100
1000
,
0100
0001
0010
0100
1000
0100
0010
0001
,
1000
0001
0010
0001
1000
0100
1000
0001
,
1000
0100
1000
0001
0010
0100
1000
0001
,
1000
0010
0100
1000
0001
0100
0010
0001
,
1000
0010
0100
1000
0001
0100
0010
0001
,
1001
0010
0100
0010
0001
1000
0010
0100
,
0001
1000
0100
1000
0001
0010
0100
0000
,
0001
0100
0000
0000
0010
0000
0010
0000
0000
0100
0000
0000
1001
0000
0000
0000
,
1000
0010
0000
0000
0010
0000
0100
0000
0000
0000
0110
0000
0001
0000
0000
0000
,
0001
0100
0000
0000
0100
0000
1000
0000
0000
0000
0010
0000
0000
0000
0000
0000
,
0000
0000
0011
0000
0000
1010
0000
0000
1100
0000
0000
0101
0000
0000
0011
0000
,
1001
1000
0010
1000
0100
0010
0100
0001
,
0100
1000
0010
0001
0010
1000
0100
0001
,
0100
1000
0001
1000
0100
0010
0001
0100
,
0010
0100
0000
0000
1000
0000
0100
0000
0001
0000
0010
0000
0100
0010
0000
0000
,
0001
1000
0001
0010
0100
1000
0100
0010
,
0001
0100
1000
0100
0001
0100
1000
0100
,
0001
0000
0100
0010
0100
0000
1000
0000
0010
0100
0010
0000
0001
0000
0100
0000
,
1000
0010
0001
0010
1000
0100
0001
0000
,
1001
1000
0100
0010
1010
1000
0100
0001
,
0101
0100
1000
0010
0011
0001
0100
1000
,
1001
0001
0010
1000
1100
0100
0001
0010
,
1010
1000
0010
0001
0010
1000
0010
0001
,
1001
1000
0100
0001
0011
0010
0100
1000
,
1100
1000
1100
0100
0110
0100
0110
0010
,
0011
0001
0011
0001
0010
1000
0010
0001
,
0010
1000
0010
0001
0010
1000
0010
MMMM
,
1001
0000
0000
0000
0001
0100
0000
0000
1000
0000
0010
0000
0100
0000
MMMM
0000
,
1001
0000
0000
0000
1000
0010
0000
0000
0010
0000
0001
0000
0010
0000
MMMM
0000
,
0110
0000
0000
0000
1000
0100
0000
0000
0010
0000
0100
0000
1000
0000
MMMM
0000
,
1001
0000
0000
0000
0010
0100
0000
0000
0100
0000
1000
0000
0001
0000
MMMM
0000
,
0110
0000
0000
0000
1000
0010
0000
0000
0100
0000
1000
0000
0001
0000
MMMM
0000
,
1001
0000
0000
0000
0100
0010
0000
0000
0001
0000
0100
0000
1000
0000
MMMM
0000
,
1001
0000
0000
0000
0001
1000
0000
0000
0100
0000
0001
0000
0010
0000
0100
0000
,
1000
MMMM
0100
MMMM
0010
MMMM
0001
MMMM
,
1001
0000
1000
0000
0010
0000
1000
0010
0100
0000
0001
0000
0010
0000
MMMM
0000
,
1001
0000
1000
0000
0100
0000
0010
0001
0010
0000
0100
0000
1000
0000
MMMM
0000
,
1001
0000
1000
0000
0001
0000
0010
0100
1000
0000
0010
0000
0100
0000
MMMM
0000
,
1001
0000
1000
0000
0010
0100
1000
0000
0100
0000
0001
0000
0010
0000
MMMM
0000
,
1001
0000
0100
1000
0000
0010
0000
0010
,
0100
0000
1000
0010
0000
0001
1000
0000
,
0010
0000
0010
0001
0000
0001
0000
0000
,
0002
0000
0000
0003
,
1001
0000
1000
0010
0000
0010
0100
0000
,
1000
0000
0100
0010
0000
0010
0010
0000
,
0001
0010
0100
1000
0000
0020
0000
0000
,
0130
0000
0000
1000
0000
0000
0000
0010
,
0010
0000
0100
0100
0000
1000
0001
0000
,
0010
0000
0010
0100
0000
1000
0100
0010
,
0001
0000
0000
0010
0000
0000
1000
0000
0100
0000
0000
0001
0000
0000
0010
0000
,
1000
0000
0000
1000
0000
0100
0010
0000
,
0001
0000
1000
1000
0000
0010
0100
0000
,
0100
0000
0010
1000
0000
0100
0001
0000
,
0001
0010
0100
1000
0000
0020
0000
0000
,
1030
0001
0010
0100
0000
1000
0100
0001
,
0001
0000
0001
0010
0000
0010
0100
0000
,
1000
0000
0100
0010
0000
0000
0001
0000
,
0100
1000
0100
1000
0000
0010
0001
0100
,
0000
1000
1000
1000
0000
0100
0100
0000
,
0010
0000
0010
0001
0000
0010
0100
0000
,
1000
0000
0001
1000
0000
0100
0000
0100
,
0001
0010
0100
1000
0000
0010
1000
0100
,
0001
0000
0010
1001
0000
0100
0000
0001
,
0001
0000
0010
1000
0000
0100
0100
0000
,
1000
0000
0100
0010
0000
0001
0100
0010
,
1000
0000
0000
0010
0000
0000
0001
0000
0100
0000
0000
1000
0000
0000
0010
0000
,
0001
0000
0000
0010
0000
0000
0100
0000
,
1000
0000
0010
1000
0000
0001
0100
0000
,
0001
0000
0100
0010
0000
0010
1000
0100
,
0001
0010
0100
1000
0000
1000
0000
0100
,
0010
0000
0100
0001
0000
0001
0000
0010
,
0100
1000
0100
0010
0000
0010
0001
0000
,
0100
0000
1000
0010
0000
0001
0100
0000
,
1000
0000
0010
0001
0000
0001
0100
1000
,
2002
0000
0000
0000
0000
0000
0000
0000
3003
0000
0000
0000
1000
0001
1000
0001
,
1000
0100
0210
0001
0310
1000
1010
0010
,
1000
0100
0010
0100
1000
0010
0001
0100
,
1000
0000
0000
0010
0000
0000
0001
0000
0010
0000
1000
0000
0100
0000
0001
0000
,
0100
1200
1000
0310
1000
0100
0001
0100
,
2000
0000
0000
3020
0000
0000
0230
0000
0000
0302
0000
0000
2003
0000
3020
0000
,
0032
0000
0103
0000
0001
0000
1000
0000
0001
0100
0001
0010
1000
0010
1000
0000
,
0200
0000
0000
0302
0000
0000
0013
0000
0110
0000
0010
0000
1010
0000
0010
0000
,
0110
0010
0011
0010
0110
0010
1010
1001
,
0001
0010
0002
0200
0000
0003
1300
0100
2000
0020
0000
3000
0031
0010
0001
0200
,
0000
0000
1300
0100
2000
0020
3000
0031
0010
0001
0100
0000
0001
0000
0010
0000
,
1000
0000
0000
0100
0000
0000
0001
0000
0010
0000
0000
1000
0000
0000
0001
0000
,
1001
0000
0000
0000
0000
0000
0110
0000
0000
0000
0000
0000
1001
0000
0000
0000
0000
0000
0000
0000
0100
0000
0000
1000
0000
0000
0100
0000
0000
0010
0000
0000
,
0001
0100
0001
0010
0001
1000
0100
0001
,
0010
0000
1000
0000
0001
0000
0010
0000
0001
0000
1000
0000
0000
0010
1000
0000
,
1010
0010
0110
0010
0011
0010
0110
0010
,
1010
0010
0110
0010
0110
1001
0110
0000
,
2001
0000
3100
0010
1000
0000
1000
0100
,
1002
0000
0103
0010
0001
0000
0001
0100
,
1001
0000
0001
2000
0001
0000
3100
0000
,
0001
0010
0001
0010
0001
0010
0001
0000
,
0201
0000
0310
0100
2000
0000
3001
0100
,
1200
0000
0310
0100
0002
0000
1003
0100
,
0101
0010
0100
1000
0001
0010
0100
1000
,
1000
0100
0010
0001
1000
0100
0010
0001
,
2001
0000
3010
0000
1000
0100
0001
0000
,
0201
0000
0310
0000
0001
0100
1000
0000
,
1001
0000
1010
0000
0001
0100
0010
0000
,
0011
0000
1100
0000
1000
0100
0001
0000
,
1000
0100
0001
0010
0000
0010
0100
0000
,
1000
0000
0100
0001
0000
0010
1000
0000
,
0100
0100
0000
0010
1000
0100
0001
0010
,
2002
0000
0000
3003
,
0001
0001
0010
0200
0000
1300
0000
0100
,
0001
0001
0010
0200
0000
0301
0000
0000
,
1000
0010
0001
2000
0000
3001
0010
2000
,
0000
0000
0000
3100
0000
0000
0000
0000
,
1000
1000
0100
0200
0000
0301
0000
0010
,
1000
1000
0100
0002
0000
1003
0000
0000
,
0001
0010
1000
0002
0000
1003
0010
1001
,
0000
0000
0000
0100
0000
0000
0000
0000
,
1000
0000
0010
0100
0000
0001
0000
0000
,
1001
0000
0001
0010
0000
1000
0000
0000
,
1000
0010
0000
0100
0000
1000
0010
0002
,
0000
0000
0000
0103
0000
0000
0000
0000
,
0001
0010
1000
0200
0000
0301
0000
0000
,
1000
0010
0001
0200
0000
1300
0000
0000
,
0001
0100
1000
0020
0000
0130
0010
2002
,
0000
0000
0000
0000
0000
3003
0000
0000
;

//---------------dance-single - ONI----------------
#NOTES:
     dance-single:
     ONI:
     Challenge:
     12:
     0.757,1.000,0.588,0.166,0.595:
0000
0000
0000
0000
,
0000
0000
0000
0000
,
0000
0000
0000
0000
,
0000
0000
0000
0000
,
0000
0000
0000
0000
,
0000
0000
0000
0000
,
0000
0000
0000
0000
,
0000
0000
0000
0000
0000
0000
0000
0000
0000
0000
0000
0000
0000
0000
0010
0100
,
1001
0000
0000
0000
0100
0000
0001
0100
0000
0000
0000
0000
0010
0000
0001
0000
,
0100
0000
0000
0000
0100
0000
0001
0010
0000
0000
0000
0000
0100
0000
1000
0000
,
0001
0000
0000
0000
0010
0000
1000
0001
0000
0000
0000
0000
0100
0000
1000
0000
,
0010
0000
0000
0000
0010
0000
1000
0100
0010
0001
0000
0100
0001
0000
0100
0000
,
0100
0000
1000
0000
0001
0000
0010
0100
0000
0000
0000
0000
0001
0000
0100
0000
,
1000
0000
0000
0000
1000
0000
0100
0010
0000
0000
0000
0000
0001
0000
0100
0000
,
1000
0000
0000
0000
1000
0000
0010
0100
0000
0000
0000
0000
0001
0000
0010
0000
,
1000
0000
0010
0000
0010
0000
0010
0100
0010
0010
0001
0010
0100
1000
0010
0100
,
1001
0000
0100
0000
0001
0000
1000
0100
0000
0000
0100
0000
0100
0000
0001
0000
,
0011
0000
0001
0000
0100
0000
1000
0100
0000
0000
0100
0000
0100
0000
0010
0000
,
1001
0000
0100
0000
0001
0000
1000
0100
0000
0000
0100
0000
0010
0000
0001
0000
,
0101
0000
1000
0000
0100
0000
0010
1000
0010
0100
0000
0010
1000
0000
0100
0000
,
1001
0000
0100
0000
0001
0000
1000
0100
0000
0000
0100
0000
0010
0000
0001
0000
,
0011
0000
1000
0000
0100
0000
0010
0001
0000
0000
0100
0000
0100
0000
0010
0000
,
1001
0000
0100
0000
0001
0000
1000
0010
0000
0000
0100
0000
0010
0000
0010
0000
,
1001
0000
0001
0000
0100
0000
0000
0010
0100
0010
1000
0000
1010
0000
0101
0000
,
1001
0000
1000
0000
0010
0000
0100
0001
0000
0000
1000
0000
0100
0000
0001
0000
,
0101
0000
0010
0000
0010
0000
0010
1000
0000
0000
1000
0000
0100
0000
0001
0000
,
1001
0000
0001
0000
0001
0000
0010
0100
0000
0000
0010
0000
1000
0000
0001
0000
,
1001
0000
1000
0000
0001
0000
0010
0100
1000
0001
0000
0010
0100
0000
1000
0000
,
1001
0000
0001
0000
0010
0000
0100
1000
0000
0000
0001
0000
0100
0000
1000
0000
,
1100
0000
0010
0000
0010
0000
0001
0010
0000
0000
0001
0000
0100
0000
1000
0000
,
1001
0000
1000
0000
1000
0000
0010
0100
0000
0000
0010
0000
0001
0000
1000
0000
,
1001
0000
0001
0000
1000
0000
0000
0010
0100
0001
0100
0000
1000
0000
0100
0000
,
1001
0000
1000
0010
1000
0001
1100
0000
1000
0000
1001
0000
0001
0000
0010
0000
,
1100
0000
1000
0100
0010
0000
0011
0000
0001
0000
0010
0000
0100
1000
0100
0000
,
0011
0000
0010
0001
0010
0100
1001
0000
1000
0000
1010
0000
0010
1000
0001
0000
,
0101
0000
0100
0000
0100
0000
0110
0000
0010
1000
0001
0010
0100
1000
0001
0100
,
1001
0000
0010
1000
0010
0100
1001
0000
1000
0000
0110
0000
0010
0000
1000
0000
,
1100
0000
0100
0010
0001
0000
0101
0000
0001
0000
0010
0000
0100
1000
0001
0000
,
0110
0000
1001
0100
MMMM
0010
1001
0000
0000
0000
0100
0001
1000
0000
1000
0000
,
1100
0000
0010
0000
0100
0000
1001
0000
0100
0010
1000
0001
0010
0100
1000
0001
,
1001
0000
0010
1000
0100
0010
1001
0000
0010
0000
1010
0000
0100
0000
1000
0000
,
0011
0000
0010
1000
0010
0000
0101
0000
1000
0000
0010
0000
0100
0001
0010
0000
,
1001
0000
0010
1000
0100
0010
1001
0000
0001
0000
0110
0000
0100
0000
1000
0000
,
1001
0000
0001
1000
0010
0000
0110
0000
1000
0000
0100
0001
1000
0100
0010
0001
,
1001
1000
0010
1000
0100
0010
0001
0010
0100
1000
0010
0100
1000
0100
0010
0001
,
0010
0100
0010
1000
0100
0010
0001
0100
1000
0100
0010
0100
0001
0010
0100
1000
,
0001
1000
0010
1000
0100
0010
0001
0100
0001
0010
0100
1000
0010
1000
0001
0100
,
0010
1000
1010
0000
0001
0011
0000
0001
0101
0000
1000
1100
0000
0100
0110
0000
,
1001
0000
0000
1000
0000
0000
1000
0000
0000
0000
0000
0000
0000
0000
0000
0000
,
0100
0000
0000
0100
0000
0000
0100
0000
0000
0000
0000
0000
0000
0000
0000
0000
,
0001
0000
0000
0001
0000
0000
0001
0000
0000
0000
1000
0010
0100
0001
0010
0100
,
1000
0000
1000
0100
0100
0000
0100
0000
,
0010
0000
0000
0010
0000
0000
0010
0000
0000
0000
0000
0000
0000
0000
0000
0000
,
0001
0000
0000
0001
0000
0000
0001
0000
0000
0000
0000
0000
0000
0000
0000
0000
,
1000
0000
0000
1000
0000
0000
1000
0000
0000
0000
0010
1000
0100
0010
0001
0100
,
1000
0100
0000
0001
0010
0000
0100
0000
,
1000
0000
0000
1000
0000
0000
1000
0000
0010
0000
0000
0000
0000
0000
0000
0000
,
0001
0000
0000
0001
0000
0000
0001
0000
1000
0000
0000
0000
0000
0000
0000
0000
,
0100
0000
0000
0100
0000
0000
0100
0000
0000
0000
0001
0010
0100
1000
0010
0100
,
0001
0010
1000
0100
0100
0000
0100
0000
,
0001
0000
0010
0000
0001
0000
0010
0000
0000
0000
0000
0100
0000
0000
1000
0000
,
0000
0000
1000
0001
0000
0000
0000
0000
,
0010
0000
0000
0010
0000
0000
0010
0000
0000
0000
0000
0000
1000
0010
0100
0001
,
2020
0000
0000
0000
3030
MMMM
0101
0000
,
0001
1000
0010
0000
1000
0100
0000
0100
0010
0000
0010
0100
0000
0100
1000
0000
,
1000
0001
0010
0000
0010
0100
0000
0010
0001
0000
0010
0100
0000
0100
0010
0000
,
0100
1000
0010
0000
0100
0001
0000
0100
1000
0000
0100
0001
0000
0001
0010
0000
,
0010
0100
1000
0000
1000
0100
0000
0010
0001
0000
0100
0010
0000
1000
0010
0000
,
0100
1000
0100
0000
0010
1000
0000
1000
0100
0000
0100
1000
0000
1000
0010
0000
,
0100
0001
0010
0000
0001
0010
0000
0100
1000
0000
1000
0001
0000
0001
0010
0000
,
0100
1000
0001
0000
0010
1000
0000
0010
0001
0000
0010
0100
0000
1000
0010
0000
,
0100
0001
0010
0000
0100
1000
0000
0100
0001
0000
1000
0100
0000
1000
0010
0000
,
0010
1000
0100
0010
0001
0000
0100
0000
0010
0000
0001
0000
0010
0000
1000
0000
,
0010
0100
1000
0100
0001
0010
0100
1000
,
0100
0010
0001
0100
1000
0000
0100
0000
0001
0000
0010
0000
0100
0000
1000
0000
,
0010
0100
0010
1000
0100
0010
0001
0010
,
0100
0010
0001
0010
0100
0000
1000
0000
0010
0000
0100
0000
0001
0000
0100
0000
,
1000
0100
0010
0100
0001
0010
0100
1000
,
0010
0100
0001
0010
1000
0000
0010
0000
0100
0000
0001
0000
0100
0000
0010
0000
,
0011
0000
1100
0000
0100
1001
MMMM
1000
0010
0100
0001
0000
1001
0000
0110
0000
,
2001
0100
0010
0100
0100
0010
3200
0320
,
0001
0100
0001
1000
0130
0002
0023
0230
,
0001
0000
0000
0000
0000
0000
0320
0000
0000
0000
0000
0000
0100
0000
0000
0000
0000
0000
1000
0000
0000
0000
0000
0000
0130
0000
0000
0001
0000
0000
0010
0000
0000
0001
0000
0000
0010
0000
0000
0000
2000
0000
0000
0000
3200
0000
0000
0000
,
0320
0100
1000
0032
0100
0010
1003
0020
,
0230
0000
0001
0320
1000
0000
0032
0000
0100
0000
1000
0000
0203
0000
0320
0000
,
1000
0000
0001
0000
0100
0000
1000
0000
0032
0000
1000
0203
0010
0000
0302
0000
,
0023
1000
0100
0001
0100
1000
0100
0001
,
0100
1000
0100
0001
1000
0100
1030
0001
,
1000
0100
0010
1000
0001
0010
0100
0001
1000
0100
0010
1000
0001
0010
0100
0001
,
1000
0100
0010
1000
0001
0010
0100
0001
1000
0100
0010
1000
0001
0010
0100
0001
,
2000
0010
0100
0010
0001
0010
3200
0320
,
0001
0000
0000
0230
0000
0000
1000
0000
0000
0010
0000
0000
0001
0000
0000
0010
0000
0000
2300
0000
3020
0000
0230
0000
,
0301
1000
0000
1000
0100
0001
0010
0000
0010
0000
0100
0000
1001
0000
0100
0000
,
1000
0010
0001
0000
0100
0010
0100
0000
1001
0000
1001
0000
0110
0000
0010
0000
,
1001
0100
1000
0010
0100
0001
1001
1000
0100
1000
0010
0100
0001
0010
0100
1000
,
0001
0010
0011
0000
1000
1010
0000
0100
1100
0000
0100
0101
0000
0001
0011
0000
,
1001
0000
1000
0010
0000
0010
0100
0000
0100
0000
0010
0000
0100
0010
0001
0010
,
0100
0000
0000
1000
0100
0000
0010
0000
0100
0000
0000
1000
0100
0000
0001
0000
,
1000
0100
0000
0001
0100
0000
1000
0100
0000
0000
0010
0000
0001
0000
0100
0001
,
0010
0100
1000
0100
0001
0010
1100
0110
,
0101
0000
0001
0010
0000
0100
1000
0000
1000
0000
0010
0000
0100
0001
0010
0001
,
1000
0000
0000
0010
1000
0000
0100
0000
0001
0000
0000
0100
1000
0000
0010
0000
,
0100
0010
0000
0010
0100
0000
0100
0001
0000
0000
0001
0000
1000
0000
0100
0000
,
1000
0000
0010
0000
0001
0000
0010
0000
1000
0000
0100
0000
1000
0010
0100
0001
,
1001
0000
1000
0010
0100
0000
0110
0000
1001
0000
1000
0000
0100
0000
0010
0100
,
1001
0000
0100
0001
1000
0000
0110
0000
0011
0000
0001
0010
0100
0000
1000
0010
,
1001
0000
1000
0010
0100
0000
1010
0000
0101
0000
0100
0000
0001
0000
0010
0100
,
1010
1000
0011
0001
1010
1000
0011
0110
,
1001
0000
1010
0010
0000
0100
0101
0000
0001
0000
0010
0000
0100
0000
1000
0100
,
1100
0000
1000
0100
1001
0000
1000
0100
1100
0000
1000
0100
1001
0000
0001
0100
,
0101
0000
0001
0100
1001
0000
0001
0100
0101
0000
0001
0100
1001
0000
0001
0100
,
0101
0000
1000
0000
0010
0000
0001
0110
0000
1001
0000
0010
0100
MMMM
1001
0000
,
1001
0000
MMMM
0100
0001
0000
MMMM
0010
1000
0000
MMMM
0001
0100
0000
MMMM
0000
,
1001
0000
MMMM
0010
1000
0000
MMMM
0001
0100
0000
MMMM
1000
0010
0000
MMMM
0000
,
0110
0000
MMMM
0001
0100
0000
MMMM
1000
0010
0000
MMMM
0001
1000
0000
MMMM
0000
,
1001
0000
MMMM
0100
0010
0000
MMMM
0001
0100
0000
MMMM
0100
0001
0000
MMMM
0000
,
0110
0000
MMMM
0001
1000
0000
MMMM
0010
0100
0000
MMMM
1000
0001
0000
MMMM
0000
,
1001
0000
MMMM
0010
0100
0000
MMMM
1000
0001
0000
MMMM
0001
1000
0000
MMMM
0000
,
1001
0000
MMMM
0001
1000
0000
MMMM
0010
0100
0000
MMMM
0001
0010
0000
MMMM
0100
,
1000
MMMM
1000
0100
0010
MMMM
0100
0010
0001
MMMM
0001
0010
0100
MMMM
0110
0000
,
1001
0000
0000
0000
1000
0000
0100
0000
0010
0000
0000
MMMM
0000
0000
0010
0000
0100
0000
MMMM
0000
1000
0000
0100
0000
0010
0000
0000
MMMM
0000
0000
0010
0000
,
1001
0000
0000
0000
0001
0000
0100
0000
0010
0000
0000
MMMM
0000
0000
0010
0000
0100
0000
MMMM
0000
0001
0000
0100
0000
0010
0000
0000
MMMM
0000
0000
0010
0000
,
1001
0000
0000
0000
1000
0000
0010
0000
0100
0000
0000
MMMM
0000
0000
0100
0000
0010
0000
MMMM
0000
1000
0000
0010
0000
0100
0000
0000
MMMM
0000
0000
0100
0000
,
1001
0000
0000
0000
0001
0000
0010
0000
0100
0000
0000
MMMM
0000
0000
0100
0000
0010
0000
MMMM
0000
0001
0000
0010
0000
0100
0000
0000
MMMM
0000
0000
0100
0000
,
1001
0000
1000
0010
0000
0010
1000
0000
0000
0000
0000
0000
0000
0000
0010
0001
,
0100
0000
0000
1000
0000
0000
0010
0000
0001
0000
0000
1000
0000
0000
0100
0000
,
0010
0000
0001
0010
0000
0010
0002
0000
0000
0000
0000
0000
0000
0000
0000
0000
,
0003
0000
0100
0000
0000
0100
0000
0000
0000
0000
0100
0000
0100
0000
0000
0000
,
1001
0000
1000
1000
0000
0010
0100
0100
,
1000
0000
0100
0010
0000
0010
0010
0010
,
0001
0000
0010
0000
0100
0000
1000
0000
0000
0000
0010
1000
0100
0010
0001
1000
,
0100
0100
0100
1000
0000
1000
0001
0010
,
0010
0000
0100
1001
0000
1000
0001
0000
,
0010
0000
0010
0100
0000
1000
0100
0010
,
0001
0000
0000
0010
0000
0000
1000
0000
0100
0000
0000
0001
0000
0000
0010
0000
,
1000
0000
0100
0000
0100
0000
0010
0000
0000
0000
0100
0000
0010
0000
0010
0100
,
1000
0000
1000
1000
0000
0010
0100
0001
,
0100
0000
0010
1000
0000
0100
0001
0001
,
0001
0000
0010
0000
0100
0000
1000
0000
0000
0000
1000
0010
0100
0001
0010
0100
,
1000
0100
0001
0010
0000
0010
0100
0000
0000
0000
1000
0000
0100
0000
0001
0000
,
0001
0010
0010
0100
0000
0000
0100
0100
,
1000
0000
0100
0010
0000
0000
0001
0010
,
0100
1000
0100
1000
0000
0010
0001
0100
,
0000
1000
1000
1000
0000
0100
0100
0000
,
0010
0000
0010
0001
0000
0010
0100
0100
,
1001
0000
0001
1000
0000
0100
0100
0100
,
0001
0000
0010
0000
0100
0000
1000
0000
0000
0000
0010
0100
1000
0001
0010
0100
,
0001
0000
0010
1001
0000
0100
0100
0011
,
0011
0000
0010
1001
0000
0100
1001
0001
,
1010
0000
0100
1010
0000
0001
0100
0010
,
1010
0000
0000
0011
0000
0000
0101
0000
1100
0000
0000
1010
0000
0000
0011
0000
,
1001
0000
0001
0000
0001
0000
0010
0000
0000
0000
0010
0000
0100
0000
0010
0100
,
1000
0000
0010
1010
0000
0001
0101
0000
,
0001
0100
0100
0010
0000
0010
1000
0100
,
1001
0010
0100
1000
0000
1000
0000
0100
,
1001
0000
0100
1010
0000
0001
0001
0010
,
0100
1000
0100
0010
0000
0010
1001
0000
,
1001
0000
1000
0101
0000
0001
0101
0000
,
1010
0000
0010
0001
0000
0001
0100
1000
,
2002
0000
0000
0000
0000
0000
0000
0000
3003
0000
0000
0000
1000
0001
1000
0001
,
1001
0000
0100
0000
0010
0100
0001
0000
0010
0000
1000
0000
1010
0000
0011
0000
,
1000
0010
0100
0000
0001
0010
0100
0000
1000
0000
0010
0100
0000
0001
0100
0000
,
1000
0000
0100
0001
0000
0010
0001
0000
1000
0000
0010
0000
0100
0000
1000
0100
,
0001
0000
0010
0000
0100
0000
1000
0000
0100
0010
0001
0000
1001
0000
0110
0000
,
1001
0000
1000
0010
0000
0010
0100
0000
0100
0001
0000
0000
1001
0000
0110
0000
,
0201
0000
0000
0000
0001
0000
1300
0000
1000
0100
0001
0100
1000
0100
0010
0000
,
2001
0000
0000
3002
0000
0000
1003
0010
0100
1000
0001
0100
0010
0001
1000
0010
,
0100
1000
0001
0100
0010
0001
1000
0010
0100
1000
0001
0000
0110
0000
1001
0000
,
0001
0010
0001
1010
0000
0000
1000
0010
1000
0011
0000
0000
0001
0010
0001
1010
,
0000
0000
1000
0010
1000
0011
0000
0001
0010
0100
1000
0000
1001
0000
1010
0000
,
0110
0000
0100
0001
0000
0000
0011
0000
1010
0000
0010
1000
0000
0000
0110
0000
,
1001
0000
0000
0000
0000
0000
0110
0000
0000
0000
0000
0000
1001
0000
0000
0000
0000
0000
0000
0000
1000
0000
0000
0100
0000
0000
0001
0000
0000
0010
0000
0000
,
1000
0000
0100
0010
0100
0000
0001
0000
0010
0100
0010
0000
1000
0000
0100
0000
,
0001
0000
0100
0010
0100
0000
1000
0000
0010
0100
0010
0000
0000
0001
0010
0000
,
1000
0100
0010
1000
0001
0010
0100
0001
1000
0010
0100
1000
0001
0100
0010
0001
,
1000
0100
0001
0100
1000
0010
0001
0010
1001
0000
0100
1001
MMMM
0000
0110
0000
,
1002
0000
0000
0000
1003
0010
0001
0000
2000
0000
0000
0000
3001
0100
1000
0000
,
0002
0000
0103
0010
0002
0000
0013
0100
,
1001
0010
1001
0100
1001
0110
0110
1000
,
1001
0000
1000
0100
1000
0000
0001
0010
0001
0000
1000
0100
1000
0000
0001
0100
,
2001
0000
3001
0100
2000
0000
3001
1000
,
0020
0000
0230
1000
0302
0000
0023
1000
,
1030
0100
0010
0001
1000
0010
0100
0001
1000
0100
0010
0001
1000
0010
0100
0001
,
1000
0100
0010
0001
1000
0010
0100
0001
,
1001
0000
0000
0000
0110
0000
0010
0100
1001
0000
0100
0010
1001
0000
0000
0000
,
1001
0000
0000
0000
0110
0000
1000
0100
0011
0000
0001
0100
1010
0000
0000
0000
,
1001
0000
0000
0000
0110
0000
0001
1000
0110
0000
1000
0001
0110
0000
0000
0000
,
1001
0000
1100
0000
1000
0010
0001
0110
,
1001
1000
1000
0010
0000
0010
0100
0000
,
1001
0000
0100
0001
0000
0010
0100
0000
,
1001
0000
0100
0000
0000
0000
0010
0000
1001
0100
0010
0001
0100
0010
1000
0100
,
2002
0000
0000
3003
,
1001
0000
0000
0001
0010
0000
0200
0000
0000
0000
0000
0000
2300
0000
0000
0000
,
3001
0001
0010
0100
0000
1001
0000
0000
,
1000
0000
0000
0010
0100
0000
0100
0000
0000
0000
0001
0000
0010
0000
2000
0000
,
0000
0000
0000
3200
0000
0000
0300
0000
,
1001
0000
0000
1000
0100
0000
0020
0000
0000
0000
0000
0000
0032
0000
0000
0000
,
0013
1000
0100
0010
0000
1001
0000
0000
,
0001
0001
0001
0100
0000
1000
0010
0002
,
0000
0000
0000
0203
0000
0000
0300
0000
,
1000
0100
0010
0001
0000
0001
0000
0000
,
0001
0100
0010
1000
0000
1000
0000
0000
,
1000
0010
0010
0100
0000
1000
0010
0001
,
0000
0000
0000
0220
0000
0000
0330
0000
,
0001
0100
0010
1000
0000
1000
0000
0000
,
1000
0100
0010
0001
0000
0001
0000
0000
,
1000
0100
0001
0010
0000
0100
0010
2002
,
0000
0000
0000
0000
0000
0000
0000
0000
0000
0000
0000
0000
0000
0000
0000
0000
0000
0000
0000
0000
0000
0000
0000
0000
0000
0000
0000
0000
0000
0000
0000
0000
0000
0000
0000
0000
0000
0000
0000
0000
3003
0000
0000
0000
0000
0000
0000
MMMM
1001
0000
0000
0000
0000
0000
0000
0000
0000
0000
0000
0000
0000
0000
0000
0000
;
