#TITLE:Merry Christmas Mr.Lawrence;
#SUBTITLE:;
#ARTIST:sasakure.UK;
#TITLETRANSLIT:;
#SUBTITLETRANSLIT:;
#ARTISTTRANSLIT:;
#CREDIT:;
#BANNER:Merry Christmas Mr.Lawrence.png;
#BACKGROUND:Merry Christmas Mr.Lawrence-bg.png;
#LYRICSPATH:;
#CDTITLE:cdtitle.png;
#MUSIC:Merry Christmas Mr.Lawrence.mp3;
#OFFSET:-1.650;
#SAMPLESTART:47.500;
#SAMPLELENGTH:12.000;
#SELECTABLE:YES;
#BPMS:0.000=145.000,64.000=160.000,64.500=175.000,65.000=180.000,65.500=190.000,66.000=200.000,66.500=185.000,66.750=170.000,67.000=160.000,67.250=150.000,67.500=135.000,67.750=125.000,68.000=120.000,69.000=110.000,70.000=105.000,71.000=100.000,72.000=90.000,73.000=85.000,74.000=80.000,75.000=145.000;
#STOPS:75.000=0.450
;
#BGCHANGES:;

//---------------dance-single - BASIC----------------
#NOTES:
     dance-single:
     BASIC:
     Easy:
     5:
     0.295,0.405,0.248,0.207,0.014:
0000
0000
0000
0000
,
0000
0000
0000
0000
,
0000
0000
0000
0000
,
0000
0000
0000
0000
,
0000
0000
0000
0000
,
0000
0000
0000
0000
,
0000
0000
0000
0000
,
0000
0000
0000
0000
,
1000
0000
0000
0000
,
0000
0000
0000
0000
,
0000
0000
0000
0000
,
0000
0000
0000
0000
,
0001
0000
0000
0000
,
0000
0000
0000
0000
,
1000
0000
0000
0000
,
0001
0000
0100
0010
,
2002
0000
0000
0000
,
0000
0000
0000
0000
,
0000
0000
0000
3003
,
1001
0000
0000
1000
0000
0000
0100
0000
0001
0000
0000
0000
,
1000
0001
0100
1000
,
0010
0000
0000
1000
0000
0100
0000
0000
0000
0000
0000
0000
,
0001
0011
1000
1100
,
1000
0000
0000
0001
0000
0000
0100
0000
1000
0000
0000
0000
,
0001
1000
0100
0001
,
0010
0000
0000
0001
0000
0100
0000
0000
0000
0000
0000
0000
,
1001
0000
0110
0000
,
1000
0001
0100
0001
,
0001
0010
0001
0001
,
0100
1000
1000
0001
,
0010
1000
0100
1000
,
0001
1000
0100
1000
,
1000
0010
1000
1000
,
0100
0001
0001
1000
,
0010
0001
0100
0001
,
2000
0000
3002
0000
,
0103
0010
0002
0000
,
0103
1000
0020
0001
,
1030
0001
0010
0011
,
0002
0000
2003
0000
,
3100
0010
2000
0000
,
3100
0001
0020
1000
,
0031
1000
0010
1010
,
1000
0100
1000
0001
,
0100
0010
0001
0100
,
0010
1000
0001
0100
,
0010
1000
0100
0010
,
1000
0001
0100
0001
,
1000
0100
0010
1000
,
0100
0010
0001
1000
,
0010
0100
0001
0100
,
0002
0103
2000
3100
,
0002
0013
2000
3010
,
0002
0103
2000
3100
,
0002
0013
2000
3010
,
1000
0001
0100
0010
,
1001
0000
1001
0000
,
1000
0100
0001
1000
,
0020
0000
0000
0030
,
1000
0000
0011
0000
,
0110
0000
1000
0100
,
0001
0000
1100
0000
,
0110
0000
0001
0100
,
1000
0000
0101
0000
,
0110
0000
1000
0100
,
0001
0000
1100
0000
,
0110
0000
0001
0100
,
1000
1010
0001
0011
,
1000
1010
0001
0011
,
0001
0101
1000
1100
,
0001
0101
1000
1100
,
0001
0100
0001
1000
,
0100
1000
0001
1000
,
0001
1000
0001
1000
,
0000
1001
0000
1001
,
2000
3010
0100
0102
,
0013
0200
0000
0310
,
1000
0020
0100
0031
,
0100
1100
0020
0001
,
1030
0100
0020
1030
,
0001
0020
0130
0001
,
0201
0310
1020
0130
,
0001
1001
1001
1001
,
2002
0000
0000
0000
,
3003
0000
0000
0000
;

//---------------dance-single - TRICK----------------
#NOTES:
     dance-single:
     TRICK:
     Medium:
     8:
     0.423,0.550,0.275,0.207,0.014:
0000
0000
0000
0000
,
0000
0000
0000
0000
,
0000
0000
0000
0000
,
0000
0000
0000
0000
,
0000
0000
0000
0000
,
0000
0000
0000
0000
,
0000
0000
0000
0000
,
0000
0000
0000
0000
,
1000
0000
0000
0000
,
1000
0000
0000
0000
,
1000
0000
0000
0000
,
0001
0000
0000
0000
,
0001
0000
0000
0000
,
0001
0000
0000
0000
,
1000
0000
0000
0000
,
0001
0000
0100
0010
,
2002
0000
0000
0000
,
0000
0000
0000
0000
,
0000
0000
0000
3003
,
1001
0000
0000
0000
0000
0000
1000
0000
0000
1000
0000
0000
0100
0000
0000
0000
0001
0000
0000
0000
0000
0000
0000
0000
,
1000
0000
0001
0010
0100
0000
1000
0000
,
0010
0000
0000
0010
0000
0000
1000
0000
0000
0000
0100
0000
0000
0000
0000
0010
0000
0000
0000
0000
0000
0000
0000
0000
,
1001
0011
1001
1100
,
1000
0000
0000
0000
0000
0000
0001
0000
0000
0001
0000
0000
0100
0000
0000
0000
1000
0000
0000
0000
0000
0000
0000
0000
,
0001
0000
1000
0010
0100
0000
0001
0000
,
0010
0000
0000
0010
0000
0000
0001
0000
0000
0000
0100
0000
0000
0000
0000
1000
0000
0000
0000
0000
0000
0000
0000
0000
,
1001
0000
0110
0000
,
1000
1000
0001
0000
0100
0000
0001
0000
,
0001
0001
1000
0000
0100
0000
1000
0000
,
1000
1000
0001
0000
0100
0000
0001
0000
,
0001
0001
1000
0000
0100
0000
1000
0000
,
0001
0010
0010
0000
0100
0001
1000
0000
,
1001
1000
0100
0000
0100
1000
0001
0000
,
1001
0000
0101
0000
,
1020
2030
3200
0300
,
1000
0100
2000
0001
0000
3100
0000
0000
,
0001
0100
0002
1000
0000
0103
0010
0100
,
0020
0100
0100
0001
,
1030
0011
1000
1100
,
0001
0100
0002
1000
0000
0103
0000
0000
,
1000
0100
2000
0001
0000
3100
0010
0100
,
0020
0100
0100
1000
,
0031
1010
0001
0101
,
1000
0010
0100
0001
0100
1000
0100
0000
,
0001
0010
0100
1000
0100
0001
0100
0000
,
1000
1000
0010
0100
0001
0100
0100
0010
,
0010
1000
0100
0010
,
0001
0010
0100
1000
0100
0001
0100
0000
,
1000
0010
0100
0001
0100
1000
0100
0000
,
0001
0001
0010
0100
1000
0100
0100
0010
,
0010
0001
0100
0010
,
1000
0010
0100
0000
1000
0001
0100
0000
,
0001
0010
0100
0000
1000
0010
0100
0000
,
0001
0100
1000
0000
1000
0010
0100
0000
,
0100
0001
0010
0000
1000
0001
0010
1000
,
0010
0001
0100
0000
0010
1000
0100
0000
,
1000
0010
0100
0000
0001
0100
1000
0000
,
0001
0010
0100
0000
0001
0100
1000
0000
,
0220
0000
0000
0330
,
1000
0100
1000
0010
0100
1000
0100
0001
,
0010
0010
1000
0100
,
0001
0100
0001
0010
0100
0001
0100
1000
,
0010
0010
0001
0100
,
1000
0100
1000
0010
0100
1000
0100
0001
,
0010
0010
1000
0100
,
0001
0010
0001
0010
0100
0001
0100
1000
,
0010
0010
0001
0100
,
1001
1001
0110
0110
,
1001
1001
0110
0110
,
1001
1001
0110
0110
,
1001
1001
0110
1001
,
1000
0001
0010
0000
0010
0001
0100
0000
,
0100
1000
0001
0000
1000
0010
0100
0000
,
0010
0100
1000
0000
0100
0001
1000
0000
,
0100
0010
0001
0100
1000
0001
1001
0000
,
0020
0100
1030
2000
0100
3000
0012
0000
,
0013
0000
0200
0000
0302
0000
0013
0200
,
1000
0300
0102
0000
0013
0010
0001
2000
,
0100
3000
1100
0000
0110
0000
0021
0001
,
1030
0000
0200
0010
0310
0100
2000
0000
,
3001
0100
0020
0000
0230
0000
0301
0100
,
0001
0200
0010
0310
2000
0100
3010
0100
,
0001
0100
1000
0010
0001
0010
0100
0001
,
2002
0000
0000
0000
,
3003
0000
0000
0000
;

//---------------dance-single - HEAVY----------------
#NOTES:
     dance-single:
     HEAVY:
     Hard:
     9:
     0.564,0.752,0.558,0.207,0.114:
0000
0000
0000
0000
,
0000
0000
0000
0000
,
0000
0000
0000
0000
,
0000
0000
0000
0000
,
0000
0000
0000
0000
,
0000
0000
0000
0000
,
0000
0000
0000
0000
,
0000
0000
0000
0000
0000
0000
0000
0100
,
2002
0000
0000
0000
,
0000
0000
0000
0000
,
0000
0000
0000
0000
,
0000
0000
0000
0000
,
0000
0000
0000
0000
,
0000
0000
0000
0000
,
0000
0000
0000
0000
,
0000
0000
0000
0000
3003
0000
0000
0010
,
2002
0000
0000
0000
,
0000
0000
0000
0000
,
0000
0000
0000
0000
0000
0000
0000
0000
0000
0000
0000
0000
0000
0000
0000
0000
0000
0000
0000
0000
0000
0000
0000
0000
0000
0000
0000
0000
0000
0000
0000
0000
0000
0000
0000
0000
0000
0000
0000
0000
0000
0000
0000
0000
0000
0000
0000
0000
0000
3003
0000
0000
0000
0000
0000
0000
0000
0000
0000
0000
0000
0000
0000
0000
,
1001
0000
0010
0000
1010
0000
1000
0000
0110
0000
0000
1001
0000
0000
0000
0000
,
1000
0000
0001
0010
0100
0010
1000
0100
,
0001
0000
0010
0000
1000
0100
0000
0010
0000
0000
0001
0000
0010
0000
0100
0000
,
1000
0100
0000
0000
0011
0000
0000
0000
0001
0010
0000
0000
1100
0000
0000
0000
,
1001
0000
0010
0000
0011
0000
0001
0000
0110
0000
0000
1001
0000
0000
0000
0000
,
0001
0000
1000
0010
0100
0010
0001
0100
,
1000
0000
0010
0000
1000
0100
0000
0010
0000
0000
0001
0000
0010
0000
0100
0000
,
1000
0100
0000
0000
0100
0010
0000
0000
0110
0000
0000
1000
0001
0000
1000
0000
,
1001
0000
1000
0000
0010
0000
0100
0000
0100
0000
0000
1010
0000
0000
0000
0000
,
1001
0001
1000
0010
0100
0100
1000
0100
,
0001
0000
0100
0000
1000
0100
0000
0001
0100
0000
0010
0000
0101
0000
0000
0000
,
0001
0100
0000
0000
1010
0000
0000
0000
1000
0010
0000
0000
0101
0000
0000
0000
,
1001
0000
0001
0000
0010
0000
0100
0000
0100
0000
0000
0011
0000
0000
0000
0000
,
1001
0001
1000
0010
0100
0100
0001
0100
,
1000
0000
0100
0000
0001
0100
0000
1000
0100
0000
0010
0000
1010
0000
0000
1000
,
0100
0000
0000
0000
0011
0000
0000
0000
0001
0100
0000
0000
1100
0000
0000
0000
,
1001
0200
0010
0001
0000
1300
0000
1000
,
1001
0200
0010
1000
0000
0301
0010
0100
,
0010
0100
1000
0020
0000
0100
0000
0001
,
0030
1000
0100
0001
0000
1100
1000
0001
,
1001
0200
0010
0001
0000
1300
0000
1000
,
1001
0200
0010
1000
0000
0301
0010
0100
,
0010
0100
0001
0020
0000
0100
0000
1030
,
0000
0001
0100
1000
0000
0101
0001
1000
,
1001
1000
0100
0001
0100
1000
0010
0100
,
0001
0010
0100
1000
0010
0001
0010
1000
,
0100
0001
0010
0100
0100
0010
0001
0100
,
1000
0100
0001
0010
1000
0010
0100
0100
,
1001
0001
0100
1000
0100
0001
0010
0100
,
1000
0010
0100
0001
0010
1000
0010
0001
,
0100
1000
0010
0100
0100
0010
1000
0100
,
0001
0100
1000
0010
0001
0010
0010
0100
,
1001
0001
0010
0010
1000
0001
0100
0000
,
1000
0010
0100
0000
0001
0100
1000
0000
,
0001
0100
1000
0010
1000
0010
0100
0100
,
0100
0001
0010
0000
1000
0001
0010
1000
,
1001
1000
0010
0010
0001
1000
0100
0000
,
0001
0010
0100
0000
1000
0100
0001
0000
,
1000
0100
0001
0010
0001
0010
1000
0100
,
0220
0000
0000
0330
,
1000
0100
0001
0010
0010
0001
0100
1000
,
0010
1000
0010
0000
0001
1000
0001
0000
1010
0000
0000
0000
1001
0000
0000
0000
,
0001
0000
0100
0000
0001
0000
0010
0000
0100
0001
0100
0001
0100
0000
1000
0000
,
0010
0000
1000
0010
1000
0001
0010
0000
0011
0000
0000
0000
1001
0000
0000
0000
,
0001
0100
1000
0010
0010
1000
0100
0001
,
0010
0001
0010
0000
1000
0001
1000
0000
0011
0000
0000
0000
1001
0000
0000
0000
,
1000
0000
0100
1000
0100
1000
0100
0000
1000
0000
0010
0000
0100
0000
0001
0000
,
0010
0000
0001
0010
0001
1000
0010
0000
1010
0000
0000
0000
1001
0000
0000
0000
,
0001
0100
1001
0000
1000
0100
1001
0000
,
0001
0100
1001
0000
1000
0100
1001
0000
,
1000
0010
1001
0000
0001
0010
1001
0000
,
1000
0010
1001
0000
0001
0010
1001
0000
,
1001
0010
0011
0000
1001
0100
1100
0000
,
1001
0010
1010
0000
1001
0100
0101
0000
,
0110
1001
0110
0000
0110
1001
0110
0000
,
0001
0100
1000
0001
0100
1000
1001
0000
,
1010
0100
1020
1000
0130
1100
0012
0010
,
1003
0100
0201
0010
0302
1000
0023
0100
,
1030
0001
0101
0100
1020
0100
0032
0100
,
0013
1000
2100
0100
3010
0100
0021
0001
,
1030
0110
0201
0010
0310
0100
2010
0100
,
3001
0100
1020
1000
0230
0010
0302
0100
,
2003
0100
3020
1000
1030
0001
0100
1000
,
0001
1000
0010
0001
1000
0001
0100
1000
,
2002
0000
0000
0000
,
3003
0000
0000
0000
;

//---------------dance-single - ONI----------------
#NOTES:
     dance-single:
     ONI:
     Challenge:
     10:
     0.787,0.868,0.895,0.689,0.368: // measure 1
0000
0000
0000
0000
,  // measure 2
0000
0000
0000
0000
,  // measure 3
0000
0000
0000
0000
,  // measure 4
0000
0000
0000
0000
,  // measure 5
0000
0000
0000
0000
,  // measure 6
0000
0000
0000
0000
,  // measure 7
0000
0000
0000
0000
,  // measure 8
0000
0000
0000
0000
0000
0000
0000
0100
,  // measure 9
0001
0000
0000
0010
0000
0000
0001
0000
0100
0000
0000
0010
0000
0000
0100
0000
,  // measure 10
1000
0000
0000
0100
0000
0000
0010
0000
0100
0000
0000
0001
0000
0000
1000
0000
,  // measure 11
0001
0000
0000
0100
0000
0000
0010
0000
0100
0000
0000
0001
0000
0000
1000
0000
,  // measure 12
0100
0000
0000
0010
0000
0000
0001
0000
0100
0000
0000
1000
0000
0000
0010
0000
,  // measure 13
0100
0000
0000
0001
0000
0000
0010
0000
1000
0000
0000
0010
0000
0000
0001
0000
,  // measure 14
0100
0000
0000
0001
0000
0000
1000
0000
0010
0000
0000
0100
0000
0000
0001
0000
,  // measure 15
1000
0000
0000
0100
0000
0000
0010
0000
0001
0000
0000
0100
0000
0000
1000
0000
,  // measure 16
0010
0000
0000
0001
0000
0000
0100
0000
1000
0000
0000
0001
0000
0000
0010
0000
,  // measure 17
2002
0000
0000
0000
,  // measure 18
0000
0000
0000
0000
,  // measure 19
0000
0000
0000
0000
0000
0000
0000
0000
0000
0000
0000
0000
0000
0000
0000
0000
0000
0000
0000
0000
0000
0000
0000
0000
0000
0000
0000
0000
0000
0000
0000
0000
0000
0000
0000
0000
0000
0000
0000
0000
0000
0000
0000
0000
0000
0000
0000
0000
3003
1000
0000
0000
0100
0000
0000
0000
0010
0000
0000
0000
0001
0000
0000
0000
,  // measure 20
1001
0000
1000
0000
1010
0000
0001
0000
0110
0000
0000
2002
0000
0000
3003
0000
,  // measure 21
1010
0000
0001
0010
0201
0010
1300
0100
,  // measure 22
1002
0000
1000
0000
1003
0100
0000
0010
0000
0000
0001
0000
0010
0000
0100
0000
,  // measure 23
1000
0100
1000
0000
0000
0000
0000
0000
2100
0000
0000
0000
0000
0000
0000
0000
3001
0000
0000
0000
1000
0100
1000
0000
0100
0000
0010
0000
0001
0000
1000
0000
,  // measure 24
1001
0000
0001
0000
0011
0000
1000
0000
0110
0000
0000
2002
0000
0000
3003
0000
,  // measure 25
0011
0000
1000
0010
1200
0010
0301
0100
,  // measure 26
2001
0000
0001
0000
3001
0010
0000
0100
0000
0000
1000
0000
0100
0000
0010
0000
,  // measure 27
0001
0010
0001
0000
0000
0000
0000
0000
1010
0000
0000
0000
0000
0000
0000
0000
0110
0000
0000
0000
0000
0000
1000
0000
0001
0000
0000
0000
1000
0000
0000
0000
,  // measure 28
1001
0000
1000
0000
1010
0000
0100
0000
0101
0000
0000
2020
0000
0000
3030
0000
,  // measure 29
1002
0000
2003
0010
3100
0001
1020
0100
,  // measure 30
0032
0000
0100
0000
1003
0100
0000
0001
0100
0000
0010
0000
0101
0000
0100
0000
,  // measure 31
0001
0100
0001
0000
0000
0000
0000
0000
1020
0000
0000
0000
0000
0000
0000
0000
1030
0000
0000
0000
0001
0100
0001
0000
0100
0000
0010
0000
1000
0000
0001
0000
,  // measure 32
1001
0000
0001
0000
0011
0000
0100
0000
1100
0000
0000
0022
0000
0000
0033
0000
,  // measure 33
1002
0000
2003
0010
3100
0100
0001
0100
,  // measure 34
2001
0000
0100
0000
3001
0100
0000
0001
0101
0000
0010
0000
1010
0000
0100
0000
,  // measure 35
1000
0100
1000
0000
0000
0000
0000
0000
0011
0000
0000
0000
0000
0000
0000
0000
2002
0000
0000
0000
0000
0000
0000
0000
3003
0000
0000
0000
0000
0000
0000
0000
,  // measure 36
2001
0100
3010
0102
0000
2003
0000
3001
,  // measure 37
1002
0100
0013
2100
0000
3001
0010
0100
,  // measure 38
0010
0100
2000
0020
3000
0230
0000
0302
,  // measure 39
0000
1003
0100
0002
0000
2003
0100
3001
,  // measure 40
2001
0100
3010
0102
0000
2003
0000
3001
,  // measure 41
1002
0100
0013
2100
0000
3001
0010
0100
,  // measure 42
0010
0100
0002
0020
0003
0230
0000
2300
,  // measure 43
0000
3001
0100
2000
0000
3002
0100
1003
,  // measure 44
1001
1000
1100
1000
0010
1000
1010
1000
,  // measure 45
0001
0010
0011
0001
0100
0001
0101
0001
,  // measure 46
0010
0100
1100
1000
0100
0010
1001
0001
,  // measure 47
0100
0000
0010
0000
1001
0000
1000
0000
1000
0000
0010
1000
1010
0000
1000
0000
,  // measure 48
1001
0001
1001
1000
0100
0001
1001
0001
,  // measure 49
0100
1000
1001
0001
0010
1000
1010
0001
,  // measure 50
0100
1000
0101
0010
0100
1000
1010
0010
,  // measure 51
0100
0001
0101
1000
1000
0100
1010
0001
,  // measure 52
1001
0000
0001
0000
0101
0000
0010
0000
1010
0000
0000
0202
0000
0000
0303
0000
,  // measure 53
2001
0000
3002
0100
0013
1000
0201
0010
,  // measure 54
2300
0000
0010
0000
3001
0010
0000
1000
0010
0000
0100
0000
1010
0000
0010
0000
,  // measure 55
1000
0010
1000
0000
0000
0000
0000
0000
0201
0000
0000
0000
0000
0000
0000
0000
0301
0000
0000
0000
1000
0010
1000
0000
0010
0000
0100
0000
0001
0000
1000
0000
,  // measure 56
1001
0000
1000
0000
1100
0000
0010
0000
0011
0000
0000
2200
0000
0000
3300
0000
,  // measure 57
2001
0000
3002
0100
0013
0010
1000
0010
,  // measure 58
1002
0000
0010
0000
1003
0010
0000
1000
1010
0000
0100
0000
0101
0000
0010
0000
,  // measure 59
0001
0010
0001
0000
0000
0000
0000
0000
0220
0000
0000
0000
0330
0000
0000
0000
2002
0000
0000
0000
0000
0000
3003
0000
1000
0000
0001
0000
0000
0000
0000
0000
,  // measure 60
1001
0000
1000
0000
0001
0000
0100
0000
0010
0000
1000
0010
0100
0010
1000
0010
,  // measure 61
1000
0001
0100
0010
1000
0010
1000
0010
1010
0000
0000
0000
2001
0000
0000
0000
,  // measure 62
3001
0000
0100
0000
0001
0000
0100
0001
0010
0001
0100
0001
0100
0000
1000
0000
,  // measure 63
0010
0000
1000
0010
1000
0001
0010
0001
0011
0000
0000
0000
1001
0000
0000
0000
,  // measure 64
1001
0000
0100
0000
0010
0000
0001
0000
0001
0100
0010
0100
0001
0010
0100
1000
,  // measure 65
0001
0000
0010
0001
1000
0001
0010
0001
0100
0001
0010
0000
1001
0000
1000
0000
,  // measure 66
0010
0000
0100
0001
0100
0010
0100
0001
0100
0000
0010
0000
0100
0000
0001
0000
,  // measure 67
0010
0000
0001
0010
0001
1000
0010
1000
1010
0000
0000
0000
1001
0000
0000
0000
,  // measure 68
1001
0000
1000
0000
1100
0000
0010
0000
0011
0000
0000
2200
0000
0000
3300
0000
,  // measure 69
1002
0000
2003
0100
3010
0001
1200
0010
,  // measure 70
0302
0000
0010
0000
1003
0010
0000
0001
0010
0000
0100
0000
0011
0000
0010
0000
,  // measure 71
0001
0010
0001
0000
0000
0000
0000
0000
1200
0000
0000
0000
0000
0000
0000
0000
1300
0000
0000
0000
0001
0010
0001
0000
0000
0000
0000
0000
0000
0000
0000
0000
,  // measure 72
1001
0000
0001
0000
0101
0000
0010
0000
1010
0000
0000
0202
0000
0000
0303
0000
,  // measure 73
1002
0000
2003
0100
3010
0010
0001
0010
,  // measure 74
2001
0000
0010
0000
3001
0010
0000
0001
0011
0000
0100
0000
1100
0000
0010
0000
,  // measure 75
1000
0010
1000
0000
0000
0000
0000
0000
0110
0000
0000
0000
0001
0000
0000
0000
1000
0000
0001
0000
0010
0000
0100
0000
1000
0000
0010
0000
0100
0000
0001
0000
,  // measure 76
1001
0110
1020
1000
0130
1100
0012
0010
,  // measure 77
1003
0110
0201
0010
0302
1000
0023
0100
,  // measure 78
1030
0000
0000
0000
0000
0000
0000
0000
1001
0000
0000
0000
0000
0000
0000
0000
0102
0000
0000
0000
0000
0000
0000
0000
0100
0000
0000
0000
0000
0000
0000
0003
1020
0000
0000
0000
0000
0000
0000
0000
0100
0000
0000
0000
0000
0000
0000
0000
0032
0000
0000
0000
0000
0000
0000
0000
0100
0000
0000
0000
0000
0000
0000
0000
,  // measure 79
0013
1001
2100
0100
3010
0100
0021
0001
,  // measure 80
1030
0110
0201
0010
0310
0101
2010
0100
,  // measure 81
3001
0110
1020
1000
0230
0010
0302
0100
,  // measure 82
2003
0100
3010
1010
2001
3002
0100
1003
,  // measure 83
1002
2003
0010
3001
2001
3002
0100
1003
,  // measure 84
2002
0000
0000
0000
,  // measure 85
3003
0000
0000
0000
;

//---------------dance-double - ----------------
#NOTES:
     dance-double:
     :
     Hard:
     9:
     0.520,0.665,0.269,0.124,0.145:
00000000
00000000
00000000
00000000
,
00000000
00000000
00000000
00000000
,
00000000
00000000
00000000
00000000
,
00000000
00000000
00000000
00000000
,
00000000
00000000
00000000
00000000
,
00000000
00000000
00000000
00000000
,
00000000
00000000
00000000
00000000
,
00000000
00000000
00000000
00000000
00000000
00000000
00000000
00000010
,
00022000
00000000
00000000
00000000
,
00000000
00000000
00000000
00000000
,
00000000
00000000
00000000
00000000
,
00000000
00000000
00000000
00000000
,
00000000
00000000
00000000
00000000
,
00000000
00000000
00000000
00000000
,
00000000
00000000
00000000
00000000
,
00000000
00000000
00000000
00000000
00033000
00000000
00000000
00100000
,
00022000
00000000
00000000
00000000
,
00000000
00000000
00000000
00000000
,
00000000
00000000
00000000
00000000
00000000
00000000
00000000
00000000
00000000
00000000
00000000
00000000
00000000
00000000
00000000
00000000
00000000
00000000
00000000
00000000
00000000
00000000
00000000
00000000
00000000
00000000
00000000
00000000
00000000
00000000
00000000
00000000
00000000
00000000
00000000
00000000
00000000
00000000
00000000
00000000
00000000
00000000
00000000
00000000
00000000
00000000
00000000
00000000
00000000
00033000
00000000
00000000
00000000
00000000
00000000
00000000
00000000
00000000
00000000
00000000
00000000
00000000
00000000
00000000
,
00001010
00000000
00000101
00000010
00001000
00001100
00000100
00010000
,
00101000
00000000
00110000
00000000
01000000
10000000
01100000
00000000
,
00100000
00001000
00010000
00001000
00000100
00000000
00000110
00000000
,
00001001
00000100
00000010
00000000
00000101
00000000
00000010
00001000
,
00000100
00010000
00011000
00000000
00101000
00000000
00010000
00100000
,
01100000
01000000
10000000
01000000
00000000
00100000
00001000
00011000
,
00010000
00000010
00000100
00000000
00000001
00000000
00000011
00000000
,
00000010
00000100
00001000
00000010
00000110
00000000
00011000
00000000
,
00101000
00000000
00010000
01000000
01100000
00000000
10010000
00000000
,
01000000
00100000
00011000
00000000
00000010
00000100
00000001
00000010
,
00000100
00001000
00000001
00000000
00000100
00000010
00001010
00000000
,
00010000
00001000
00100000
00000000
00110000
01000000
11000000
00000000
,
01100000
00000000
00010000
00001000
00000100
00000000
00000110
00000000
,
00000001
00001000
00000110
00000000
00000101
00000000
00000010
00001000
,
00010100
00000000
00001000
01000000
00110000
00000000
01000000
10000000
,
01200000
00001000
00010000
01300000
,
00010000
10000000
01100000
00020000
00000000
00001000
00000000
00030010
,
00000100
00000001
00001100
00000020
00000000
00000100
00000030
00000001
,
00001000
00000100
00001010
00000200
00000000
00010000
00000000
00000320
,
00000000
00001000
00020030
01000000
00000000
00130000
10000000
01000000
,
00010000
00001000
00110000
02000000
00000000
10000000
00000000
03100000
,
00010000
00001000
00010100
00000020
00000000
00001000
00000030
00000001
,
00000100
00001000
00110000
02000000
00000000
10000000
00000000
03200000
,
00000000
00010000
00302000
00000100
00000000
00003010
00001000
00000001
,
00000100
00001000
00000010
00000100
00000001
00000010
00000100
00001000
,
00000010
00000100
00000001
00000010
00000100
00001000
00010000
00100000
,
01000000
10000000
00100000
01000000
00010000
00100000
01000000
10000000
,
00100000
01000000
00010000
00001000
00000010
00000100
00000001
00000010
,
00000100
00001000
00000010
00000100
00000001
00000010
00000100
00001000
,
00010000
00100000
01000000
10000000
00100000
01000000
00010000
00100000
,
01000000
10000000
00100000
01000000
00010000
00001000
00000010
00000100
,
00000001
00000010
00000100
00001000
00000010
00010000
00001000
01000000
,
00010000
00000000
00100000
01000000
10000000
00100000
00010000
01000000
,
00001000
00010000
00000010
00000100
00000001
00000010
00000100
00000001
,
00000010
00001000
00000100
00000010
00000001
00000100
00000010
00001000
,
00010000
00100000
00010000
01000000
00100000
10000000
01000000
00100000
,
00010000
01000000
00001000
00010000
00000010
00000100
00000001
00000010
,
00000100
00001000
00000010
00000100
00000001
00000010
00000100
00001000
,
00010000
00100000
00010000
10000000
01000000
00100000
00010000
01000000
,
00001000
00000000
00011000
00000000
00000010
00000100
00000001
00000000
,
00000100
00000000
00000010
00000000
00001000
00000000
00000000
00000000
00010000
00000000
00001000
00000000
00100000
01000000
00100000
01000000
,
00100000
00000000
10000000
00000000
01000000
00000000
00100000
00000000
00001000
00000000
00000000
00010000
00001000
00000000
00000000
00000000
,
00000100
00000000
00000010
00000000
00001000
00000000
00000001
00000010
00000001
00000010
00000001
00000010
00000001
00000000
00000100
00000000
,
00001000
00000000
00010000
00100000
00010000
00100000
00010000
00100000
00020000
00000000
00000000
00000000
01000000
00000000
00000000
00000000
,
00031000
00000000
00000100
00000000
00000010
00000000
00000001
00000000
00000100
00000000
00001000
00100000
00001000
00100000
00001000
00100000
,
00001000
00000000
00010000
01000000
00010000
01000000
00010000
01000000
00100000
01000000
00100000
00000000
00100000
00000000
00000000
00000000
,
10000000
00000000
00100000
01000000
00100000
01000000
00100000
01000000
00100000
00000000
00010000
00000000
00001000
00000000
00000010
00000000
,
00000001
00000000
00000010
00000100
00000010
00000100
00000010
00000100
00000020
00000000
00000000
00000000
00010000
00000000
00000000
00000000
,
00000130
00000000
00001000
00000000
00010000
00000000
01000000
00000000
10000000
00000000
01000000
00100000
00000000
00000000
00001000
00000000
,
00010000
00000010
00000100
00000001
00000010
00000100
00001000
00000010
,
00000100
00000000
00001000
00000000
00010000
01000000
00000000
00100000
00000000
00000000
01000000
00000000
10000000
00000000
00100000
00000000
,
00010000
00001000
00010000
00000000
00000010
00001000
00000100
00000001
,
00000010
00000000
00000100
00000000
00001000
00000000
00000010
00000000
00010000
00000000
00000100
00001000
00000000
00000000
00000000
00000000
,
00100000
00010000
10000000
01000000
00100000
00001000
00010000
00000010
,
00000100
00000000
00000001
00000000
00001000
00000100
00000000
00000001
00000000
00000000
00000010
00000000
00000100
00000000
00001000
00000000
,
00010000
00000000
00000000
00100000
01000000
00000000
00000000
10000000
00010000
00000000
00000000
00100000
01000000
00000000
00000000
00000000
,
01000000
00000000
10000000
00000000
00010000
00000000
01000000
00000000
00001000
00000000
00010000
00000010
00000000
00000000
00000100
00000000
,
00000001
00000010
00000100
00001000
00000010
00000100
00000001
00000010
,
00000100
00000000
00010000
00000000
00001000
00100000
00000000
00010000
00000000
00000000
10000000
00000000
01000000
00000000
00100000
00000000
,
00001000
00000000
00000000
00010000
00000010
00000000
00000000
00000010
00000100
00000000
00001000
00000000
00000001
00000000
00000000
00000000
,
00000010
00000000
00010000
00000000
00001000
00000000
00100000
00000000
00010000
00000000
10000000
01000000
00000000
00000000
00100000
00000000
,
00001000
00010000
00000010
00000100
00000001
00000010
00000100
00010000
,
00001000
00000000
00100000
00000000
00010000
10000000
00000000
01000000
00000000
00000000
00100000
00000000
00001000
00000000
00010000
00000000
,
00000010
00000000
00000000
00000010
00000100
00000000
00000000
00000100
00000001
00000000
00000000
00000001
00001000
00000000
00000100
00000000
,
00000020
00000000
00000000
00000000
,
00000030
00000000
00000000
00000000
;

//---------------dance-double - ----------------
#NOTES:
     dance-double:
     :
     Medium:
     7:
     0.367,0.434,0.048,0.090,0.000:
00000000
00000000
00000000
00000000
,
00000000
00000000
00000000
00000000
,
00000000
00000000
00000000
00000000
,
00000000
00000000
00000000
00000000
,
00000000
00000000
00000000
00000000
,
00000000
00000000
00000000
00000000
,
00000000
00000000
00000000
00000000
,
00000000
00000000
00000000
00000000
00000000
00000000
00000000
00000010
,
00020000
00000000
00000000
00000000
,
00000000
00000000
00000000
00000000
,
00000000
00000000
00000000
00000000
,
00000000
00000000
00000000
00000000
,
00000000
00000000
00000000
00000000
,
00000000
00000000
00000000
00000000
,
00000000
00000000
00000000
00000000
,
00000000
00000000
00000000
00000000
00030000
00000000
00000000
00100000
,
00002000
00000000
00000000
00000000
,
00000000
00000000
00000000
00000000
,
00000000
00000000
00000000
00003000
,
00000010
00001000
00000100
00000000
00000001
00000000
00000100
00000000
,
00001000
00000000
00010000
00000000
01000000
00100000
00001000
00000000
,
00010000
01000000
10000000
00000000
00100000
00000000
01000000
00000000
,
10000000
00000000
01000000
00010000
00001000
00000000
00000100
00000001
,
00000010
00000000
00000100
00010000
00000010
00000000
00000100
00000000
,
00001000
00000000
00010000
00001000
00100000
00000000
01000000
00010000
,
00100000
00000000
10000000
01000000
00010000
00000000
00001000
00000000
,
00010000
01000000
00100000
00000000
00001000
00000000
00010000
00000000
,
00000010
00000000
00000100
00000010
00001000
00000000
00000001
00000000
,
00000010
00000100
00001000
00000000
00010000
00001000
00000010
00000000
,
00001000
00010000
01000000
00000000
00100000
00000000
00001000
00000000
,
00010000
00000000
00001000
00100000
10000000
00000000
01000000
00010000
,
00011000
00000000
00010000
01000000
00100000
00000000
00001000
00000000
,
00011000
00000000
00000010
00000100
00000001
00000000
00000010
00000100
,
00010100
00001000
00101000
00010000
,
10010000
01000000
00100000
00001000
,
00010000
00000010
00000200
00000001
00000000
00000310
00000000
00000000
,
00001000
00010000
02000000
00100000
00000000
13000000
00000000
00010000
,
00001000
01000000
00002000
00010000
00000000
00000100
00000000
00003010
,
00000000
00001000
00000001
00000200
00000000
00000010
00000000
00001300
,
00010000
01000000
00200000
00010000
00000000
01300000
00000000
00000000
,
00010000
00100000
00002000
00010000
00000000
00003100
00000000
00000010
,
00010000
00001000
00000100
00000002
00000000
00000010
00000000
00001000
,
00000000
00000103
00020000
00001000
00000000
00130000
00010000
00000000
,
10000000
01000000
00010000
00001000
00000100
00000001
00000100
00000000
,
00000001
00000010
00001000
00010000
00100000
10000000
00100000
00000000
,
00010000
00001000
00000100
00000010
,
00000001
00000100
00000010
00000000
00010000
00001000
01000000
00000000
,
00100000
00010000
00100000
10000000
01000000
00010000
00001000
00000000
,
00000010
00000001
00000010
00001000
00010000
01000000
10000000
00000000
,
00100000
01000000
00010000
00001000
00000000
00000010
00000000
00000001
,
00000100
00000000
00000010
00000000
00010000
00001000
00100000
00000000
,
00001000
00010000
00100000
00000000
10000000
01000000
00100000
00000000
,
00010000
00001000
00000010
00000000
00000001
00000100
00000010
00000000
,
00001000
00010000
00100000
00000000
10000000
01000000
00100000
00000000
,
00010000
00001000
00000010
00000000
00000001
00000100
00000010
00000000
,
00000100
00001000
00010000
00000000
01000000
00100000
10000000
00000000
,
01000000
00010000
00001000
00000000
00000100
00000010
00000001
00000000
,
00000100
00001000
00010000
00000000
01000000
00100000
10000000
00000000
,
12000000
00010000
00001000
03100000
,
00010000
00010000
00001000
00001000
00000100
00000100
00000010
00000000
,
00000100
00000100
00000001
00000001
00000010
00000000
00000010
00000000
,
00010000
00010000
00001000
00001000
00100000
00100000
01000000
01000000
,
10000000
10000000
00010000
00010000
00100000
00000000
00100000
00000000
,
00001000
00001000
00010000
00010000
00000010
00000010
00000100
00000100
,
00000001
00000001
00000010
00000010
00000100
00000000
00000100
00000000
,
00001000
00001000
00001000
00000000
00000010
00000010
00000010
00000000
,
00000100
00001000
00010000
00000000
00010000
00000000
01000000
00000000
,
10000000
00100000
10000000
00000000
00100000
00000000
00010000
00000000
,
00001000
00000000
00010000
00000000
00000010
00000100
00000010
00000000
,
00001000
00000001
00001000
00000000
00000100
00000000
00000010
00000000
,
00000001
00000100
00000010
00010000
,
00001000
00010000
00001000
00000000
00100000
00000000
01000000
00000000
,
00010000
00000000
00001000
00000000
00010000
01000000
00000000
00000000
,
00100000
01000000
00010000
00000000
,
00001000
00000100
00000010
00000001
,
00001000
00000100
00001000
00000000
00000100
00000000
00010000
00000000
,
00001000
00000000
00100000
00000000
00001000
00010000
01000000
00000000
,
00100000
01000000
10000000
00000000
00100000
00000000
00001000
00000000
,
00010000
00000000
00001000
00000000
00000100
00000010
00000100
00000000
,
00000001
00001000
00000001
00000000
00000100
00000000
00000010
00000000
,
00010000
00001000
00100000
01000000
,
00100000
00001000
00010000
00000000
01000000
00000000
10000000
00000000
,
01000000
00000000
00010000
00000000
00001000
00000100
00000010
00000000
,
00002200
00000000
00000000
00000000
,
00003300
00000000
00000000
00000000
;

//---------------dance-double - ----------------
#NOTES:
     dance-double:
     :
     Easy:
     4:
     0.182,0.289,0.034,0.021,0.000:
00000000
00000000
00000000
00000000
,
00000000
00000000
00000000
00000000
,
00000000
00000000
00000000
00000000
,
00000000
00000000
00000000
00000000
,
00000000
00000000
00000000
00000000
,
00000000
00000000
00000000
00000000
,
00000000
00000000
00000000
00000000
,
00000000
00000000
00000000
00000000
,
00020000
00000000
00000000
00000000
,
00000000
00000000
00000000
00000000
,
00000000
00000000
00000000
00000000
,
00000000
00000000
00000000
00000000
,
00000000
00000000
00000000
00000000
,
00000000
00000000
00000000
00000000
,
00000000
00000000
00000000
00000000
,
00000000
00000000
00030000
00000000
,
00002000
00000000
00000000
00000000
,
00000000
00000000
00000000
00000000
,
00000000
00000000
00000000
00003000
,
00010000
00000000
01000000
00100000
,
00000000
10000000
01000000
00010000
,
00100000
00000000
00001000
00010000
,
00000100
00000000
00000010
00000000
,
00000100
00000001
00000010
00000000
,
00001000
00010000
00001000
00000000
,
00010000
01000000
10000000
00000000
,
00010000
00000000
00100000
10000000
,
01000000
00010000
00001000
00000000
,
00000100
00000010
00000001
00000000
,
00000100
00001000
00010000
00000000
,
00001000
00000000
00010000
01000000
,
00100000
10000000
01000000
00000000
,
00110000
00000000
00001000
00010000
,
00011000
00000000
00001100
00000000
,
00000011
00000000
00000000
00000100
,
00001000
00001000
00000000
00010000
,
00001000
00001000
00000000
00010000
,
01000000
01000000
00000000
00100000
,
10000000
01000000
00000000
00010000
,
00001000
00001000
00000000
00000100
,
00000010
00000010
00000000
00000001
,
00000100
00001000
00000000
00010000
,
00001000
00000100
00000000
00000010
,
00001000
00000000
00010000
00000000
,
00100000
00000000
01000000
00000000
,
00100000
00000000
10000000
00000000
,
00010000
00000000
01000000
00000000
,
00001000
00000000
00010000
00000000
,
00000010
00000000
00000100
00000000
,
00000001
00000000
00000100
00000000
,
00001000
00000000
00000010
00000000
,
00000100
00001000
00000010
00000001
,
00000010
00001000
00000010
00000001
,
00000010
00001000
00010000
00001000
,
00000010
00001000
00010000
00001000
,
00010000
01000000
00100000
01000000
,
01000000
10000000
00010000
10000000
,
00010000
10000000
00100000
00010000
,
00011000
00000000
00000000
00000000
,
00001000
00000000
00000100
00000000
,
00000010
00000000
00000001
00000001
,
00000100
00000000
00000010
00000000
,
00001000
00000000
00010000
00010000
,
00100000
00000000
01000000
00000000
,
10000000
00000000
00010000
00010000
,
00010000
00000000
00001000
00000000
,
00000100
00000010
00000100
00000000
,
00000001
00000001
00001000
00000000
,
00000100
00000000
00000010
00000000
,
00010000
00000100
00010000
00000000
,
00001000
00100000
00001000
00000000
,
00010000
00100000
01000000
00000000
,
10000000
00000000
00100000
01000000
,
00001000
00000000
00010000
00000000
,
00000100
00000000
00000010
00001000
,
00000001
00000000
00000010
00000000
,
00010000
00000000
00000100
00000000
,
00001000
00000000
00010000
00000000
,
00100000
00000000
01000000
10000000
,
00100000
00000000
00001000
00000000
,
00100000
00000000
01000000
00000000
,
00010000
00000000
00001000
00000000
,
00000000
00000100
00000010
00001000
,
00000002
00000000
00000000
00000000
,
00000003
00000000
00000000
00000000
;

//---------------dance-double - ----------------
#NOTES:
     dance-double:
     :
     Challenge:
     11:
     0.753,0.810,0.269,0.103,0.761:
00000000
00000000
00000000
00000000
,
00000000
00000000
00000000
00000000
,
00000000
00000000
00000000
00000000
,
00000000
00000000
00000000
00000000
,
00000000
00000000
00000000
00000000
,
00000000
00000000
00000000
00000000
,
00000000
00000000
00000000
00000000
,
00000000
00000000
00000000
00000000
,
00010000
01000000
00010000
00000000
00001000
00000000
00000010
00001000
00000000
00001000
00000001
00000000
00000010
00000000
00000001
00001000
,
00000000
00001000
00000100
00000000
00001000
00000000
00010000
00001000
00000000
00001000
01000000
00000000
00100000
00000000
10000000
01000000
,
00100000
00010000
00100000
00000000
01000000
00000000
00010000
00001000
00000000
00001000
00000100
00000000
00001000
00000000
00000100
00000010
,
00000000
00000010
00000100
00000000
00000001
00000000
00000010
00000001
00000000
00000001
00000100
00000000
00001000
00000000
00010000
00001000
,
00010000
01000000
00010000
00000000
01000000
00000000
00100000
01000000
00000000
01000000
10000000
00000000
01000000
00000000
00010000
01000000
,
00000000
01000000
00010000
00000000
00001000
00000000
00000100
00001000
00000000
00001000
00000100
00000000
00000010
00000000
00000001
00000010
,
00000100
00000010
00000001
00000000
00001000
00000000
00000010
00001000
00000000
00001000
00010000
00000000
01000000
00000000
10000000
01000000
,
00000000
01000000
10000000
00000000
00100000
00000000
01000000
00100000
00000000
00100000
01000000
00000000
00010000
00000000
00001000
00000100
,
00002020
00000000
00000000
00000000
,
00000000
00000000
00000000
00000000
,
00000000
00000000
00000000
00000000
00000000
00000000
00000000
00000000
00000000
00000000
00000000
00000000
00000000
00000000
00000000
00000000
00000000
00000000
00000000
00000000
00000000
00000000
00000000
00000000
00000000
00000000
00000000
00000000
00000000
00000000
00000000
00000000
00000000
00000000
00000000
00000000
00000000
00000000
00000000
00000000
00000000
00000000
00000000
00000000
00000000
00000000
00000000
00000000
00000000
00003030
00000000
00000000
00000001
00000000
00000000
00000000
00000100
00000000
00000000
00000000
00000010
00000000
00000000
00000000
,
00001100
00000000
00000000
00000000
00011000
00000000
00100000
01000000
10000000
00000000
00010000
10000000
00000000
00000000
01100000
00000000
,
00110000
00000000
00000000
00000000
00001000
00010000
00001000
00000000
00000100
00000010
00000100
00000000
00001001
00000000
00000100
00000000
,
00000110
00000000
00001000
00000000
00000001
00000100
00000001
00000000
00001000
00000100
00001000
00000000
00011000
00000000
01000000
00000000
,
01100000
00000000
00000000
10000000
00010000
00000000
00000000
10000000
01000000
00000000
00100000
00010000
00001000
00000000
00000100
00000001
,
00000010
00000000
00000000
00000000
00010010
00000000
00000010
00000000
00001010
00000000
00000000
00000001
00000100
00000000
00000010
00000000
,
00001010
00000000
00000000
00000000
00010000
00001000
00010000
00000000
00100000
01000000
00100000
00000000
10010000
00000000
01000000
00000000
,
11000000
00000000
00010000
00000000
00010000
01000000
00000000
01001000
00000000
00000000
00010000
00000010
00000100
00000000
00000001
00000000
,
00000101
00000000
00000000
00000000
00001001
00000000
00000000
00000010
00000100
00000000
00001000
00000000
00000001
00000100
00000010
00000100
,
00000010
00000000
00000000
00001000
00000100
00000000
00001000
00000000
00001010
00000000
00000000
00010000
00001000
00000000
00100000
00000000
,
00110000
00000000
00000000
10000000
01000000
00000000
10000000
00000000
00010000
00100000
00010000
00000000
00001000
00010000
00001000
00000000
,
00000110
00000000
00001000
00000000
00000001
00000010
00000000
00000100
00000010
00000100
00000000
00001000
00000001
00001000
00000000
00000100
,
00000001
00000000
00000000
00000100
00001000
00000000
00000000
00000001
00001000
00000000
00000000
00000010
00000100
00000000
00001000
00010000
,
00001000
00000000
00000000
00000000
01010000
00000000
00100000
00000000
00010000
00000000
00000000
10000000
01000000
00000000
10000000
00000000
,
10010000
00000000
00000000
00000000
01100000
00000000
00010000
00000000
00110000
00000000
00000000
00001000
00010000
00000000
00001000
00000000
,
00011000
00000000
00000000
00000100
00000010
00000100
00000010
00000000
00000110
00000000
00000000
00001000
00000001
00000000
00001000
00000000
,
00001002
00000000
00000000
00000000
00000103
00000000
00000000
00000010
00000001
00000000
00000000
00000100
00000010
00000000
00001000
00000000
,
00000100
00000000
00010000
00000000
00001000
00100000
00000000
00010000
00100000
00000000
01000000
00000000
10000000
00000000
00010000
00000000
,
00100000
00000000
00001000
00000000
00010000
00000010
00000000
00000100
00000010
00000000
00001000
00000001
00001000
00000000
00000100
00000010
,
00000100
00000000
00001000
00000000
00010000
00000000
00001000
00100000
00001000
00000000
00100000
00010000
00100000
00000000
01000000
10000000
,
01000000
00000000
10000000
00010000
00100000
00000000
01000000
00000000
00100000
00000000
00001000
00010000
00001000
00000000
00000100
00000000
,
00000010
00001000
00000010
00000000
00001000
00000001
00000100
00000000
00000001
00000000
00001000
00000100
00000010
00000000
00000010
00000000
,
00000100
00000000
00001000
00000100
00001000
00000000
00000010
00010000
00000010
00000000
00010000
00001000
00100000
00000000
00010000
00000000
,
01000000
00000000
10000000
01000000
10000000
00000000
10000000
00010000
00100000
00000000
00100000
00000000
00010000
00000000
01000000
00000000
,
00001000
00000000
00001000
00010000
00001000
00000000
00000010
00000100
00000010
00000000
00001000
00000001
00001000
00000000
00000100
00000000
,
00000110
00000000
00000100
00000010
00000001
00000000
00000100
00000010
00000001
00000000
00001000
00000100
00000010
00000000
00001000
00000100
,
00000010
00000000
00010000
00001000
00000100
00000000
00010000
00001000
00000100
00000000
00100000
00010000
00001000
00000000
00100000
00010000
,
00001000
00000000
01000000
00100000
00010000
00000000
01000000
00100000
00010000
00000000
10000000
01000000
00100000
00000000
10000000
01000000
,
00100000
00000000
01000000
00100000
00010000
00000000
01000000
00100000
00010000
00000000
00100000
00010000
00001000
00000000
00100000
00010000
,
00001000
00000000
00010000
00001000
00000100
00000000
00010000
00001000
00000100
00000000
00001000
00000100
00000010
00000000
00001000
00000100
,
00000010
00000000
00000100
00000010
00000001
00000000
00000100
00000010
00000001
00000000
00000010
00000001
00001000
00000000
00000010
00000001
,
00001000
00000000
00000001
00001000
00000100
00000000
00000001
00001000
00000100
00000000
00001000
00000100
00010000
00000000
00001000
00000100
,
00010000
00000000
00000100
00010000
00100000
00000000
00000100
00010000
00100000
00000000
00010000
00100000
10000000
00000000
00010000
00100000
,
10000000
01000000
10000000
00000000
00010000
00000000
00100000
00010000
00000000
00010000
00001000
00000000
00000100
00000000
00001000
00010000
,
00000000
00010000
00000010
00000000
00001000
00000000
00000001
00001000
00000000
00001000
00000100
00000000
00000010
00000000
00001000
00000100
,
00000000
00000100
00000010
00000000
00000001
00000000
00000010
00001000
00000000
00001000
00010000
00000000
01000000
00000000
00010000
10000000
,
00000000
10000000
01000000
00000000
00010000
00000000
00001000
00010000
00000000
00010000
00000010
00000000
00000100
00000000
00000010
00000100
,
00001000
00000100
00000001
00000000
00000100
00000000
00000001
00000100
00000000
00000100
00000010
00000000
00001000
00000000
00010000
00001000
,
00000000
00001000
00100000
00000000
01000000
00000000
00100000
00010000
00000000
00010000
00001000
00000000
00000100
00000000
00000001
00000100
,
00000000
00000100
00001000
00000000
00000010
00000000
00010000
00000100
00000000
00000100
00001000
00000000
00100000
00000000
10000000
00010000
,
10020000
00000000
00000100
00000000
00032000
00000000
00000100
00003000
,
00001001
00000000
00001001
00000000
00011000
00000000
00011000
00000000
01100000
00000000
01000000
10000000
01000000
00010000
01000000
00100000
,
00001000
00000000
00010000
00001000
00000100
00000001
00000100
00001000
00000220
00000000
00000000
00000330
00000220
00000000
00000000
00000330
,
00001001
00000000
00000010
00000000
00000001
00000000
00001000
00010000
00100000
10000000
00010000
01000000
10000000
00000000
00010000
00000000
,
01000000
00000000
10000000
01000000
00010000
01000000
10000000
00010000
00200000
00000000
00000000
00000000
00001000
00000000
00000000
00000000
,
00310000
00000000
00000100
00000000
00001000
00000000
00000100
00000000
00000001
00000000
00000010
00000001
00000010
00001000
00010000
01000000
,
00010000
00000000
01000000
10000000
01000000
00010000
01000000
10000000
00100000
00010000
00100000
00000000
00002000
00000000
00000000
00000000
,
00003100
00000000
00000010
00001000
00000010
00000001
00000010
00001000
00010000
00000000
00100000
00000000
10000000
00000000
00010000
00000000
,
00100000
00000000
00001000
00000010
00000001
00000010
00001000
00010000
00000200
00000000
00000000
00000000
00001000
00000000
00000000
00000000
,
00010300
00000000
00001000
00000000
00010000
00000000
01000000
00000000
10000000
00000000
00010000
00100000
00000000
00100000
01000000
00000000
,
00010000
00000000
00000000
00001000
00000100
00000000
00000100
00000000
00000001
00000000
00000010
00000000
00000100
00001000
00000001
00000000
,
00001000
00000000
00000100
00000000
00000010
00000100
00000000
00000100
00001000
00000000
00000010
00000000
00010000
00001000
00010000
00000000
,
00100000
00000000
00000000
00010000
10000000
00000000
00000000
10000000
01000000
00000000
00100000
00000000
00010000
00000000
00001000
00000000
,
00000100
00000000
00010000
00001000
00010000
00000000
00000010
00000000
00000100
00000000
00000001
00001000
00000000
00000100
00000010
00000000
,
00000001
00000000
00000100
00000010
00001000
00000000
00000100
00000000
00010000
00001000
00010000
00000000
00100000
00010000
00100000
00000000
,
01000000
00000000
10000000
01000000
10000000
00000000
00000000
00010000
00100000
00000000
00000000
00100000
01000000
00000000
00010000
00000000
,
00001000
00000000
00000000
00000100
00000010
00000000
00000000
00001000
00000001
00000000
00000000
00000010
00000100
00000000
00001000
00000000
,
00000001
00000000
00000100
00000010
00000100
00000000
00000010
00000000
00001000
00000000
00000100
00010000
00000000
00010000
00001000
00000000
,
00010000
00000000
00100000
00010000
00100000
00000000
01000000
00000000
10000000
00000000
00010000
10000000
00010000
00000000
11000000
00000000
,
00100000
00000000
01000000
00000000
00100000
00001000
00000000
00010000
00000010
00000000
00000100
00000000
00000001
00000000
00001000
00000000
,
00000100
00000000
00000000
00000100
00000010
00000000
00000000
00000010
00000001
00000000
00000000
00000001
00000100
00000000
00000010
00000000
,
00001000
00000000
00000100
00010000
00001000
00000000
00100000
00000000
00010000
00000000
01000000
10000000
00000000
00100000
00010000
00000000
,
00100000
00000000
00001000
00010000
00001000
00000000
00010000
00000000
00000010
00000100
00000010
00000000
00000100
00000000
00000001
00000000
,
00001000
00000000
00000100
00000000
00000010
00000001
00000000
00000100
00000010
00000000
00001000
00010000
00000100
00000000
00010000
00000000
,
00012000
00100000
00023000
01000000
,
20000000
00000000
00000000
00000000
,
30030000
00000000
00000000
00000000
;

//---------------dance-single - beginner----------------
#NOTES:
     dance-single:
     beginner:
     Beginner:
     1:
     0.118,0.200,0.062,0.000,0.000:
0000
0000
0000
0000
,
0000
0000
0000
0000
,
0000
0000
0000
0000
,
0000
0000
0000
0000
,
0000
0000
0000
0000
,
0000
0000
0000
0000
,
0000
0000
0000
0000
,
0000
0000
0000
0000
,
1000
0000
0000
0000
,
0000
0000
0000
0000
,
0000
0000
0000
0000
,
0000
0000
0000
0000
,
0001
0000
0000
0000
,
0000
0000
0000
0000
,
0000
0000
0000
0000
,
0000
0000
0000
0000
,
1001
0000
0000
0000
,
0000
0000
0000
0000
,
0000
0000
0000
0000
,
0110
0000
0000
0000
,
0000
0000
0000
0000
,
1000
0000
0000
0000
,
0000
0000
0001
0000
,
0001
0000
0000
0000
,
0000
0000
0000
0000
,
0100
0000
0000
0010
,
0010
0000
0000
0000
,
1100
0000
0001
0000
,
0100
0000
0001
0000
,
1000
0000
0100
0000
,
1000
0000
0100
0000
,
0101
0000
0000
0000
,
1100
0000
0000
0000
,
1001
0000
0110
0000
,
0010
0000
0000
0000
,
0001
0000
0000
0000
,
0001
0000
0000
0000
,
0100
0000
0000
0000
,
0010
0000
0000
0000
,
0001
0000
0000
0000
,
0001
0000
0000
0000
,
0100
0000
0000
0000
,
0010
0000
0000
0000
,
1000
0000
1000
0000
,
0100
0000
1000
0000
,
1000
0000
1000
0000
,
0100
0000
1000
0000
,
0001
0000
0001
0000
,
0010
0000
0001
0000
,
0001
0000
0001
0000
,
0010
0000
0001
0000
,
1000
0000
0010
0000
,
1000
0000
0001
0000
,
0010
0000
0001
0000
,
1000
0000
0010
0000
,
1000
0000
0001
0000
,
0100
0000
0001
0000
,
1000
0000
0100
0000
,
0110
0000
0000
0000
,
0010
0000
0000
0000
,
0010
0000
0001
0001
,
0001
0000
0000
0100
,
0100
0000
1000
1000
,
1000
0000
0000
0000
,
0100
0000
0000
0010
,
0010
0000
0001
0000
,
1000
0000
0100
0100
,
0100
0000
0001
0000
,
0000
1000
0000
1000
,
1000
0000
0010
0000
,
0000
0010
0000
0100
,
0100
0000
1000
0000
,
0000
0001
0000
0100
,
0100
0000
0010
0000
,
0000
0001
0000
1000
,
1000
0000
0001
0000
,
0000
0100
0000
0010
,
0010
0000
0100
0000
,
0000
0001
0001
0000
,
1000
0000
0010
0000
,
0000
1000
1000
0000
,
0001
0000
0100
0000
,
0000
0000
0010
0000
,
0110
0000
0000
0000
;
