#TITLE:METROID;
#SUBTITLE:~hj ReMix~;
#ARTIST:HOUJIROU;
#TITLETRANSLIT:;
#SUBTITLETRANSLIT:;
#ARTISTTRANSLIT:;
#CREDIT:;
#BANNER:METROID ~hj ReMix~.png;
#BACKGROUND:METROID ~hj ReMix~-bg.png;
#LYRICSPATH:;
#CDTITLE:cdtitle.png;
#MUSIC:METROID ~hj ReMix~.mp3;
#OFFSET:-1.480;
#SAMPLESTART:38.764;
#SAMPLELENGTH:12.000;
#SELECTABLE:YES;
#BPMS:0.000=162.000,32.000=200.000,32.500=190.000,33.000=180.000,33.500=170.000,34.000=160.000,34.250=150.000,34.500=140.000,34.750=130.000,35.000=120.000,35.250=110.000,35.500=100.000,35.750=60.000,36.000=162.000;
#STOPS:;
#BGCHANGES:;

//---------------dance-single - BASIC----------------
#NOTES:
     dance-single:
     BASIC:
     Easy:
     3:
     0.191,0.269,0.209,0.038,0.000:
0000
0000
0000
0000
,
0000
0000
0000
0000
,
0000
0000
0000
0000
,
0000
0000
0000
0000
,
0001
0000
1000
0000
,
0001
0000
1000
0000
,
0100
0000
0010
0000
,
0001
0000
1000
0000
,
2002
0000
0000
0000
,
3003
0000
0000
0000
,
0100
0000
0000
0000
,
0010
0000
0000
0000
,
0001
0000
0000
0000
,
1001
0000
0010
0000
,
0100
0000
1000
0000
,
0001
0000
1000
0000
,
0100
0000
0010
0000
,
0001
0000
1000
0000
,
0001
0000
0010
0000
,
0100
0000
1000
0000
,
0001
0000
0010
0000
,
0001
0000
1000
0000
,
0100
0000
0010
0000
,
0001
0000
0001
0000
,
1000
0000
1000
0000
,
1001
0000
0010
0000
,
1001
0000
0100
0000
,
1001
0000
0010
0000
,
1001
0000
0110
0000
,
1001
0000
1000
0000
,
0100
0000
0010
0000
,
0001
0000
0010
0000
,
0100
0000
1000
0000
,
2002
0000
0000
0000
,
0000
0000
0000
3003
,
0001
0000
0000
0000
,
1000
0000
0000
0000
,
0001
0000
1000
0000
,
0001
0000
1000
0000
,
0001
0010
0001
0100
,
1000
0100
0001
0010
,
0001
0010
0100
1000
,
0100
1000
0001
1000
,
0100
1000
0010
1000
,
0001
1000
0100
1000
,
0001
0010
0100
1000
,
0001
0010
0100
1000
,
1001
0000
0000
0000
,
0010
0000
0000
0000
,
0100
0000
0000
0000
,
1001
0000
0000
0000
,
0100
0000
0000
0000
,
0000
0000
0000
0000
,
0001
0000
1000
0000
,
1001
0000
1000
0000
,
0001
0000
1001
0000
,
0010
0000
0100
0000
,
0010
0000
0100
0000
,
1001
0000
0110
0000
,
1001
0000
0000
0000
,
1001
0000
0000
0000
,
1001
0000
0110
0000
,
1001
0000
1001
0000
,
1001
0000
0000
0000
;

//---------------dance-single - TRICK----------------
#NOTES:
     dance-single:
     TRICK:
     Medium:
     7:
     0.425,0.538,0.275,0.019,0.360:
0000
0000
0000
0000
,
0000
0000
0000
0000
,
0000
0000
0000
0000
,
0000
0000
0000
0000
,
0001
0000
0001
1000
0000
0000
1000
0000
1000
0001
0000
0000
,
0001
0000
0001
1000
0000
0000
1000
0000
1000
0001
0000
0000
,
0100
0000
0000
0100
0000
0000
0010
0000
0010
0100
0000
0000
,
0001
0000
0000
0001
0000
0000
1000
0000
1000
0001
0000
0000
,
2002
0000
0000
0000
,
3003
0000
0000
0000
,
0010
0000
0000
0000
,
0100
0000
0000
0000
0000
0000
0000
0000
0000
0010
0000
0010
,
0100
0100
0100
0100
,
1001
0000
1000
0010
0000
0000
0010
0000
0010
0100
0000
0000
,
0100
0000
0100
0001
0000
0000
0001
0000
0000
0001
0000
0000
,
0001
0000
0010
0100
0000
0000
0100
0000
0100
1000
0000
0000
,
1000
1000
1000
1001
,
0001
0000
0000
0001
0000
0000
1000
0000
0000
1000
0000
1000
,
0100
0000
0100
1000
0000
1000
0100
0000
0100
1000
0000
0000
,
1000
0000
0000
1000
0000
0000
0001
0000
0000
0001
0000
0001
,
0100
0000
0100
0001
0000
0001
0100
0000
0100
0001
0000
0000
,
0001
0000
0000
0001
0000
0000
1000
0000
0000
1000
0000
1000
,
0001
0000
0001
1000
0000
1000
0001
0000
0001
1000
0000
0000
,
1000
0001
1000
0001
,
1001
0110
1001
0110
,
1001
0000
0000
0010
0000
0010
0100
0000
0000
0100
0000
0000
,
1001
0000
0000
0100
0000
0100
0010
0000
0000
0010
0000
0000
,
1001
0000
0000
0001
0000
0001
1000
0000
0000
1000
0000
0000
,
1001
0000
0000
1000
0000
1000
0001
0000
0000
0001
0000
0000
,
1001
0000
0000
1000
0000
1000
0100
0000
0000
0100
0000
0100
,
0010
0000
0000
0010
0000
0010
0001
0000
0000
0001
0000
0001
,
1000
0010
0100
0001
,
1000
0000
1000
0100
0000
0001
0100
0000
1000
0010
0000
0000
,
0010
0010
0010
0010
,
0010
0000
0010
0100
0000
0010
0100
0000
0010
0100
0000
0000
,
0001
0000
0000
0000
,
1000
0000
0000
0000
,
0001
0001
1000
1000
,
0001
1000
0001
1000
,
1000
0000
0010
0100
0000
0000
0001
0000
1000
0100
0000
0000
,
1000
0000
0100
0010
0000
0000
0001
0000
1000
0001
0000
0000
,
1000
0000
0001
1000
0000
0000
0100
0000
0010
0100
0000
0000
,
0001
0000
1000
0001
0000
0000
0010
0000
0100
0010
0000
0000
,
1000
0000
0100
1000
0000
1000
0100
0000
0100
1000
0000
0000
,
0001
0000
0100
0001
0000
0001
0100
0000
0100
0001
0000
0000
,
0001
0000
0001
0010
0000
0010
0100
0000
0100
1000
0000
1000
,
0001
0000
0001
0010
0000
0010
0100
0000
0100
1000
0000
1000
,
0001
0001
0001
0000
,
0010
0000
0100
0000
,
1000
1000
1000
0000
,
0010
0000
0100
0100
,
0100
0000
0000
0000
,
0000
0000
0000
0000
,
0001
0000
0001
0100
0000
0000
1000
0000
1000
0100
0000
0000
,
1001
0000
1000
0001
0000
0001
1000
0000
1000
0001
0000
0000
,
0001
0000
0001
0100
0000
0000
1000
0000
1000
0100
0000
0000
,
1001
0000
0001
1000
0000
1000
0001
0000
0001
1000
0000
0000
,
0010
0010
0100
0100
,
1001
0110
1001
0110
,
1001
0000
0010
0100
0000
0100
0010
0000
0010
0100
0000
0000
,
1001
0110
1001
0110
,
1001
0000
1000
0100
0000
0001
0010
0000
1000
0100
0000
0000
,
1001
0110
1001
0110
,
1001
0000
0000
0000
;

//---------------dance-single - HEAVY----------------
#NOTES:
     dance-single:
     HEAVY:
     Hard:
     8:
     0.582,0.747,0.142,0.000,0.976:
0000
0000
0000
0000
,
0000
0000
0000
0000
,
0000
0000
0000
0000
,
0000
0000
0000
0000
,
1000
0000
1000
0010
0000
1000
0100
0000
1000
0001
0000
0000
,
0001
0000
0001
0010
0000
0001
1000
0000
0001
0100
0000
0000
,
0100
0000
0100
1000
0000
0100
0001
0000
0100
1000
0000
0000
,
0001
0000
0010
1000
0000
0010
0001
0000
0010
1000
0000
0000
,
1001
0000
0000
0000
,
1001
0000
0000
0000
,
0010
0000
0000
0000
0000
0000
0000
0000
0000
1000
0010
0100
,
0001
0000
0000
0000
,
0100
0000
0000
0000
0000
0000
0000
0000
0000
0001
0010
0100
,
1000
0000
1000
0010
0000
0000
0010
0000
0010
1000
0000
1000
,
0100
0000
0010
0001
0000
0001
1000
0000
0000
1000
0100
0010
,
0001
0000
0001
1000
0000
0000
1000
0000
0010
0100
0000
0100
,
0010
0000
0010
1000
0000
0000
1000
0100
0010
0001
0000
0000
,
0001
0000
0010
0001
0000
0001
0100
0000
1000
0010
0000
1000
,
0100
0000
0100
1000
0000
0100
1000
0000
0100
1000
0100
0010
,
0001
0000
1000
0100
0000
0010
0100
0000
1000
0100
0000
0001
,
0100
0000
0001
0100
0000
0010
0100
0000
0010
0001
0010
0100
,
1000
0000
1000
0001
0000
0001
1000
0000
0100
0010
0000
0010
,
0100
0000
0001
1000
0000
1000
0001
0000
0100
0010
0000
0010
,
0100
0000
0001
0010
0100
1000
0001
0000
1000
0010
0100
0001
,
1000
0000
1000
0001
0000
0000
1001
0000
0000
0110
0000
0000
,
1001
0000
1000
0010
0000
0100
0001
0000
0000
0110
0000
0000
,
1001
0000
0001
0010
0000
0100
1000
0000
0000
0110
0000
0000
,
1001
0000
1000
0010
0000
0001
0100
0000
0000
0110
0000
0000
,
1001
0000
0010
0100
0000
1000
0001
0010
0100
1000
0100
0010
,
1001
0000
1000
0100
0000
0010
0001
0000
0000
1001
0000
0000
,
0001
0000
0001
0100
0000
0010
1000
0000
0000
1001
0000
0000
,
1000
0000
1000
0100
0000
0010
0001
0000
0001
0010
0000
0100
,
1000
0000
1000
0100
0000
0100
1000
0000
1000
0001
0000
0001
,
0010
0000
0010
1000
0000
0010
0100
0000
0010
0001
0000
0010
,
1000
0000
1000
0100
0000
0100
0001
0000
0001
0010
0000
1000
,
0001
0000
0000
0000
,
1000
0000
0000
0000
,
0001
0000
0001
1000
0000
0000
1000
0000
1000
0001
0000
0000
,
0001
1000
0001
1000
,
1000
0100
0010
0001
0010
0100
1000
0100
0010
0001
0010
0100
,
1000
0010
0100
0010
1000
0100
1000
0010
0100
0010
1000
0100
,
1000
0100
0010
0001
1000
0010
0100
0001
1000
0100
0010
0001
,
1000
0010
0100
0001
0100
0010
1000
0010
0100
0001
0100
0010
,
1000
0000
1000
0100
0000
1000
0001
0000
1000
0100
0000
1000
,
0001
0000
0001
0100
0000
0001
1000
0000
0001
0100
0000
0001
,
1000
0010
0100
0001
0000
1000
0010
0100
0001
1000
0000
1000
,
0100
0001
0100
1000
0010
0001
0010
1000
0100
0010
0001
0100
,
1000
0000
0000
0001
0000
0000
0001
0000
0000
0100
0010
0100
,
0010
0010
0100
0000
,
1000
0000
0000
1000
0000
1000
0100
0000
0000
0100
0010
0001
,
1000
0000
0000
0100
0000
0000
0100
0000
0100
0001
0010
1000
,
0000
0000
0000
0000
,
0000
0000
0000
0000
,
0001
0000
0001
0100
0000
0010
1000
0000
1000
0100
1000
0100
,
1000
0000
1000
0100
0000
0010
0001
0000
0001
0100
0001
0100
,
0001
0000
0001
0100
0000
1000
0100
0000
0001
0100
0000
0000
,
0100
0000
1000
0010
0000
0001
0100
0000
1000
0010
0000
0000
,
0010
1000
0010
1000
0000
0000
0100
0001
0100
0001
0000
0000
,
0001
0010
0000
1000
0100
0000
0001
0000
0000
1001
0000
0000
,
1000
0010
0100
0001
1000
0100
0010
0000
0100
1000
0000
0000
,
0001
0010
0100
1000
0001
0100
0010
0000
0100
0001
0000
0000
,
1000
0100
0010
0001
1000
0100
0010
0001
1000
0100
0010
0001
,
1000
0010
0100
1000
0100
0001
0010
0100
1000
0010
0001
0100
,
1000
0000
0000
0000
;

//---------------dance-single - ONI----------------
#NOTES:
     dance-single:
     ONI:
     Challenge:
     9:
     0.684,0.747,0.123,0.000,1.000: // measure 1
0000
0000
0000
0000
,  // measure 2
0000
0000
0000
0000
,  // measure 3
0000
0000
0000
0000
,  // measure 4
0000
0000
0000
0000
,  // measure 5
1001
0000
1000
0010
0000
1000
0100
0000
1000
0001
0000
0100
,  // measure 6
0001
0000
0001
0010
0000
0001
1000
0000
0001
1000
0100
0010
,  // measure 7
0001
0000
0010
0100
0000
1000
0001
0000
0010
0100
0000
1000
,  // measure 8
0100
0010
0001
0010
0100
1000
0010
0100
0001
0010
0100
1000
,  // measure 9
1001
0000
0000
0000
,  // measure 10
1001
0000
0000
0000
0000
0000
0000
0000
0000
0010
0000
0010
,  // measure 11
0100
0000
0000
0000
0000
0000
0000
0000
0000
0000
0000
0000
0000
0000
0000
0000
0000
0000
1000
0010
1000
0010
1000
0010
,  // measure 12
1000
0000
0000
0000
0000
0000
0000
0000
0000
0010
0000
0010
,  // measure 13
0100
0000
0000
0000
0000
0000
0000
0000
0000
0000
0000
0000
0000
0000
0000
0000
0000
0000
0001
0010
0001
0010
0001
0010
,  // measure 14
0001
0000
1000
0010
0000
1000
0100
0000
0010
0001
0000
1000
,  // measure 15
0100
0000
0010
0001
0000
0001
1000
0000
1000
0010
0100
0001
,  // measure 16
1000
0000
0001
1000
0000
1000
0100
0000
0010
0100
0000
0100
,  // measure 17
0010
0000
0010
0001
0000
0001
1000
0100
0010
0001
0000
0000
,  // measure 18
0001
0000
0010
0001
0000
0010
0001
0000
0010
0001
0100
0001
,  // measure 19
0010
0000
0100
1000
0000
0100
1000
0000
1000
0010
0100
0010
,  // measure 20
1000
0000
1000
0001
0000
1000
0001
0000
1000
0001
0100
0010
,  // measure 21
1000
0000
0001
1000
0000
0001
1000
0000
0001
1000
0010
0100
,  // measure 22
0001
0000
1000
0100
0010
0100
1000
0000
0001
0010
0100
0010
,  // measure 23
0001
0000
1000
0010
0001
0010
1000
0000
0001
0010
1000
0010
,  // measure 24
0001
0000
0001
0010
0100
1000
0001
0000
1000
0010
0100
0001
,  // measure 25
1000
0000
1000
0001
0000
0000
1001
0000
0000
0110
0000
0000
,  // measure 26
1001
0000
1000
0010
0000
0100
0001
0000
0001
0010
0100
1000
,  // measure 27
1001
0000
0001
0010
0000
0100
1000
0000
1000
0010
0100
0001
,  // measure 28
1001
0000
0010
0100
0000
0001
1000
0000
0100
0010
1000
0001
,  // measure 29
1001
0000
0010
0100
0000
1000
0001
0010
0100
1000
0100
0010
,  // measure 30
1001
0000
1000
0100
0000
0010
0001
0000
0001
0010
0000
0100
,  // measure 31
1000
0000
0001
0100
0000
0010
1000
0000
0000
1001
0000
0000
,  // measure 32
1000
0100
1000
0100
0000
0000
0010
0001
0010
0001
0000
1000
,  // measure 33
0100
0000
0010
0001
0000
0001
0010
0000
0100
1000
0000
1000
,  // measure 34
0100
0001
0100
1000
0000
0001
0010
1000
0010
0001
0000
0010
,  // measure 35
0001
0010
0100
1000
0100
0010
0001
0000
0001
0100
0010
1000
,  // measure 36
0001
0000
0000
0000
,  // measure 37
1000
0000
0001
0000
,  // measure 38
0001
0000
0001
1000
0000
0000
1000
0000
1000
0001
0000
0001
,  // measure 39
1000
0000
1000
0001
0000
0001
0010
0000
0100
1000
0000
0000
,  // measure 40
1000
0010
0100
0001
0100
1000
0100
0001
0010
0100
0010
0001
,  // measure 41
1000
0010
0100
0010
1000
0100
1000
0010
0001
0010
1000
0100
,  // measure 42
1000
0010
0100
0001
0010
0100
0010
0001
0100
1000
0100
0001
,  // measure 43
0010
0100
1000
0001
0100
0010
1000
0010
0100
0001
0100
0010
,  // measure 44
1000
0100
0010
0001
1000
0010
0100
0001
1000
0100
0010
0001
,  // measure 45
0010
0100
1000
0010
0100
0001
1000
0100
0010
0001
0010
0100
,  // measure 46
1000
0010
0100
0001
1000
0010
0100
0001
1000
0010
0100
0001
,  // measure 47
1000
1000
0100
0100
0010
0010
0001
0001
1000
0010
0001
0100
,  // measure 48
1000
0000
0000
0001
0000
0000
0001
0000
0000
0100
0010
0100
,  // measure 49
0010
0000
0000
0010
0000
0000
0100
0000
0000
0100
0010
0100
,  // measure 50
1000
0000
0000
1000
0000
1000
0100
0000
0000
0100
0010
1000
,  // measure 51
0001
0000
0000
0001
0000
0010
0001
0000
0010
1000
0100
0001
,  // measure 52
0000
0000
0000
0000
,  // measure 53
0000
0000
0000
0000
,  // measure 54
0001
0000
0001
0100
0000
0010
1000
0000
1000
0100
0001
0100
,  // measure 55
1000
0000
1000
0100
0000
0010
0001
0000
0001
0100
1000
0100
,  // measure 56
0001
0000
0001
0100
0010
0100
0001
0000
1000
0100
0010
0100
,  // measure 57
1000
0000
1000
0010
0000
0100
0001
0000
0001
0010
0000
0100
,  // measure 58
1000
0010
0100
0001
0000
0001
0010
0100
1000
0001
0000
0100
,  // measure 59
0010
0000
1000
0100
0000
0010
0001
1000
0100
1001
0000
0000
,  // measure 60
1000
0010
0100
0001
1000
0100
0010
0000
0100
1000
0001
1000
,  // measure 61
0001
0010
0100
1000
0001
0100
0010
0000
0100
0001
1000
0001
,  // measure 62
1000
0010
0100
0001
0010
0100
1000
0100
0010
0001
0100
0010
,  // measure 63
1000
0010
0100
1000
0100
0001
0010
0100
1000
0010
0001
0100
,  // measure 64
1001
0000
0000
0000
;
