#TITLE:MAX;
#SUBTITLE:-the eroder-;
#ARTIST:Est;
#TITLETRANSLIT:;
#SUBTITLETRANSLIT:;
#ARTISTTRANSLIT:;
#CREDIT:;
#BANNER:MAX -the eroder-.png;
#BACKGROUND:MAX -the eroder--bg.png;
#LYRICSPATH:;
#CDTITLE:cdtitle.png;
#MUSIC:MAX -the eroder-.mp3;
#OFFSET:-1.560;
#SAMPLESTART:27.200;
#SAMPLELENGTH:12.000;
#SELECTABLE:YES;
#BPMS:0.000=150.000,64.000=300.000,160.000=150.000,176.000=140.000,176.250=130.000,176.500=120.000,176.750=115.000,177.000=110.000,177.250=100.000,177.500=90.000,177.750=80.000,178.000=75.000,178.250=70.000,178.500=65.000,178.750=60.000,179.000=56.850,192.000=80.000,200.000=320.000,264.000=640.000,392.000=80.000;
#STOPS:178.938=1.710
;
#BGCHANGES:;

//---------------dance-single - BASIC----------------
#NOTES:
     dance-single:
     BASIC:
     Easy:
     7:
     0.239,0.515,0.161,0.085,0.000: // measure 1
0000
0000
0000
0000
,  // measure 2
0000
0000
0000
0000
,  // measure 3
0000
0000
0000
0000
,  // measure 4
0000
0000
0000
0000
,  // measure 5
0000
0000
0000
0000
,  // measure 6
0000
0000
0000
0000
,  // measure 7
0000
0000
0000
0000
,  // measure 8
0000
0000
0000
0000
,  // measure 9
1000
0001
0100
0100
,  // measure 10
0001
0010
0010
0001
,  // measure 11
1000
0100
0010
0100
,  // measure 12
1000
0001
0100
0010
,  // measure 13
0100
0001
1000
0100
,  // measure 14
0010
0100
1000
0001
,  // measure 15
0100
0010
0100
0001
,  // measure 16
1000
0010
0100
0010
,  // measure 17
1000
0000
0000
0001
0000
0000
0000
0000
,  // measure 18
0100
0010
1000
0001
,  // measure 19
0100
0000
0000
0010
0000
0000
0000
0000
,  // measure 20
0001
0010
0100
1000
,  // measure 21
0001
0000
0000
1000
0000
0000
0000
0000
,  // measure 22
0010
1000
0010
0100
,  // measure 23
0001
0000
0000
0010
0000
0000
0000
0000
,  // measure 24
1000
0010
0100
0001
,  // measure 25
1000
0000
0000
0010
0000
0000
0000
0000
,  // measure 26
1000
0100
0010
0001
,  // measure 27
0100
0000
0000
0010
0000
0000
0000
0000
,  // measure 28
1000
0000
0001
0000
,  // measure 29
0001
0000
0000
1000
0000
0000
0000
0000
,  // measure 30
0010
0000
1000
0000
,  // measure 31
0110
0000
0001
0000
,  // measure 32
0001
0000
1010
0000
,  // measure 33
1000
0000
1001
0000
,  // measure 34
0001
0000
0011
0000
,  // measure 35
0010
0000
1010
0000
,  // measure 36
1000
0000
1100
0000
,  // measure 37
0100
0000
0101
0000
,  // measure 38
0001
0000
1001
0000
,  // measure 39
1000
0000
1010
0000
,  // measure 40
0010
0001
0100
0010
,  // measure 41
2001
0000
0000
0000
,  // measure 42
3002
0000
0000
0000
,  // measure 43
0023
0000
0000
0000
,  // measure 44
2030
0000
0000
3000
,  // measure 45
2002
0000
0000
0000
0000
0000
0000
0000
0000
0000
0000
0000
0000
0000
0000
0000
0000
0000
0000
0000
0000
0000
0000
0000
0000
0000
0000
0000
0000
0000
0000
0000
0000
0000
0000
0000
0000
0000
0000
0000
0000
0000
0000
0000
0000
0000
0000
3003
0000
0000
0000
0000
0000
0000
0000
0000
0000
0000
0000
0000
0000
0000
0000
0000
,  // measure 46
1000
0000
0000
0010
,  // measure 47
0000
0000
0100
0000
,  // measure 48
0000
0001
0000
0000
,  // measure 49
1000
1000
0001
0001
,  // measure 50
1000
0000
1000
0000
0010
0010
0010
0010
,  // measure 51
1000
0000
0010
0000
,  // measure 52
1000
0000
0010
0000
,  // measure 53
1000
0000
0010
0000
,  // measure 54
1000
0000
0010
0000
,  // measure 55
1000
0000
0001
0000
,  // measure 56
0010
0000
0001
0000
,  // measure 57
0010
0000
0001
0000
,  // measure 58
0010
0000
0001
0000
,  // measure 59
1000
0000
0000
0000
,  // measure 60
1001
0000
0000
0000
,  // measure 61
0001
0000
0000
0000
,  // measure 62
1001
0000
0000
0000
,  // measure 63
1000
0000
0000
0000
,  // measure 64
1010
0000
0001
0000
,  // measure 65
0011
0000
1000
0000
,  // measure 66
1010
0000
0000
0000
,  // measure 67
1000
0000
0000
0000
,  // measure 68
0000
0000
0000
0000
,  // measure 69
0000
0000
0000
0000
,  // measure 70
0000
0000
0000
0000
,  // measure 71
0001
0000
0000
0000
,  // measure 72
0000
0000
0000
0000
,  // measure 73
0000
0000
1000
0000
,  // measure 74
0000
0000
0000
0000
,  // measure 75
0010
0000
0000
0000
,  // measure 76
0000
0000
0000
0000
,  // measure 77
0000
0000
0000
0000
,  // measure 78
0000
0000
0000
0000
,  // measure 79
1000
0000
0000
0000
,  // measure 80
0000
0000
0000
0000
,  // measure 81
0000
0000
0001
0000
,  // measure 82
0000
0000
0000
0000
,  // measure 83
0100
0000
0000
0000
,  // measure 84
0000
0000
0000
0000
,  // measure 85
0000
0000
0000
0000
,  // measure 86
0000
0000
0000
0000
,  // measure 87
0001
0000
0000
0000
,  // measure 88
0000
0000
0000
0000
,  // measure 89
0000
0000
0010
0000
,  // measure 90
0000
0000
0000
0000
,  // measure 91
1000
0000
0000
0000
,  // measure 92
0000
0000
0000
0000
,  // measure 93
0000
0000
0000
0000
,  // measure 94
0000
0000
0000
0000
,  // measure 95
0002
0000
0000
0000
,  // measure 96
0000
0000
0000
0000
,  // measure 97
2003
0000
0000
0000
,  // measure 98
0000
0000
0000
0000
,  // measure 99
0002
0000
0000
3003
,  // measure 100
1001
0000
0000
0000
;

//---------------dance-single - TRICK----------------
#NOTES:
     dance-single:
     TRICK:
     Medium:
     10:
     0.474,0.748,0.416,0.142,0.024: // measure 1
0000
0000
0000
0000
,  // measure 2
0000
0000
0000
0000
,  // measure 3
0000
0000
0000
0000
,  // measure 4
0000
0000
0000
0000
,  // measure 5
0000
0000
0000
0000
,  // measure 6
0000
0000
0000
0000
,  // measure 7
0000
0000
0000
0000
,  // measure 8
0000
0000
0000
0000
,  // measure 9
1000
0010
1000
0000
0100
0001
0100
0000
,  // measure 10
0011
0000
1010
0000
0010
0001
0100
0000
,  // measure 11
0001
0010
0001
0000
0100
1000
0100
0000
,  // measure 12
1010
0000
0011
0000
0010
1000
0100
0000
,  // measure 13
0001
0010
0001
0000
0100
0001
0100
0000
,  // measure 14
0011
0000
1010
0000
0010
0001
0100
0000
,  // measure 15
0001
0010
0001
0000
0100
1000
0100
0000
,  // measure 16
1010
0000
0011
0000
0010
1000
0100
0000
,  // measure 17
1010
0000
0000
0101
0000
0000
0010
0000
,  // measure 18
0100
0010
1000
0001
,  // measure 19
0101
0000
0000
1100
0000
0000
0010
0000
,  // measure 20
0001
1000
0100
1000
,  // measure 21
1001
0000
0000
1010
0000
0000
0100
0000
,  // measure 22
0001
0010
0100
1000
,  // measure 23
0011
0000
0000
1010
0000
0000
1000
0000
,  // measure 24
0001
0100
0010
1000
,  // measure 25
1001
0000
0000
0110
0000
0000
0001
0000
,  // measure 26
1000
0100
0010
0001
,  // measure 27
0110
0000
0000
1010
0000
0000
0001
0000
,  // measure 28
1000
0001
1000
0001
0000
0000
0000
0000
,  // measure 29
1001
0000
0000
0110
0000
0000
0000
0000
,  // measure 30
0010
0100
0001
1000
,  // measure 31
0110
0000
0000
0011
0000
0000
0001
0000
,  // measure 32
0010
0100
1000
0010
,  // measure 33
1000
0100
1000
0001
,  // measure 34
0010
0100
0001
1000
,  // measure 35
0010
0100
1000
0001
,  // measure 36
1000
0010
1000
0100
,  // measure 37
1000
0010
0001
0100
,  // measure 38
1000
0100
1000
0100
,  // measure 39
0001
1000
0010
0001
,  // measure 40
0100
0010
1000
0010
,  // measure 41
2001
0000
0010
0000
0100
0000
3100
1000
,  // measure 42
1002
0000
0010
0000
0100
0000
0103
0001
,  // measure 43
2001
0000
0010
0000
0100
0000
3100
1000
,  // measure 44
1002
0000
0010
0000
0100
0000
0103
0001
,  // measure 45
2002
0000
0000
0000
0000
0000
0000
0000
0000
0000
0000
0000
0000
0000
0000
0000
0000
0000
0000
0000
0000
0000
0000
0000
0000
0000
0000
0000
0000
0000
0000
0000
0000
0000
0000
0000
0000
0000
0000
0000
0000
0000
0000
0000
0000
0000
0000
3003
0000
0000
0000
0000
0000
0000
0000
0000
0000
0000
0000
0000
0000
0000
0000
0000
,  // measure 46
1000
0000
0000
0000
0000
0000
0000
0000
0000
0000
0000
0000
0000
0000
0000
0000
0000
0000
0000
0000
0000
0000
0000
0000
0000
0000
0000
0000
0000
0000
0000
0000
0000
0000
0000
0000
0000
0000
0000
0000
0000
0000
0000
0000
0000
0000
0000
0000
0000
0000
0000
0000
0000
0000
0000
0000
0000
0000
0000
0000
0000
0000
0000
0000
0000
0000
0000
0000
0000
0000
0000
0000
0010
0000
0000
0000
0000
0000
0000
0000
0000
0000
0000
0000
0000
0000
0000
0000
0000
0000
0000
0000
0000
0000
0000
0000
0000
0000
0000
0001
0000
0000
0000
0000
0000
0000
0000
0000
0000
0000
0000
0000
0000
0000
0000
0000
0000
0000
0000
0000
0000
0000
0000
0000
0000
0000
0000
0000
0100
0000
0000
0000
0000
0000
0000
0000
0000
0000
0000
0000
0000
0000
0000
0000
1000
0000
0000
0000
0000
0000
0000
0000
0000
0000
0000
0000
0000
0000
0000
0000
0000
0000
0000
0000
0000
0000
0000
0000
0000
0000
0000
0000
0000
0000
0000
0000
0000
0000
0000
0000
0000
0000
0000
0000
0000
0000
0000
0000
0000
0000
0000
0000
,  // measure 47
0000
0000
1000
0000
0000
0010
0000
0000
0100
0000
0000
0000
0000
0000
0010
0000
,  // measure 48
0000
0000
0000
1000
0000
0000
0000
0000
0000
0000
0000
0000
0000
0000
0000
0000
0000
0000
0000
0000
0000
0000
0000
0000
0000
0000
0000
0000
0000
0000
0000
0000
0100
0000
0000
0000
0000
0000
0000
0000
0000
0000
0000
0000
0000
0000
0000
0000
0001
0000
0000
0000
0000
0000
0000
0000
0000
0000
0000
0000
0000
0000
0000
0000
0000
0000
0000
0000
0000
0000
0000
0000
0000
0000
0000
0000
0000
0000
0000
0000
0000
0000
0000
0000
0000
0000
0000
0000
0000
0000
0000
0000
0000
0000
0000
0000
0000
0000
0000
0000
0000
0000
0000
0000
0000
0000
0000
0000
0000
0000
0000
0000
0000
0000
0000
0000
0000
0000
0000
0000
0001
0000
0000
0000
0000
0000
0000
0000
0000
0000
0000
0000
0000
0000
0000
0000
0000
0000
0000
0000
0000
0000
0000
0000
0010
0000
0000
0000
0000
0000
0000
0000
0000
0000
0000
0000
0000
0000
0000
0000
0000
0000
0000
0000
0000
0000
0000
0000
0100
0000
0000
0000
0000
0000
0000
0000
0000
0000
0000
0000
0000
0000
0000
0000
0000
0000
0000
0000
0000
0000
0000
0000
,  // measure 49
2000
3010
0002
0013
,  // measure 50
2000
0000
3010
0000
0002
0010
2003
0010
,  // measure 51
3001
0010
0001
0100
,  // measure 52
0010
1000
0100
0010
,  // measure 53
0001
0100
0010
1000
,  // measure 54
0010
1000
0100
1000
,  // measure 55
0010
0001
0100
0001
,  // measure 56
0010
0001
1000
0001
,  // measure 57
0010
0001
0100
1000
,  // measure 58
0010
1000
0100
0001
,  // measure 59
1001
0000
0000
1001
,  // measure 60
1001
0000
0000
0000
,  // measure 61
1001
0000
0000
1001
,  // measure 62
1001
0000
0000
0000
,  // measure 63
1010
0000
0000
1010
,  // measure 64
0011
0000
0000
0011
,  // measure 65
1010
0000
0000
1100
,  // measure 66
0101
0000
0000
0000
1000
0001
1000
0001
,  // measure 67
1000
0000
0001
0000
,  // measure 68
0100
0000
0010
0000
,  // measure 69
1000
0000
0100
0000
,  // measure 70
0010
0000
0001
0000
,  // measure 71
1000
0000
0010
0000
,  // measure 72
1000
0000
0001
0000
,  // measure 73
0100
0000
0010
0000
,  // measure 74
1000
0000
0001
0000
,  // measure 75
0010
0000
0001
0000
,  // measure 76
0100
0000
0010
0000
,  // measure 77
1000
0000
0100
0000
,  // measure 78
1000
0000
0010
0000
,  // measure 79
1000
0000
0001
0000
,  // measure 80
0010
0000
0001
0000
,  // measure 81
0100
0000
0001
0000
,  // measure 82
0010
0000
0100
0000
,  // measure 83
1000
0000
0010
0000
,  // measure 84
1000
0000
0001
0000
,  // measure 85
0100
0000
1000
0000
,  // measure 86
0001
0000
0010
0000
,  // measure 87
1000
0000
0010
0000
,  // measure 88
1000
0000
0100
0000
,  // measure 89
0001
0000
0010
0000
,  // measure 90
1000
0000
0001
0000
,  // measure 91
1000
0000
0010
0000
,  // measure 92
0100
0000
1000
0000
,  // measure 93
0001
0000
0010
0000
,  // measure 94
0001
0000
1000
0000
,  // measure 95
0002
0000
0010
0000
,  // measure 96
0100
0000
1000
0000
,  // measure 97
2003
0000
0010
0000
,  // measure 98
0100
0000
0001
3000
,  // measure 99
2002
0000
0000
3003
,  // measure 100
1001
0000
0000
0000
;

//---------------dance-single - HEAVY----------------
#NOTES:
     dance-single:
     HEAVY:
     Hard:
     10:
     0.690,1.000,0.482,0.104,0.189: // measure 1
0000
0000
0000
0000
,  // measure 2
0000
0000
0000
0000
,  // measure 3
0000
0000
0000
0000
,  // measure 4
0000
0000
0000
0000
,  // measure 5
0000
0000
0000
0000
,  // measure 6
0000
0000
0000
0000
,  // measure 7
0000
0000
0000
0000
,  // measure 8
0000
0000
0000
0000
,  // measure 9
1000
0010
0001
0010
0100
0001
0100
0010
,  // measure 10
0100
1000
0010
0001
0010
0001
1001
0000
,  // measure 11
0001
0010
1000
0010
0100
1000
0100
0010
,  // measure 12
0100
0001
0010
1000
0010
1000
1001
0000
,  // measure 13
0001
0100
0010
1000
0100
0001
0100
1000
,  // measure 14
0010
0001
0100
1000
0001
1000
1100
0000
,  // measure 15
1000
0100
0010
0001
0100
1000
0100
0001
,  // measure 16
1000
0100
1000
0000
0001
0100
0001
0000
1000
0010
0100
0001
0100
0010
1000
0100
,  // measure 17
1001
0000
0000
0101
0000
0000
0010
1000
,  // measure 18
0100
0000
0010
0001
0100
0000
1000
0000
,  // measure 19
1010
0000
0000
0011
0000
0000
0010
0001
,  // measure 20
0100
0000
0010
1000
0100
0000
0001
0000
,  // measure 21
0011
0000
0000
1010
0000
0000
0100
1000
,  // measure 22
0010
0000
0100
0001
0010
0000
1000
0000
,  // measure 23
1010
0000
0000
0011
0000
0000
1000
0000
,  // measure 24
0101
0110
1010
0011
,  // measure 25
1001
0000
0000
0110
0000
0000
0010
0001
,  // measure 26
0100
0000
0010
1000
0100
0000
1000
0000
,  // measure 27
1010
0000
0000
0011
0000
0000
0001
0000
,  // measure 28
1000
0001
1000
0001
0000
0000
0000
0000
,  // measure 29
1000
0001
0000
0000
0000
0000
0010
0100
0000
0000
0000
0000
0000
0000
0000
0000
,  // measure 30
1000
0100
1000
0000
0001
0100
0001
0000
,  // measure 31
0110
0000
0000
0011
0000
0000
0110
0000
,  // measure 32
1010
0110
0011
1001
,  // measure 33
1000
0100
1000
0001
,  // measure 34
0010
0100
0010
0000
0001
0000
1000
0000
,  // measure 35
0010
0100
1000
0000
0100
0000
0001
0000
,  // measure 36
1100
1001
1010
1001
,  // measure 37
1000
0001
0100
0001
,  // measure 38
1000
0000
0010
0100
0010
0000
1000
0000
,  // measure 39
0001
0000
0010
0100
1000
0000
0001
0000
,  // measure 40
0011
1001
0101
1001
,  // measure 41
1000
0000
0000
1000
0000
0000
1000
0000
0000
0001
0000
0000
0010
0000
0001
0000
,  // measure 42
0001
0000
0000
0001
0000
0000
0001
0000
0000
1000
0000
0000
0010
0000
1000
0000
,  // measure 43
1000
0000
0000
1000
0000
0000
1000
0000
0000
0001
0000
0000
0100
0000
0001
0000
,  // measure 44
0001
0000
0000
0001
0000
0000
0001
0000
0000
1000
0000
0000
0100
0000
1000
0000
,  // measure 45
2002
0000
0000
0000
0000
0000
0000
0000
0000
0000
0000
0000
0000
0000
0000
0000
0000
0000
0000
0000
0000
0000
0000
0000
0000
0000
0000
0000
0000
0000
0000
0000
0000
0000
0000
0000
0000
0000
0000
0000
0000
0000
0000
0000
0000
0000
0000
3003
0000
0000
0000
0000
0000
0000
0000
0000
0000
0000
0000
0000
0000
0000
0000
0000
,  // measure 46
1001
0000
0000
0000
0000
0000
0000
0000
0000
0000
0000
0000
0000
0000
0000
0000
0000
0000
0000
0000
0000
0000
0000
0000
0000
0000
0000
0000
0000
0000
0000
0000
0000
0000
0000
0000
0000
0000
0000
0000
0000
0000
0000
0000
0000
0000
0000
0000
0000
0000
0000
0000
0000
0000
0000
0000
0000
0000
0000
0000
0000
0000
0000
0000
0010
0000
0000
0000
0100
0000
0000
0000
0010
0000
0000
0000
0000
0000
0000
0000
0000
0000
0000
0000
0000
0000
0000
0000
0000
0000
0000
0000
0000
0000
0000
0000
0000
0000
0000
0101
0000
0000
0000
0000
0000
0000
0000
0000
0000
0000
0000
0000
0000
0000
0000
0000
0000
0000
0000
0000
0000
0000
0000
0000
0000
0000
0110
0000
0000
0000
0000
0000
0000
0000
0000
0000
0000
0000
0000
0000
0000
0000
0000
0000
1100
0000
0000
0000
0000
0000
0000
0000
0000
0000
0000
0000
0000
0000
0000
0000
0000
0000
0000
0000
0000
0000
0000
0000
0000
0000
0000
0000
0000
0000
0000
0000
0000
0000
0000
0000
0000
0000
0000
0000
0000
0000
0000
0000
0000
0000
0000
0000
,  // measure 47
0000
0000
0000
0000
1000
0100
1000
0000
0010
0000
0001
0000
0100
0000
1000
0000
0100
0000
1000
0000
0010
0000
0100
0000
0010
0000
0000
0000
0000
0000
0000
0000
0000
0000
0000
0000
0000
0000
0000
0000
0010
0100
0010
0000
0000
0000
0000
0000
,  // measure 48
0000
0000
0000
1010
0000
0000
0000
0000
0000
0000
0000
0000
0000
0000
0000
0000
0000
0000
0000
0000
0000
0000
0000
0000
0000
0000
0000
0000
0000
0000
0110
0000
0000
0000
0000
0000
0000
0000
0000
0000
0000
0000
0000
0000
0000
0000
0000
0000
0101
0000
0000
0000
0000
0000
0000
0000
0000
0000
0000
0000
0000
0000
0000
0000
0000
0000
0000
0000
0000
0000
0000
0000
0000
0000
0000
0000
0000
0000
0000
0000
0000
0000
0000
0000
0000
0000
0000
0000
0000
0000
0000
0000
0000
0000
0000
0000
0000
0000
0000
0000
0000
0000
0000
0000
0000
0000
0000
0000
0000
0000
0000
0000
0001
0000
0000
0000
0010
0000
0000
0000
0001
0000
0000
0000
0000
0000
0000
0000
0100
0000
0000
0000
0000
0000
0000
0000
0010
0000
0000
0000
0000
0000
0000
0000
0100
0000
0000
0000
0000
0000
0000
0000
0001
0000
0000
0000
0000
0000
0000
0000
0010
0000
0000
0000
0000
0000
0000
0000
1000
0000
0000
0000
0000
0000
0000
0000
0010
0000
0000
0000
0000
0000
0000
0000
0001
0000
0000
0000
0000
0000
0000
0000
,  // measure 49
2010
3010
0012
0013
,  // measure 50
2010
0000
3010
0000
0011
0010
1010
0010
,  // measure 51
1000
0010
1000
0000
1000
0010
1000
0000
,  // measure 52
0001
0010
0001
0000
0001
0010
0001
0000
,  // measure 53
0100
0010
0100
0000
0001
0010
0001
0000
,  // measure 54
1000
0010
1000
0000
0010
0100
0010
0000
,  // measure 55
1000
0010
1000
0000
0001
0010
0001
0000
,  // measure 56
0100
0010
0100
0000
0001
0010
0001
0000
,  // measure 57
1000
0010
1000
0000
0010
0100
0010
0000
,  // measure 58
1000
0100
1000
0010
0100
0001
0010
0100
,  // measure 59
0001
0000
0000
0010
0000
1000
0100
0000
,  // measure 60
2002
0000
0000
3003
,  // measure 61
1000
0000
0000
0010
0000
0001
0100
0000
,  // measure 62
2002
0000
0000
3003
,  // measure 63
1000
0000
0000
0100
0000
0100
0010
0000
,  // measure 64
0001
0000
0000
0010
0000
0010
1000
0000
,  // measure 65
0001
0000
0000
1000
0000
1000
0100
0000
,  // measure 66
0001
0000
1000
0000
0001
0100
0010
1000
,  // measure 67
0100
0010
0001
0010
,  // measure 68
0001
0010
0001
0010
,  // measure 69
0001
1000
0010
1000
,  // measure 70
0010
1000
0010
1000
,  // measure 71
0100
1000
0001
1000
,  // measure 72
0010
1000
0010
0100
,  // measure 73
0010
0100
0001
0010
,  // measure 74
0001
0010
0001
0010
,  // measure 75
0001
1000
0010
1000
,  // measure 76
0010
1000
0010
1000
,  // measure 77
0001
0010
0001
0010
,  // measure 78
0001
0010
0001
0010
,  // measure 79
0001
0100
0010
1000
,  // measure 80
0001
0100
0001
0010
,  // measure 81
0001
0010
0001
1000
,  // measure 82
0010
1000
0010
1000
,  // measure 83
0001
0010
0001
0010
,  // measure 84
0001
0010
0001
0010
,  // measure 85
0001
1000
0010
1000
,  // measure 86
0010
1000
0010
1000
,  // measure 87
0010
1000
0100
1000
,  // measure 88
0001
0010
0001
1000
,  // measure 89
0010
0100
0010
1000
,  // measure 90
0100
0010
0001
0010
,  // measure 91
0001
0010
0100
1000
,  // measure 92
0010
0100
0010
0100
,  // measure 93
0010
0100
0010
0100
,  // measure 94
0010
0100
0010
0100
,  // measure 95
0001
0100
0010
1000
,  // measure 96
0100
0010
0001
0100
,  // measure 97
0010
1000
0100
0010
,  // measure 98
0001
0100
0010
1000
,  // measure 99
2002
0000
0000
3003
,  // measure 100
1001
0000
0000
0000
;

//---------------dance-single - ONI----------------
#NOTES:
     dance-single:
     ONI:
     Challenge:
     11:
     1.000,1.000,0.416,1.000,0.487: // measure 1
0000
0000
0000
0000
,  // measure 2
0000
0000
0000
0000
,  // measure 3
0000
0000
0000
0000
,  // measure 4
0000
0000
0000
0000
,  // measure 5
0000
0000
0000
0000
,  // measure 6
0000
0000
0000
0000
,  // measure 7
0000
0000
0000
0000
,  // measure 8
0000
0000
0000
0000
,  // measure 9
1010
0000
0010
0100
0010
1000
0000
1000
0010
0000
0001
0000
0100
0010
0000
0010
,  // measure 10
1000
0000
0100
0000
0100
0010
0000
0001
0100
0000
1000
0000
1001
0000
0000
0000
,  // measure 11
0011
0000
0010
0100
0010
0001
0000
0001
0010
0000
1000
0000
0100
0010
0000
0010
,  // measure 12
0001
0000
0100
0000
0100
0010
0000
1000
0100
0000
0001
0000
1001
0000
0000
0000
,  // measure 13
1000
0000
0010
0100
0010
1000
0000
1000
0010
0000
0001
0000
0100
0010
0000
0010
,  // measure 14
1000
0000
0100
0000
0100
0010
0000
0001
0100
0000
1000
0000
1001
0000
0000
0000
,  // measure 15
0011
0000
0010
0100
0010
0001
0000
0001
0010
0000
0001
0000
0100
0010
0100
0001
,  // measure 16
1000
0100
1000
0000
0001
0100
0001
0000
1000
0100
0010
0001
0100
0010
1000
0100
,  // measure 17
1001
0000
1000
0100
0000
0010
0000
0001
,  // measure 18
0100
0000
0010
1000
0000
0100
0000
1000
,  // measure 19
0010
0000
0010
0100
0000
0100
0000
0001
,  // measure 20
0101
1001
0110
0011
,  // measure 21
1001
0000
0001
0000
0000
0010
0000
1000
,  // measure 22
0010
0000
0001
0100
0000
0010
0000
1000
,  // measure 23
0010
0000
0010
1000
0000
0100
0000
0001
,  // measure 24
0101
0110
0011
1100
,  // measure 25
0001
0000
0100
0010
0000
0100
0000
0001
,  // measure 26
0100
0000
0010
1000
0000
0100
0000
1000
,  // measure 27
0010
0000
0010
1000
0000
0001
0000
0001
,  // measure 28
1000
0001
1000
0001
0000
0000
0000
0000
,  // measure 29
2002
0000
3003
0220
0000
0330
0000
0000
,  // measure 30
1000
0000
0000
0010
0000
0000
0001
0000
,  // measure 31
0110
0000
0000
1001
0000
0000
1000
0010
,  // measure 32
0100
0001
0100
0010
1000
0100
0010
0001
,  // measure 33
0010
0001
0010
0100
0010
0001
0010
0100
,  // measure 34
0010
0001
0010
0100
0010
0001
0010
0100
,  // measure 35
0010
0001
0010
0100
1000
0010
0100
0001
,  // measure 36
0100
0010
1000
0100
0010
0001
0100
0010
,  // measure 37
0100
1000
0100
0010
0100
1000
0100
0010
,  // measure 38
0100
1000
0100
0010
0100
1000
0100
0010
,  // measure 39
1000
0100
0010
0100
1000
0100
0010
0001
,  // measure 40
0100
0010
1000
0100
0010
0001
1001
0000
,  // measure 41
2001
0000
0000
3020
0000
0000
0230
0000
0000
0302
0000
0000
0023
0000
0230
0000
,  // measure 42
2300
0000
0000
3200
0000
0000
0320
0000
0000
0032
0000
0000
0023
0000
0230
0000
,  // measure 43
2300
0000
0000
3020
0000
0000
0230
0000
0000
0302
0000
0000
0023
0000
0230
0000
,  // measure 44
2300
0000
0000
3002
0000
0000
0203
0000
0000
2300
0000
0000
3020
0000
0032
0003
,  // measure 45
2002
0000
0000
3003
,  // measure 46
1000
0000
0000
0000
0000
0000
0000
0000
0000
0000
0000
0000
0100
0000
0000
0000
0000
0000
0000
0000
0000
0000
0000
0000
0000
0000
0000
0001
0000
0000
0000
0000
0000
0000
0000
0000
0100
0000
0000
0000
0000
0000
0000
0000
0000
0000
0000
0000
0000
1000
0000
0000
0000
0000
0000
0000
0000
0000
0000
0000
0000
0000
0000
0010
0000
0000
0000
0000
0000
0000
0000
0000
0100
0000
0000
0000
0000
0000
0000
0000
0000
0000
0000
0000
0000
0001
0000
0000
0000
0000
0000
0000
0000
0000
0000
0000
0000
0000
0000
0010
0000
0000
0000
0000
0000
0000
0000
0000
0100
0000
0000
0000
0000
0000
0000
0000
0000
0000
0000
0000
0000
1000
0000
0000
0000
0000
0000
0000
0000
0000
0000
0000
0000
0000
0000
0010
0000
0000
0000
0000
0000
0000
0000
0000
0001
0000
0000
0000
0000
0000
0000
0000
0000
0000
0000
0000
0000
0100
0000
0000
0000
0000
0000
0000
0000
0000
0000
0000
0000
0000
0000
1000
0000
0000
0000
0000
0000
0000
0000
0000
0001
0000
0000
0000
0000
0000
0000
0000
0000
0000
0000
0000
,  // measure 47
0000
0010
0000
0000
0000
0000
0000
0000
0000
0000
0000
0000
0000
0000
0000
0100
0000
0000
0000
0000
0000
0000
0000
0000
0010
0000
0000
0000
0000
0000
0000
0000
0000
0000
0000
0000
0001
0000
0000
0000
0000
0000
0000
0000
0000
0000
0000
0000
0000
0000
0000
0100
0000
0000
0000
0000
0000
0000
0000
0000
1000
0000
0000
0000
0000
0000
0000
0000
0000
0000
0000
0000
0001
0000
0000
0000
0000
0000
0000
0000
0000
0000
0000
0000
0000
0000
0000
0100
0000
0000
0000
0000
0000
0000
0000
0000
0010
0000
0000
0000
0000
0000
0000
0000
0000
0000
0000
0000
0100
0000
0000
0000
0000
0000
0000
0000
0000
0000
0000
0000
0000
0000
0000
1000
0000
0000
0000
0000
0000
0000
0000
0000
0001
0000
0000
0000
0000
0000
0000
0000
0000
0000
0000
0000
1000
0000
0000
0000
0000
0000
0000
0000
0000
0000
0000
0000
0000
0000
0000
0100
0000
0000
0000
0000
0000
0000
0000
0000
1000
0000
0000
0000
0000
0000
0000
0000
0000
0000
0000
0000
0100
0000
0000
0000
0000
0000
0000
0000
0000
0000
0000
0000
,  // measure 48
0000
0000
0001
0000
0000
0000
0000
0000
0000
0000
0000
0000
0010
0000
0000
0000
0000
0000
0000
0000
0000
0000
0000
0000
0000
1000
0000
0000
0000
0000
0000
0000
0000
0000
0000
0000
0000
0000
0000
0001
0000
0000
0000
0000
0000
0000
0000
0000
0010
0000
0000
0000
0000
0000
0000
0000
0000
0000
0000
0000
0001
0000
0000
0000
0000
0000
0000
0000
0000
0000
0000
0000
0000
0000
0000
1000
0000
0000
0000
0000
0000
0000
0000
0000
0010
0000
0000
0000
0000
0000
0000
0000
0000
0000
0000
0000
0100
0000
0000
0000
0000
0000
0000
0000
0000
0000
0000
0000
0000
0000
0000
0001
0000
0000
0000
0000
0000
0000
0000
0000
0100
0000
0000
0000
0000
0000
0000
0000
0000
0000
0000
0000
0010
0000
0000
0000
0000
0000
0000
0000
0000
0000
0000
0000
0000
0000
0000
0100
0000
0000
0000
0000
0000
0000
0000
0000
0001
0000
0000
0000
0000
0000
0000
0000
0000
0000
0000
0000
1000
0000
0000
0000
0000
0000
0000
0000
0000
0000
0000
0000
0000
0000
0000
0001
0000
0000
0000
0000
0000
0000
0000
0000
,  // measure 49
1010
0100
1010
0000
0011
0100
0011
0000
,  // measure 50
1010
0000
0000
0000
0100
0000
0000
0000
1010
0000
0000
0000
0000
0000
0000
0000
1001
0000
0000
0000
0110
0000
0000
0000
1001
0000
0000
0000
1000
0010
1000
0010
,  // measure 51
1000
0010
1000
0010
1000
0010
1000
0010
,  // measure 52
1000
0001
0100
0001
0100
0001
0100
0001
,  // measure 53
1000
0100
1000
0100
1000
0100
1000
0100
,  // measure 54
1000
0001
0100
0001
0100
0001
0100
0001
,  // measure 55
1000
0010
1000
0010
1000
0010
1000
0010
,  // measure 56
1000
0001
0010
0001
0010
0001
0010
0001
,  // measure 57
1000
0010
0100
0001
0100
0010
1000
0100
,  // measure 58
0010
0100
1000
0010
0100
0001
1000
0001
,  // measure 59
2001
0000
0000
3010
0100
0001
1000
0000
,  // measure 60
1002
0000
1000
0000
2003
0000
3001
1000
,  // measure 61
1002
0000
0000
0013
0100
1000
0001
0000
,  // measure 62
2001
0000
0001
0000
3002
0000
1003
0001
,  // measure 63
1001
0000
0000
0120
0000
0130
0010
0000
,  // measure 64
2002
0000
3003
0120
0000
1030
0001
0000
,  // measure 65
2002
0000
3003
0210
0000
0310
0100
0000
,  // measure 66
1002
0000
2003
0000
3002
0203
0320
2030
,  // measure 67
3200
0320
0032
0203
,  // measure 68
0320
2030
3200
2300
,  // measure 69
3002
0023
0230
2300
,  // measure 70
3020
2030
3002
0203
,  // measure 71
0320
2030
3200
0320
,  // measure 72
0032
2003
3020
0230
,  // measure 73
0302
2003
3200
2300
,  // measure 74
3020
2030
3002
0203
,  // measure 75
0302
2003
3020
2030
,  // measure 76
3200
2300
3002
0023
,  // measure 77
0032
0203
0320
2030
,  // measure 78
3200
2300
3020
0230
,  // measure 79
0302
0023
0032
2003
,  // measure 80
3020
2030
3020
0230
,  // measure 81
0302
0023
0230
2300
,  // measure 82
3020
0230
0320
2030
,  // measure 83
3020
0230
0302
0023
,  // measure 84
0032
0203
0320
2030
,  // measure 85
3020
2030
3200
0320
,  // measure 86
0032
0203
0320
2030
,  // measure 87
3002
0023
0230
2300
,  // measure 88
3020
0230
0302
0023
,  // measure 89
0230
2300
3200
2300
,  // measure 90
3020
2030
3002
0203
,  // measure 91
0320
0230
0302
0023
,  // measure 92
0230
2300
3020
0230
,  // measure 93
0302
2003
3020
0230
,  // measure 94
0302
0203
0320
2030
,  // measure 95
3200
0320
0032
2003
,  // measure 96
3002
0203
0320
2030
,  // measure 97
3200
0320
0032
0203
,  // measure 98
0320
2030
3200
0320
,  // measure 99
0032
0103
0010
1000
0100
0010
0001
0100
0010
1000
0100
0010
0001
0010
0100
1000
0010
0100
0001
0010
0100
1000
0010
0100
0001
0010
0100
1000
0010
0100
0001
1000
,  // measure 100
2002
0000
3003
0000
;
