#TITLE:MAGNETI MARELLI;
#SUBTITLE:;
#ARTIST:naotyu- X 140lia;
#TITLETRANSLIT:;
#SUBTITLETRANSLIT:;
#ARTISTTRANSLIT:;
#CREDIT:;
#BANNER:MAGNETI MARELLI.png;
#BACKGROUND:MAGNETI MARELLI-bg.png;
#LYRICSPATH:;
#CDTITLE:cdtitle.png;
#MUSIC:MAGNETI MARELLI.mp3;
#OFFSET:0.510;
#SAMPLESTART:100.000;
#SAMPLELENGTH:12.000;
#SELECTABLE:YES;
#BPMS:0.000=142.000;
#STOPS:;
#BGCHANGES:2.000=MAGNETI MARELLI.avi=1.000=0=1=1,
280.000=MAGNETI MARELLI-bg.png=1.000=1=0=1,
99999=-nosongbg-=1.000=0=0=0 // don't automatically add -songbackground-
;

//---------------dance-single - BASIC----------------
#NOTES:
     dance-single:
     BASIC:
     Easy:
     3:
     0.245,0.293,0.093,0.152,0.000:
0000
0000
0000
0000
,
0000
0000
0000
0000
,
0000
0000
0000
0000
,
0000
0000
0000
0000
,
0000
0000
0000
0000
,
1000
0001
0100
0100
,
0001
1000
0010
0010
,
1000
0001
0100
0100
,
0001
1000
0010
0010
,
0001
1000
0100
0100
,
1000
0001
0010
0010
,
1000
0001
0100
0100
,
0001
1000
0010
0010
,
1000
0001
0100
0010
,
0100
1000
0100
0001
,
0100
1000
0010
0100
,
0001
0010
0100
1000
,
0100
0001
0100
1000
,
0010
1000
0010
1000
,
0100
0001
0010
0001
,
0100
0010
1000
0100
,
2001
3000
2000
3000
,
2000
3000
2000
3000
,
0002
0003
0002
0003
,
0002
0003
0002
0003
,
2000
3000
0020
0030
,
0020
0030
2000
3000
,
0002
0003
0020
0030
,
0020
0030
0002
0003
,
1001
0000
0000
0000
,
0000
0000
0000
0000
,
0000
0000
0000
0000
,
0000
0000
0000
0000
,
0000
0000
0000
0000
,
0000
0000
0000
0000
,
0000
0000
0000
0000
,
0000
0000
0000
0000
,
0010
0000
0010
0000
,
0010
0000
0010
0000
,
0010
0000
0010
0000
,
0010
0000
0010
0000
,
0010
0010
0010
0010
,
0010
0010
0010
0010
,
0020
0000
0000
0000
,
0230
0000
0000
0000
,
0301
0010
0100
0000
,
1000
0100
0010
0000
,
0001
0010
0100
0000
,
1000
0100
0010
0000
,
0001
0010
1000
0000
,
1000
0010
0001
0000
,
0001
0010
1000
0000
,
1000
0010
0001
0100
,
1000
0000
0100
0000
,
0011
0000
0010
0000
,
1100
0000
0100
0000
,
1001
0000
0010
0000
,
1001
0000
0010
0000
,
0011
0000
0100
0000
,
1100
0000
1000
0000
,
1001
0000
0110
0000
,
1001
0100
0010
1000
,
0100
0010
0100
1000
,
0001
0100
1000
0100
,
0001
0100
0010
1000
,
0100
0001
0100
0010
,
0100
0001
0100
0010
,
1000
0100
0001
0100
,
1000
0010
0100
0001
,
0010
1000
0000
0000
;

//---------------dance-single - TRICK----------------
#NOTES:
     dance-single:
     TRICK:
     Medium:
     6:
     0.387,0.527,0.313,0.008,0.004:
0000
0000
0000
0000
,
0000
0000
0000
0000
,
0000
0000
0000
0000
,
0000
0000
0000
0000
,
0000
0000
0000
0000
,
0000
0100
0001
0000
0000
0100
0000
0010
,
0000
0100
1000
0000
0000
0010
0000
1000
,
0000
0100
0001
0000
0000
0010
0000
0100
,
0000
0010
1000
0000
0000
0100
0000
0001
,
0000
0100
1000
0000
0100
0010
0000
0010
,
0000
0001
0100
0000
0100
0010
0000
0010
,
0000
1000
0100
0000
0100
0001
0000
0001
,
0000
0100
1000
0000
0000
1000
0000
0001
,
1000
0100
1000
0000
0001
0100
0001
0000
,
1000
1000
0100
0001
,
1000
0100
1000
0000
0001
0010
0100
0000
,
0001
0010
0100
0000
0100
0000
1000
0000
,
0001
0100
0001
0000
1000
0100
1000
0000
,
0010
1000
0010
0010
,
0100
0001
0100
0000
0010
0000
0010
0000
,
0100
1000
0010
0100
0001
1000
0100
0000
,
1001
1010
1001
1010
,
1001
1010
1001
1010
,
1001
0011
1001
0011
,
1001
0011
1001
0011
,
1100
0101
1100
0101
,
1100
1010
0101
1010
,
0011
1100
0011
1000
,
0100
0000
0000
0010
0000
0000
0001
0000
1000
0000
0000
0000
0000
0000
0000
0000
,
1001
0000
0000
0000
,
0000
0000
0000
0000
,
0000
0000
0000
0000
,
0000
0000
0000
0000
,
0000
0000
0000
0000
,
0000
0000
0000
0000
,
0000
0000
0000
0000
,
0000
0000
0000
0000
,
0010
0010
0010
0010
,
0010
0010
0010
0010
,
0010
0010
0010
0010
,
0010
0010
0010
0010
,
0010
0010
0010
0010
,
0010
0010
0010
0010
,
0010
0010
0010
0010
0010
0010
0010
0010
,
0020
0000
0000
0000
,
1030
0100
0001
0000
0100
0000
1010
0000
,
0001
0100
0010
0000
1000
0000
1100
0000
,
1000
0100
0001
0000
0001
0000
1010
0000
,
0001
0010
0100
0000
1000
0000
1001
0000
,
0001
0100
1000
0000
0010
0000
0101
0000
,
1000
0100
0010
0000
0001
0000
0101
0000
,
0001
0010
1000
0000
1000
0000
0101
0000
,
1000
0010
0100
0001
1000
0001
0100
0010
,
1000
0100
0010
0000
0001
0010
0001
0000
,
0010
0100
0010
0100
0010
0000
1100
0000
,
1000
0100
1000
0000
0100
0000
1001
0000
,
0010
0100
0010
0000
0010
0000
0010
1000
,
0100
0000
0010
0001
0010
0000
0100
0000
,
1000
0100
1000
0000
0100
0000
0001
0000
,
0100
1000
1000
0010
,
0001
0010
0100
1000
0001
0010
0100
1000
,
0001
0000
0100
0010
0100
0000
0001
0100
,
0010
0000
0010
1000
0100
0000
0100
1000
,
0100
0000
0100
0001
0100
0000
0100
1000
,
0010
0000
0010
0100
0001
0000
0001
0010
,
1000
0000
1000
0010
0100
0000
0100
0001
,
0100
0000
0100
1000
0010
0000
0010
0100
,
0001
0000
0001
1000
0001
0000
0001
0010
,
0100
0000
0100
1000
0001
0000
0001
0010
,
1000
0100
0001
0000
0000
0000
0000
0000
;

//---------------dance-single - HEAVY----------------
#NOTES:
     dance-single:
     HEAVY:
     Hard:
     7:
     0.459,0.527,0.220,0.000,0.004:
0000
0000
0000
0000
,
0000
0000
0000
0000
,
0000
0000
0000
0000
,
0000
0000
0000
0000
,
0000
0000
0000
0000
,
0010
0100
0001
0000
1100
1000
0100
0000
,
0010
0100
0001
0000
0011
0010
0100
0000
,
0001
0100
1000
0000
1010
1000
0100
0000
,
0010
0001
0100
1000
0100
0001
0010
0000
,
0001
0010
0100
0000
1010
1000
0001
0000
,
0010
0100
1000
0000
0011
0001
1000
0000
,
0010
1000
0001
0100
0010
0100
0001
0000
,
0010
0100
1000
0100
1000
0010
0100
0001
,
1001
0100
1000
0010
0100
0001
1000
0000
,
0001
0010
0100
1000
0010
0100
0001
0000
,
1000
0010
0100
0001
0010
0100
1000
0000
,
1000
0010
0100
0001
1000
0100
0010
0000
,
0001
0010
0100
0001
0100
0010
0001
0000
,
0010
0100
1000
0100
0010
0001
0100
0000
,
0100
0001
0100
0010
1000
0010
0100
0000
,
0100
0001
0100
1000
0010
0001
1000
0000
,
1000
0100
1000
0000
1000
0010
1000
0000
,
1000
0100
1000
0000
1000
0010
1000
0000
,
1000
0100
1000
0000
1000
0010
1000
0000
,
1000
0100
1000
0000
1000
0010
1000
0000
,
1000
0100
0001
0000
1000
0100
0001
0000
,
1000
0100
0001
0000
1000
0100
0001
0000
,
1000
0100
0001
0000
1000
0100
0001
0000
,
0100
0000
0000
0010
0000
0000
0001
0000
1000
0000
0000
0000
0000
0000
0000
0000
,
1001
0000
0000
0000
,
0000
0000
0000
0000
,
0000
0000
0000
0000
,
0000
0000
0000
0000
,
0000
0000
0000
0000
,
0000
0000
0000
0000
,
0000
0000
0000
0000
,
0000
0000
0000
0000
,
1000
0100
1000
0100
,
1000
0100
1000
0100
,
0010
0001
0010
0001
,
0010
0001
0010
0001
,
0010
0100
0010
0100
,
0010
0100
0010
0100
,
0010
0100
0010
0100
0010
0100
0010
0100
,
0010
0001
0100
0010
1000
0100
0010
0001
,
1001
0100
0001
0100
1000
0000
1010
0000
,
0101
0010
1000
0100
0001
0000
0101
0000
,
1001
0010
1000
0001
0010
0000
1010
0000
,
0011
0100
1000
0100
0001
0000
1001
0000
,
0110
1000
0001
1000
0010
0000
0101
0000
,
1010
0001
0100
1000
0010
0000
1010
0000
,
1100
0001
1000
0010
0100
0000
1001
0000
,
0110
0010
0100
0001
1000
0001
0100
0010
,
1000
0100
0010
0000
0001
0010
0001
0000
,
0010
0100
1000
0100
0010
0000
1100
0000
,
1000
0100
1000
0000
0001
0010
0001
0000
,
0100
0100
1000
1000
0100
0100
0001
0010
,
1000
0000
0010
0001
0010
0000
0101
0000
,
1000
0100
1000
0001
0010
0000
1001
0000
,
0100
1000
0010
0100
1000
0100
0001
0000
,
0001
0100
0010
1000
0100
0010
0001
0100
,
1001
0000
0100
0010
0100
0000
0001
0100
,
0010
0000
0010
0001
0100
1000
0100
0001
,
0010
0100
1000
0001
0100
0000
0100
1000
,
0010
0000
0010
0100
0001
0000
0001
0010
,
1000
0010
0001
0010
0100
0000
0100
0001
,
0100
0000
0100
1000
0010
0000
0010
0100
,
0001
0000
0001
1000
0001
0010
0100
1000
,
0100
0001
1000
0010
0001
0100
0001
0010
,
1000
0100
0001
0000
0000
0000
0000
0000
;

//---------------dance-single - ONI----------------
#NOTES:
     dance-single:
     ONI:
     Challenge:
     10:
     0.778,0.878,0.997,0.000,0.389: // measure 1
0000
0000
0000
0000
,  // measure 2
0000
0000
0000
0000
,  // measure 3
0000
0000
0000
0000
,  // measure 4
0000
0000
0000
0000
,  // measure 5
0000
0000
0000
0000
,  // measure 6
0010
0110
0101
0001
0100
1010
0100
1000
,  // measure 7
0010
0110
1001
1000
0010
0101
0001
0100
,  // measure 8
0001
0110
1001
0100
0010
1001
0100
0010
,  // measure 9
0100
0011
1100
0001
1000
0110
1000
0001
,  // measure 10
0100
1010
0101
0010
0100
0011
0100
0010
,  // measure 11
1000
0110
0101
0010
0100
1001
1000
0001
,  // measure 12
0010
1001
0110
0001
1000
0011
0100
1000
,  // measure 13
0001
0010
0100
1000
0100
1000
0100
0010
0001
0010
0100
1000
0100
0000
0010
0000
,  // measure 14
1001
0000
0110
0000
1001
0000
0010
0100
0001
0000
1001
0000
1000
0000
0010
0000
,  // measure 15
0100
0000
0110
0000
0101
0000
0001
0010
0100
0000
1100
0000
1000
0000
0010
0000
,  // measure 16
1000
0000
1100
0000
0011
0000
0001
1000
0010
0000
0110
0000
0100
0000
0001
0000
,  // measure 17
1000
0000
0110
0000
1001
0000
0001
0010
0100
0000
1100
0000
1000
0000
0001
0000
,  // measure 18
0010
0000
1100
0000
0011
0000
0001
1000
0001
0000
0011
0000
0010
0000
0001
0000
,  // measure 19
0100
0000
0110
0000
1010
0000
1000
0010
0100
0000
0101
0000
0100
0000
0010
0000
,  // measure 20
0100
0000
0101
0000
1010
0000
1000
0010
1000
0000
1001
0000
0001
0000
1000
0000
,  // measure 21
0100
1000
0100
0010
0100
1000
0010
0100
0001
0010
0001
0010
0100
1000
0100
1000
,  // measure 22
1100
0100
1100
0000
1010
0010
1010
0000
,  // measure 23
1100
0100
1100
0000
1010
0010
1010
0000
,  // measure 24
1001
0001
1001
0000
1010
0010
1010
0000
,  // measure 25
1100
0100
1100
0000
1010
0100
1010
0000
,  // measure 26
1100
0100
0101
0001
0101
0100
1100
1000
,  // measure 27
1100
0100
0101
0001
0101
0100
1100
0001
,  // measure 28
1100
0100
0101
1000
0101
0100
1100
0101
,  // measure 29
1010
0000
0000
0011
0000
0000
0101
0000
1001
0000
0000
0000
0000
0000
0000
0000
,  // measure 30
1001
0000
0000
0010
0000
0000
0000
0010
,  // measure 31
0000
0000
0000
0010
0000
0000
0000
0010
,  // measure 32
0000
0000
0000
0010
0000
0000
0000
0010
,  // measure 33
0000
0000
0000
0010
0000
0000
0000
0010
,  // measure 34
0000
0000
0000
0000
,  // measure 35
0010
0100
0010
0100
,  // measure 36
0010
0100
0010
0100
,  // measure 37
0010
0100
0010
0100
,  // measure 38
0001
1000
0100
0000
0001
1000
0100
0000
,  // measure 39
0001
1000
0100
0000
0001
1000
0100
0000
,  // measure 40
0010
1000
0100
0000
0010
0001
0100
0000
,  // measure 41
0010
1000
0100
0000
0010
0001
0100
0000
,  // measure 42
0010
1000
0010
0100
0010
0001
0010
1000
,  // measure 43
0010
0100
0010
0001
0010
0100
0010
1000
,  // measure 44
0010
0100
0010
0100
0010
0100
0010
0100
,  // measure 45
0010
1000
0100
0010
0001
0100
0010
1000
0100
0010
0001
0100
0010
1000
0001
1000
,  // measure 46
1001
0100
0001
0100
1001
0000
1010
0000
,  // measure 47
0101
0010
1000
0010
1001
0000
0101
0000
,  // measure 48
1001
0010
0100
0010
1001
0000
1010
0000
,  // measure 49
1001
0100
0001
0100
1001
0000
1001
0000
,  // measure 50
0110
1000
0001
1000
0110
0000
0101
0000
,  // measure 51
1010
0001
0100
0010
0101
0000
0110
0000
,  // measure 52
1010
0001
1000
0010
0101
0000
1001
0000
,  // measure 53
0010
1000
0000
0010
0100
0000
0001
0100
0000
0010
0100
0000
0001
1000
0001
1000
,  // measure 54
1001
0000
0100
0000
0010
0100
1000
0100
0001
0000
0100
0000
1000
0000
0100
1000
,  // measure 55
0010
0000
0100
0000
1000
0100
0001
0100
0010
0000
0100
0000
1000
0000
0100
0001
,  // measure 56
0010
0000
0100
0000
1000
0100
0010
0001
1000
0000
0001
0000
0100
0000
0010
0100
,  // measure 57
0001
0000
1000
0000
0100
0010
0100
1000
0001
0000
0100
0000
0001
0000
0010
0100
,  // measure 58
1000
0000
0010
0000
0100
0010
1000
0001
0010
0000
0001
0000
0010
0000
0100
1000
,  // measure 59
0001
0000
0010
0000
0100
0010
0100
0001
1000
0000
0010
0000
0100
0000
0001
0100
,  // measure 60
0010
0000
0001
0000
1000
0010
0100
0001
0010
0000
0100
0000
1000
0000
0001
1000
,  // measure 61
0001
0010
0001
0010
0100
1000
0100
1000
0001
1000
0001
1000
0010
0100
0001
1000
,  // measure 62
1001
0000
0110
0000
0100
0010
0100
0000
0001
0100
0001
0000
1000
0010
1000
0000
,  // measure 63
0010
0100
0010
0000
1000
0010
1000
0000
0010
0100
0010
0000
0100
0001
0100
0000
,  // measure 64
0001
1000
0001
0000
1000
0100
1000
0000
0001
0100
0001
0000
0100
0010
0100
0000
,  // measure 65
0001
1000
0001
0000
0010
0100
1000
0000
0010
0100
0001
0000
1000
0010
0100
0001
,  // measure 66
1000
0000
0110
0000
1001
0000
0110
0000
0101
0000
0010
0100
0001
0000
1001
0000
,  // measure 67
0100
1000
0010
0100
0001
0000
0101
0000
1010
0000
0100
1000
0001
0000
0101
0000
,  // measure 68
0010
0100
0001
1000
0010
0000
1010
0000
0101
0000
0001
1000
0100
0000
1100
0000
,  // measure 69
1001
0000
0001
1000
0010
0000
1010
0000
0101
0000
0001
0010
0100
1000
0100
0010
,  // measure 70
1001
0110
1001
0000
0000
0000
0000
0000
;
