#TITLE:LuvTripMACHINE;
#SUBTITLE:;
#ARTIST:myu;
#TITLETRANSLIT:;
#SUBTITLETRANSLIT:;
#ARTISTTRANSLIT:;
#CREDIT:;
#BANNER:LuvTripM.png;
#BACKGROUND:LuvTripM-bg.png;
#LYRICSPATH:;
#CDTITLE:cdtitle.png;
#MUSIC:LuvTripM.mp3;
#OFFSET:0.000;
#SAMPLESTART:100.000;
#SAMPLELENGTH:12.000;
#SELECTABLE:YES;
#BPMS:0.000=160.300,60.000=80.150,61.000=160.300,205.000=320.600,208.000=160.300;
#STOPS:60.000=0.750
,207.000=0.187
;
#BGCHANGES:;

//---------------dance-single - BASIC----------------
#NOTES:
     dance-single:
     BASIC:
     Easy:
     5:
     0.312,0.331,0.133,0.025,0.000:
0000
0000
0000
0000
,
0000
0000
0000
0000
,
0000
0000
0000
0000
,
0000
0000
0000
0000
,
0000
0000
0000
0000
,
0000
0000
0000
0000
,
0000
0000
0000
0000
,
0000
0000
0000
0000
,
1000
0010
0010
0100
,
0000
0000
0001
0001
,
0001
0010
0010
0100
,
0000
0000
1000
1000
,
0001
0100
0010
1000
,
0001
1000
0001
0100
,
0010
1000
0100
0002
,
0003
1000
0001
1000
,
0100
0000
0000
0010
,
0010
0001
0100
0001
,
1000
0010
0000
0100
,
0100
0010
0100
0001
,
0100
1000
0010
0100
,
0100
0010
0001
0100
,
1000
0010
1000
0100
,
0100
1001
0000
1001
,
0000
0110
0000
1001
,
0000
0110
0000
0110
,
0000
1001
0000
0000
,
0000
1000
0100
0001
,
0100
1000
0010
0001
,
0010
1000
0100
0001
,
0010
0100
0100
1001
,
1001
0001
0100
1000
,
0100
0001
0010
1000
,
0010
0001
0100
1000
,
0010
0100
0100
1001
,
1001
0000
0000
0000
,
0000
0000
0000
0000
,
0000
0010
0010
0010
,
0010
0010
0010
0010
,
0010
0100
0100
0100
,
0100
0100
0100
0100
,
0100
0001
0001
0001
,
0001
1000
1000
1000
,
1000
0001
0100
0001
,
0001
0000
0100
0000
0001
0000
0001
0010
,
0100
1000
0100
1000
,
1000
0000
0100
0000
1000
0000
1000
0010
,
0100
0000
0100
0000
0100
0000
0001
1000
,
0100
0000
0100
0000
0100
0000
1000
0001
,
0100
0000
0010
0000
0010
0000
0010
1000
,
0001
0000
0010
0000
0010
0000
0010
0001
,
1000
2002
0000
0000
,
3003
1000
0001
0100
,
0100
0000
0010
0000
0010
1000
0001
0100
,
0010
0010
1000
0100
,
0001
0000
0100
0000
1000
0010
0100
0001
,
1000
0010
0100
0100
,
0001
0000
1000
0000
0010
1000
0001
0100
,
0010
1000
0100
0100
,
0010
0000
0001
0000
0100
0010
1000
0100
,
0001
0100
1000
0010
,
0010
0100
0100
0001
,
0001
1000
1000
0010
,
0010
0000
1001
1001
,
0100
1000
0100
0001
,
0100
1000
0010
0100
,
0100
0001
0001
0100
,
1000
0100
1001
1001
,
0100
0100
0001
0100
,
1000
0010
0010
0001
,
0100
1000
0100
0001
,
0010
1000
0100
0001
,
0001
0010
0000
0000
0000
0000
0000
0000
;

//---------------dance-single - TRICK----------------
#NOTES:
     dance-single:
     TRICK:
     Medium:
     7:
     0.444,0.481,0.317,0.142,0.000:
0000
0000
0000
0000
,
0000
0000
0000
0000
,
0000
0000
0000
0000
,
0000
0000
0000
0000
,
0000
0000
0000
0000
,
0000
0000
0000
0000
,
0000
0000
0000
0000
,
0000
0000
0000
0000
,
1000
0100
0010
0000
0010
0000
0100
0000
,
1000
0100
0001
0000
0001
0100
1000
0100
,
0001
0000
0010
1000
0010
0000
0100
0000
,
0001
0010
1000
0000
1000
0001
1000
0000
,
0001
0100
0010
0100
0010
1000
0100
1000
,
0100
1000
0010
0100
0001
0010
0100
0000
,
0010
0100
1000
0010
0100
0001
0100
2000
,
3000
0000
1001
1000
0001
0000
1000
0010
,
0100
0000
0001
0100
1000
0000
1000
0010
,
0100
0001
0101
0100
,
0100
0000
1000
0100
0001
0000
0110
0000
,
1001
0000
0010
0100
0001
0000
0001
0100
,
0010
0000
1000
0100
0001
0000
0001
0100
,
1000
1010
0101
0011
,
1100
0000
0010
1000
0100
0001
0100
1000
,
0010
1001
0100
1001
,
0010
0110
0100
1001
,
1000
0110
0001
0110
,
0100
0000
1001
0000
0100
0000
0100
0010
,
0100
0000
1000
0000
0101
0000
0010
0010
,
0100
1000
0010
0001
,
0011
0000
1000
1000
0100
0000
0101
0000
,
1001
0000
0100
0010
0100
0010
0100
0000
,
1001
0000
0001
0100
0010
0000
1000
0100
,
0010
0002
0103
2000
,
3100
0000
0001
0010
0010
0000
1000
0010
,
0010
0000
0010
0100
0010
0100
0010
0000
,
1001
0000
0000
0010
0000
0010
0000
0010
,
0000
0010
0000
1000
0000
1000
0000
1000
,
0000
1000
0000
0001
0000
0001
0000
0001
,
0000
0001
0000
1000
0000
0100
0000
0001
,
0000
0010
0000
0001
0000
0100
0000
1000
,
0000
0010
0000
0100
0000
0001
0000
0100
,
0000
0010
0000
1000
0000
0100
0000
0001
,
0000
0100
0000
1000
0000
0010
0000
0100
,
0000
0000
0001
0001
0100
0000
0001
0100
,
1000
0000
0100
0010
0001
1000
0001
0010
,
0100
1000
0100
1000
,
0010
0100
1000
0110
,
1001
0000
0100
0001
0100
0000
0100
1000
,
0100
0000
0100
0010
0100
0001
1000
0010
,
0100
0010
0100
0010
,
0001
0000
0010
0000
1000
0000
0100
0001
,
1000
2002
0000
3003
,
1000
0001
0100
0100
,
0000
0000
1001
0000
0010
1000
0100
0001
,
0010
0010
0010
0100
,
1001
0000
0000
0000
0001
0100
1000
0010
,
0001
0001
0100
0101
,
1001
0000
0000
0000
0100
1000
0010
0001
,
0100
1000
0100
1100
,
0010
0000
0011
0000
0001
0010
1000
0100
,
0001
0200
0310
1001
,
2000
0100
0100
0000
0100
0000
3100
0000
,
0002
0010
0010
0000
0010
0000
1000
0000
,
0100
1003
1001
1001
,
0200
0301
0102
0013
,
0210
1000
0310
0100
,
0201
1000
0001
0310
,
1000
0001
0100
0000
1001
0000
1001
0000
,
0100
0001
0100
0000
0100
1000
0100
0000
,
2000
3100
0020
0031
,
0002
0103
2000
3010
,
0200
0000
0310
0000
0100
0010
0001
0100
,
1000
0010
0000
0000
0000
0000
0000
0000
;

//---------------dance-single - HEAVY----------------
#NOTES:
     dance-single:
     HEAVY:
     Hard:
     8:
     0.471,0.601,0.208,0.092,0.004:
0000
0000
0000
0000
,
0000
0000
0000
0000
,
0000
0000
0000
0000
,
0000
0000
0000
0000
,
0000
0000
0000
0000
,
0000
0000
0000
0000
,
0000
0000
0000
0000
,
0000
0000
0000
0000
,
1001
0000
0010
0100
0010
0000
0100
1000
,
0000
0010
0001
0000
0001
0100
1000
0000
,
1001
0000
0100
0010
0100
0000
0001
0010
,
0000
1000
0100
0000
1000
0010
0001
0000
,
0001
0010
0100
1000
0100
0001
0100
0010
,
0100
1000
0100
0001
0010
0100
1000
0010
,
0100
0001
0100
1000
0100
0001
0100
2000
,
0000
0000
3000
0000
0000
0000
0000
0000
0000
0000
0000
0000
0000
0000
0000
0000
0000
0000
0000
0000
0000
0000
0000
0000
0000
0000
0000
0000
0000
0000
0000
0000
0000
0000
0000
0000
0000
0000
0000
0000
0000
0000
0000
0000
0000
0000
0000
0000
0000
0000
0000
0000
0000
0000
0000
0000
0000
0000
0000
0000
0000
0000
0000
0000
0000
0000
0000
0000
0000
0000
0000
0000
1000
0000
0000
0000
0000
0000
0000
0000
0000
0000
0000
0000
0000
0000
0000
0000
0000
0000
0000
0000
0000
0000
0000
0000
0001
0000
0000
0000
0000
0000
0000
0000
0000
0000
0000
0000
0000
0000
0000
0000
0000
0000
0000
0000
0000
0000
0000
0000
0100
0000
0000
0000
0000
0000
0000
0000
0000
0000
0000
0000
0000
0000
0000
0000
0000
0000
0000
0000
0000
0000
0000
0000
0000
0000
0000
0000
0000
0000
0000
0000
0000
0000
0000
0000
0000
0000
0000
0000
0000
0000
0000
0000
0000
0000
0000
0000
0010
0000
0000
0000
0000
0000
0000
0000
0000
0000
0000
0000
0000
0000
0000
0000
0000
0000
0000
0000
0000
0000
0000
0000
,
0100
0001
0000
0100
1000
0010
0000
0010
,
0100
0001
0000
0001
0100
1000
0000
1000
,
0010
0100
0000
0100
0001
0100
1000
0010
,
1001
0000
0000
0100
0001
0010
0000
0100
,
0010
1000
0000
1000
0100
0001
0000
0001
,
0010
1000
0000
1000
0100
0010
0000
0001
,
0010
0100
0000
1000
0100
0001
0100
1000
,
0010
0000
1000
0001
0100
0000
0010
0100
,
0010
0120
0130
1002
,
1003
0120
0031
0120
,
1030
0000
2001
0000
3001
0000
0100
0010
,
0100
0010
1000
0100
0001
0010
0000
0010
,
0100
1000
0000
0100
0010
0001
0000
0001
,
0010
1000
0000
1000
0100
0001
0000
0001
,
0010
1000
0100
1000
0001
1000
0010
0001
,
1001
0000
0001
0100
0010
0000
1000
0100
,
0010
0000
0001
1000
0100
0000
1000
0001
,
0100
0000
0001
0010
1000
0000
1000
0010
,
0001
0000
1000
0100
0001
0010
1000
0000
,
1001
0000
0000
0000
,
0000
0000
0000
0000
,
0000
0000
0010
0000
0010
0000
0100
0010
,
0100
0100
0100
0010
,
0010
0000
0000
0000
0000
0000
0000
0010
,
0100
0000
1000
0000
,
0000
0000
0000
0000
0001
1000
0001
0000
0000
0000
0000
0000
0000
0000
0100
0000
,
0000
0000
0000
0010
,
0000
0000
0001
0100
0001
0100
0010
0100
,
0010
1000
0100
1000
0100
0010
0001
0010
,
0001
1000
0110
0001
,
1010
0100
0101
0010
,
1001
0000
0100
0001
0100
1000
0100
0001
,
0100
1000
0100
0010
0100
0001
0100
0010
,
1000
1010
0100
0110
,
0001
0000
1100
0000
0001
0000
0100
0001
,
1000
1001
0000
1001
,
1001
0000
0001
0100
1000
0000
1000
0010
,
0000
0001
0100
0000
0010
1000
0100
0001
,
0010
0000
0010
1000
0100
0000
0001
0010
,
0000
1000
0100
0000
0010
0001
0100
1000
,
0010
0000
0010
0001
0100
0000
1000
0010
,
0000
0001
0100
0000
0010
1000
0100
0001
,
0010
0000
1000
0100
0001
0000
0001
0010
,
0000
1000
0100
0000
0001
0010
1000
0100
,
0001
0100
0010
1001
,
1000
0100
1000
0000
0010
1000
0100
0000
,
0001
0100
1000
0100
0001
0010
1000
0010
,
0001
0100
1000
0000
1001
0000
1001
0000
,
1000
0010
0100
0000
0100
0001
0010
0000
,
0010
1000
0100
0000
0100
0010
1000
0000
,
0001
0100
1000
0010
0001
0010
1000
0100
,
0001
0010
0100
0000
1001
0000
1001
0000
,
0100
1000
0100
0010
0001
0010
0100
1000
,
2000
0100
3100
0010
0020
0001
0031
0100
,
0200
0010
0310
1000
2000
0001
3001
0100
,
0200
0010
0310
1000
0100
0010
0001
0100
,
1000
0010
0000
0000
0000
0000
0000
0000
;

//---------------dance-single - ONI----------------
#NOTES:
     dance-single:
     ONI:
     Challenge:
     8:
     0.525,0.710,0.342,0.050,0.000:
0000
0000
0000
0000
,
0000
0000
0000
0000
,
0000
0000
0000
0000
,
0000
0000
0000
0000
,
0000
0000
0000
0000
,
0000
0000
0000
0000
,
0000
0000
0000
0000
,
0000
0000
0000
0000
,
1001
0000
0001
0100
1000
0000
1000
0010
,
0000
0100
0001
0000
0001
0100
1000
0000
,
1001
0000
0001
0010
1000
0000
0001
0010
,
0000
0100
1000
0000
0001
0010
1000
0000
,
1001
1000
0001
0100
0110
0010
1000
0001
,
1001
1000
0100
0001
0010
0100
1000
0010
,
1001
0001
0100
1000
0110
0001
0100
2000
,
0000
0000
3000
0000
0000
0000
0000
0000
0000
0000
0000
0000
0000
0000
0000
0000
0000
0000
0000
0000
0000
0000
0000
0000
0000
0000
0000
0000
0000
0000
0000
0000
0000
0000
0000
0000
0000
0000
0000
0000
0000
0000
0000
0000
0000
0000
0000
0000
1001
0000
0000
0000
0000
0000
0000
0000
0000
0000
0000
0000
0000
0000
0000
0000
0000
0000
0000
0000
0000
0000
0000
0000
1000
0000
0000
0000
0000
0000
0000
0000
0000
0000
0000
0000
0000
0000
0000
0000
0000
0000
0000
0000
0000
0000
0000
0000
0001
0000
0000
0000
0000
0000
0000
0000
0000
0000
0000
0000
0000
0000
0000
0000
0000
0000
0000
0000
0000
0000
0000
0000
0000
0000
0000
0000
0000
0000
0000
0000
0000
0000
0000
0000
0000
0000
0000
0000
0000
0000
0000
0000
0000
0000
0000
0000
0010
0000
0000
0000
0000
0000
0000
0000
0000
0000
0000
0000
0000
0000
0000
0000
0000
0000
0000
0000
0000
0000
0000
0000
0100
0000
0000
0000
0000
0000
0000
0000
0000
0000
0000
0000
0000
0000
0000
0000
0000
0000
0000
0000
0000
0000
0000
0000
,
1000
0000
0010
0100
0001
0000
0010
1000
,
0100
0000
0100
0001
0100
0000
1000
0010
,
0100
0000
0100
0001
0100
1000
1001
0100
,
1001
0010
1001
0100
0001
0000
0100
1000
,
0010
0000
0010
0001
0100
0000
0100
1000
,
0001
0000
0010
0100
1000
0000
0010
0100
,
0001
0000
0001
1000
0100
0001
0110
1000
,
0110
0001
1001
0000
0100
0000
0010
0100
,
0010
0000
1001
0010
0100
0000
1001
0010
,
0100
0000
0011
0100
1000
0000
1010
0100
,
0001
0000
1001
0000
0110
0000
0100
0010
,
0001
0010
1000
0100
0000
0000
0000
0000
,
0000
0000
0100
0001
0010
1000
0001
0010
,
0000
0000
1000
0100
0000
0000
0000
0000
,
0000
0000
0001
1000
0010
0001
0100
1000
,
1001
0000
0001
0100
0010
0000
1000
0100
,
0010
0000
0001
1000
0100
0000
1000
0001
,
0100
0000
0001
0010
1000
0000
1000
0010
,
0001
0000
1000
0100
0001
0010
1000
0000
,
1001
0000
0000
0000
,
0000
0000
0000
0000
,
0000
0000
0001
0010
0001
0100
1000
0001
,
0000
0000
1000
0010
1000
0100
0001
1000
,
0000
0000
0010
1000
0100
0001
0010
0100
,
0000
0000
0010
1000
0100
0001
0010
0100
,
0000
0000
0001
0010
0001
0100
1000
0100
,
0000
0000
1000
0010
1000
0100
0001
0100
,
0000
0011
1100
1001
,
0010
1000
0000
1000
0100
0001
0010
0100
,
1000
0001
0100
0010
1000
0100
0001
0100
,
1010
0000
1000
0001
0100
0010
0001
1000
,
1001
1010
0101
1001
,
0010
0001
0000
0001
0100
1000
0100
0010
,
0001
1000
0010
0100
0001
0010
1000
0010
,
0101
0000
0001
1000
0010
0100
1000
0001
,
1001
0000
0001
0100
1000
0000
1001
0000
,
1001
0000
0001
0100
1000
0000
1000
0010
,
0000
0001
0100
0000
0010
1000
0100
0001
,
0010
0000
0010
1000
0100
0000
0001
0010
,
0000
1000
0100
0000
0010
0001
0100
1000
,
0010
0000
0010
0001
0100
0000
1000
0010
,
0000
0001
0100
0000
0010
1000
0100
0001
,
0010
0000
1000
0100
0001
0000
0001
0010
,
0000
1000
0100
0000
0001
0010
1000
0100
,
0000
0001
0100
0010
0000
1000
0100
0001
,
0000
0010
1000
0100
0000
1000
0100
0001
,
0000
0010
0100
1000
0000
0100
0010
0001
,
0000
0001
0100
1000
0010
0100
0001
0010
,
0100
1000
0100
0001
0000
0010
0100
1000
,
0000
0100
0001
0010
0000
1000
0100
0001
,
0000
0010
0100
1000
0000
1000
0100
0001
,
0000
0010
0100
1000
0010
0100
1001
0000
,
1100
1000
0100
0010
0001
0010
0100
1000
,
2100
0100
3100
0010
0021
0001
0031
0100
,
0210
0010
0310
1000
2001
0001
3001
0100
,
0210
0010
0310
1000
0100
0010
0001
0100
,
1000
0010
0000
0000
0000
0000
0000
0000
,
0001
0100
1000
0010
0001
1000
0000
0000
,
1000
0001
0000
0000
0000
0000
0000
0000
;

//---------------dance-double - ----------------
#NOTES:
     dance-double:
     :
     Hard:
     9:
     0.455,0.451,0.183,0.042,0.008: // measure 1
00000000
00000000
00000000
00000000
,  // measure 2
00000000
00000000
00000000
00000000
,  // measure 3
00000000
00000000
00000000
00000000
,  // measure 4
00000000
00000000
00000000
00000000
,  // measure 5
00000000
00000000
00000000
00000000
,  // measure 6
00000000
00000000
00000000
00000000
,  // measure 7
00000000
00000000
00000000
00000000
,  // measure 8
00000000
00000000
00000000
00000000
,  // measure 9
11000000
00000000
01000000
00010000
00001000
00000000
00000100
00000001
,  // measure 10
00000000
00000010
00001000
00000000
00010000
01000000
10000000
00000000
,  // measure 11
00110000
00000000
10000000
01000000
00010000
00000000
00001000
00000010
,  // measure 12
00000000
00000001
00000100
00000000
00000010
00000001
00000100
00000000
,  // measure 13
00000110
00000000
00000010
00001000
00010000
00000000
01000000
10000000
,  // measure 14
00000000
00100000
00010000
00000000
00001000
00000100
00000010
00000000
,  // measure 15
00001100
00000000
00000001
00000010
00001000
00000000
00010000
01000000
,  // measure 16
00000000
00000000
00000000
10000000
01000000
00010000
00000000
00001000
,  // measure 17
00000100
00000001
00000010
00000100
00001000
00000010
00000000
00010000
,  // measure 18
00001000
00100000
01000000
10000000
00100000
00010000
00000000
00001000
,  // measure 19
00000100
00000001
00000010
00000100
00010000
00001000
00000000
00100000
,  // measure 20
00000000
11000000
00000000
01000000
00010000
00001000
00000000
00000100
,  // measure 21
00000001
00000010
00000100
00010000
00000010
00000001
00000000
00001000
,  // measure 22
00010000
01000000
00100000
10000000
01000000
00010000
00000000
00001000
,  // measure 23
00000100
00000010
00010000
00000100
00000010
00000001
00000000
00000100
,  // measure 24
00000000
00010100
00000000
00001000
00100000
01000000
00000000
10000000
,  // measure 25
00100000
00010000
00000000
00001000
00000100
00000001
00000000
00000010
,  // measure 26
00000100
00000000
00010000
00001000
00010000
00000000
00000000
00000000
01000000
00000000
00100000
00000000
00000000
00000000
10000000
00000000
,  // measure 27
01000000
00010000
00000000
00001000
00000100
00000001
00000000
00000010
,  // measure 28
00000100
00000000
00000110
00000001
00000000
00000100
00001000
00010000
,  // measure 29
00000000
01000000
10000000
00100000
00000000
01000000
00010000
00001000
,  // measure 30
00000000
00000100
00000001
00000010
00000000
00000100
00001000
00010000
,  // measure 31
00000000
01000000
10000000
00100000
00000000
00010000
00000000
00000010
,  // measure 32
00000000
00000110
00000000
00000001
00000100
00000010
00000000
00010000
,  // measure 33
00001000
01000000
00000000
00100000
10000000
01000000
00000000
00010000
,  // measure 34
00001000
00000010
00000000
00000100
00001000
00000010
00000000
00000001
,  // measure 35
00000100
00001000
00000000
00010000
00001000
00100000
00000000
01000000
,  // measure 36
00000000
11000000
00020000
00000000
00000000
00000000
00000000
00000000
,  // measure 37
00000000
00001000
00001000
00001000
,  // measure 38
00001000
00030200
00000010
00000010
,  // measure 39
00000010
00000302
00001000
00001000
,  // measure 40
00001003
00000010
00000110
00010000
,  // measure 41
00011000
01000000
01010000
10000000
,  // measure 42
11000000
00100000
00101000
00010000
,  // measure 43
00010010
00000010
00000110
00000001
,  // measure 44
00001001
00000000
00000010
00000100
00000010
00000000
00000000
00000001
,  // measure 45
00000100
00001000
00000000
00000000
00010000
10000000
00010000
10000000
,  // measure 46
01000000
00000000
10000000
01000000
00100000
00000000
00000000
00001000
,  // measure 47
00010000
00000100
00000000
00000010
00000001
00000100
00000010
00010000
,  // measure 48
00000100
00000000
00010000
00001000
00100000
00000000
00000000
01000000
,  // measure 49
10000000
00100000
00000000
00010000
00001000
00100000
01000000
10000000
,  // measure 50
00100000
00000000
00010000
00001000
00000100
00000000
00000010
00001000
,  // measure 51
00000000
00000001
00000100
00000010
00010000
00000100
00000010
00000001
,  // measure 52
00000100
00000000
00000020
00000000
00000000
00000030
00000010
00000000
,  // measure 53
00010000
00000000
00010100
00000000
00001000
00100000
00000000
00010000
,  // measure 54
10000000
00000000
01000000
00100000
00001000
00010000
00000100
00000000
,  // measure 55
00000010
00000000
00000011
00000000
00000001
00000000
00000100
00000010
,  // measure 56
00000000
00010000
00000100
00000000
00000010
00000100
00010000
00000000
,  // measure 57
00001000
00000000
00101000
00000000
00001000
00000000
00010000
01000000
,  // measure 58
00000000
10000000
01000000
00000000
00100000
00001000
01000000
00000000
,  // measure 59
00010000
00000000
00010010
00000000
00000010
00000000
00000100
00000001
,  // measure 60
00000000
00000010
00010000
00000000
00001000
01000000
00100000
10000000
,  // measure 61
00000000
01000000
00010000
00001000
00000000
00000010
00000001
00000100
,  // measure 62
00000000
00000010
00010000
00001000
00000000
00100000
01000000
10000000
,  // measure 63
00000000
00100000
00001000
00010000
00000000
00000010
00000100
00000001
,  // measure 64
00000000
00000010
00000100
00010000
00000000
00001000
00000000
00101000
,  // measure 65
00000000
10000000
01000000
00010000
00000000
00000010
00001000
00000100
,  // measure 66
00000000
00000001
00000100
00001000
00000000
00010000
00100000
10000000
,  // measure 67
00000000
01000000
00100000
00001000
00000000
00010000
00000010
00000100
,  // measure 68
00000000
00000001
00000010
00000100
00010000
00001000
00100000
01000000
,  // measure 69
00000000
10000000
01000000
00010000
00000000
00001000
00000100
00000001
,  // measure 70
00000000
00000000
00000001
00000000
00000010
00000000
00001000
00000000
00000000
00000000
00010000
00000000
00100000
00000000
10000000
00100000
,  // measure 71
10000000
00000000
00100000
00010000
00000000
00001000
00000010
00000001
,  // measure 72
00000000
00000100
00000010
00010000
00000000
00000100
00000010
00000002
,  // measure 73
00000000
00000003
00000000
00000000
00000000
00000000
00000000
00000000
;

//---------------dance-double - ----------------
#NOTES:
     dance-double:
     :
     Challenge:
     9:
     0.576,0.572,0.717,0.083,0.000: // measure 1
00000000
00000000
00000000
00000000
,  // measure 2
00000000
00000000
00000000
00000000
,  // measure 3
00000000
00000000
00000000
00000000
,  // measure 4
00000000
00000000
00000000
00000000
,  // measure 5
00000000
00000000
00000000
00000000
,  // measure 6
00000000
00000000
00000000
00000000
,  // measure 7
00000000
00000000
00000000
00000000
,  // measure 8
00000000
00000000
00000000
00000000
,  // measure 9
01010000
01000000
10000000
00100000
00000000
00010000
00001000
00000100
,  // measure 10
00000000
00001000
00000001
00000010
00000000
00000100
00010100
00000000
,  // measure 11
00010100
00001000
00100000
00001000
00000000
00001000
00010000
01000000
,  // measure 12
00000000
10000000
11000000
00000000
01000000
00010000
00001000
00000110
,  // measure 13
00000000
00001001
00000001
00000010
00000000
00000100
00001000
00001100
,  // measure 14
00000001
00000010
00001000
00010000
00000000
00001000
00101000
00000000
,  // measure 15
10010000
01000000
10000000
01000000
00000000
00100000
00001000
00021000
,  // measure 16
00000000
00030000
00000110
00000001
00000100
00000000
00001100
00010000
,  // measure 17
00001000
00000000
00101000
00010000
10000000
00000000
11000000
01000000
,  // measure 18
00100000
00000000
00011000
00000010
00000100
00000000
00001001
00000100
,  // measure 19
00000010
00000000
00000101
00000010
00010000
00001000
00101000
00000000
,  // measure 20
10010000
00000000
01100000
00001000
00010000
00000000
00000110
00001000
,  // measure 21
00000001
00000000
00000110
00000001
00000100
00000000
00001010
00010000
,  // measure 22
00000100
00000000
00101000
00001000
00010000
00000000
11000000
01000000
,  // measure 23
00100000
00000000
00011000
00100000
01000000
00010000
00001100
00000000
,  // measure 24
00000110
00000000
00000011
00000100
00001000
00000000
00010000
00001000
,  // measure 25
00101000
00010000
00000000
10000000
11000000
00000000
01000000
00100000
,  // measure 26
00101000
00001000
00010000
00000010
00000110
00001000
00000000
00000001
,  // measure 27
00000110
00001000
00000000
00010000
00001000
00101000
00000000
00100000
,  // measure 28
01100000
10000000
01001000
00010000
00001000
00000000
00001100
00000100
,  // measure 29
00000010
00000000
00000011
00000010
00001000
00000000
00011000
00010000
,  // measure 30
01000000
00000000
11000000
01000000
00100000
00000000
00101000
00001000
,  // measure 31
00010000
00000000
00001100
00000100
00000010
00000001
00000101
00000000
,  // measure 32
00001010
00000000
00010100
00001000
00100000
00000000
10010000
01000000
,  // measure 33
00100000
00000000
00011000
00000010
00000100
00000000
00001001
00000100
,  // measure 34
00000010
00000000
00000101
00000010
00010000
00000000
00101000
00010000
,  // measure 35
00001000
00000000
01010000
10000000
01000000
00010000
00011000
00000000
,  // measure 36
00000110
00000000
00000002
00000000
00002003
00000000
00000000
00010000
,  // measure 37
00000000
00100000
00000000
00010000
00000000
00000100
00000000
00010000
,  // measure 38
00000000
00003010
00020000
00000000
00000010
00000000
00001000
00000000
,  // measure 39
00100000
00001000
00000010
00000100
,  // measure 40
00031000
02000000
10000000
00100000
,  // measure 41
03010000
00000020
00000001
00000100
,  // measure 42
00001030
00200000
10000000
01000000
,  // measure 43
00310000
00000200
00000001
00000010
,  // measure 44
00001300
00101000
11000000
01010000
,  // measure 45
00001000
00010000
00000010
00001000
00000100
00000001
00000010
00010000
,  // measure 46
00001000
00101000
00011000
00000110
,  // measure 47
00000001
00000100
00000010
00010000
00001000
00000010
00000100
00010000
,  // measure 48
00001000
00100000
10010000
00000000
11000000
00000000
00110000
00000000
,  // measure 49
01000000
10000000
00100000
00001000
00010000
00000010
00000100
00000001
,  // measure 50
00001000
00000100
00000011
00000000
00000110
00000000
00011000
00000000
,  // measure 51
00100000
00001000
00010000
01000000
10000000
00100000
00001000
00010000
,  // measure 52
00000010
00000100
00000120
00000000
00000000
00000000
00000000
00000000
,  // measure 53
00010030
00000000
10000000
01000000
00010000
00000000
00001000
00000100
,  // measure 54
00000000
00000010
00000001
00000000
00001000
00000100
00000001
00000010
,  // measure 55
00010000
00000000
00001000
00010000
01000000
00000000
10000000
01000000
,  // measure 56
00000000
00100000
00001000
00000000
00010000
00000010
00010000
00001000
,  // measure 57
00000100
00000001
00000010
00000100
00010000
00001000
00100000
00010000
,  // measure 58
10000000
01000000
00010000
00001000
00000100
00000010
00001000
00000001
,  // measure 59
00000010
00000100
00010000
00001000
00100000
00010000
10000000
01000000
,  // measure 60
00010000
00001000
00000100
00000010
00001000
00000001
00000010
00000100
,  // measure 61
00001100
00010000
00001000
00000000
00110000
01000000
10000000
00000000
,  // measure 62
00110000
00001000
01000000
00000000
00110000
00001000
00010000
00000000
,  // measure 63
00010010
00001000
00000100
00000000
00001001
00000100
00000010
00000000
,  // measure 64
00000101
00000010
00010000
00001000
00101000
00000000
10010000
00000000
,  // measure 65
11000000
01000000
00010000
00000000
00011000
00000010
00000100
00000000
,  // measure 66
00001001
00000100
00000010
00000000
00000101
00000010
00010000
00000000
,  // measure 67
00101000
00001000
00010000
00000000
11000000
01000000
00100000
00000000
,  // measure 68
00011000
00000010
00000100
00000001
00001100
00000000
00000011
00000000
,  // measure 69
00000101
00000010
00010000
00001000
00100000
00010000
10000000
01000000
,  // measure 70
00010000
00001000
00000100
00000010
00001000
00000001
00000010
00010000
,  // measure 71
00001000
01000000
00100000
01000000
10000000
01000000
00100000
00001000
,  // measure 72
00010000
00000010
00000100
00000001
00000010
00000100
00010000
00001000
,  // measure 73
02000000
00100000
03000000
00000000
00000000
00000000
00000000
00000000
;

//---------------dance-double - ----------------
#NOTES:
     dance-double:
     :
     Medium:
     7:
     0.393,0.391,0.058,0.100,0.000: // measure 1
00000000
00000000
00000000
00000000
,  // measure 2
00000000
00000000
00000000
00000000
,  // measure 3
00000000
00000000
00000000
00000000
,  // measure 4
00000000
00000000
00000000
00000000
,  // measure 5
00000000
00000000
00000000
00000000
,  // measure 6
00000000
00000000
00000000
00000000
,  // measure 7
00000000
00000000
00000000
00000000
,  // measure 8
00000000
00000000
00000000
00000000
,  // measure 9
10000000
00000000
01000000
00010000
00100000
00000000
00001000
00010000
,  // measure 10
00000000
00000010
00000100
00000000
00000001
00000000
00001000
00000000
,  // measure 11
00000001
00000000
00000100
00001000
00000010
00000000
00010000
00001000
,  // measure 12
00000000
00100000
01000000
00000000
10000000
00000000
00010000
00000000
,  // measure 13
10000000
00000000
01000000
00010000
00100000
00000000
00001000
00010000
,  // measure 14
00000000
00000010
00000100
00000000
00001000
00000000
00000001
00000000
,  // measure 15
00000001
00000000
00000100
00000010
00010000
00000000
00001000
01000000
,  // measure 16
00000000
00000000
00000000
10000000
01000000
00100000
00000000
00010000
,  // measure 17
00000000
00001000
00000000
00000100
00000010
00000001
00000000
00001000
,  // measure 18
00000000
00000100
00000000
00000010
00000100
00010000
00000000
00001000
,  // measure 19
00000000
01000000
00000000
00100000
10000000
01000000
00000000
00010000
,  // measure 20
00000000
00001000
00000000
00000100
00000010
00001000
00000000
00000001
,  // measure 21
00000000
00000010
00000000
00000100
00010000
00000010
00000000
00001000
,  // measure 22
00000000
00100000
00000000
10000000
01000000
00010000
00000000
00001000
,  // measure 23
00000000
00000100
00000000
00000010
00000000
00001000
00000001
00000000
,  // measure 24
00000101
00000000
00000000
00001000
00000100
00000010
00000000
00010000
,  // measure 25
00001000
00000100
00000000
00001000
01000000
00100000
00000000
01000000
,  // measure 26
10000000
00010000
00000000
00001000
00010000
00000100
00000000
00000001
,  // measure 27
00001000
00000010
00000000
00000001
00000100
00001000
00000000
00010000
,  // measure 28
00000000
00100000
10000000
00000000
01000000
00000000
00010000
00001000
,  // measure 29
00000100
00000000
00000100
00000010
00000000
00001000
00000000
00000001
,  // measure 30
00000000
00000010
00000100
00010000
00000000
00001000
00000000
00100000
,  // measure 31
00000000
00010000
10000000
01000000
00000000
00010000
00001000
00000000
,  // measure 32
00000010
00000000
00000000
00000100
00000000
00000001
00000000
00001000
,  // measure 33
00000100
00000000
00010000
00000100
00000010
00000000
00001000
00010000
,  // measure 34
00100000
00000000
00010000
00000000
10000000
01000000
00100000
00000000
,  // measure 35
00001000
00010000
00000000
00000010
00000100
00000000
00001001
00000000
,  // measure 36
00001001
00000000
00000100
00000000
00000010
00000000
00000000
00010000
,  // measure 37
00000000
00001000
00000000
00100000
00000000
01000000
00000000
10000000
,  // measure 38
00000000
00100000
00001000
00000000
00010000
00000000
00000000
00000010
,  // measure 39
00000000
00000100
00000000
00000001
00000000
00000010
00000000
00010000
,  // measure 40
00000000
00001000
00100000
00000000
01000000
00000000
00000000
10000000
,  // measure 41
00000000
01000000
00000000
00100000
00000000
00001000
00000000
00010000
,  // measure 42
00000000
00000100
00000010
00000000
00000001
00000000
00000000
00001000
,  // measure 43
00000000
00000010
00000000
00000100
00000000
00000001
00000000
00001000
,  // measure 44
00000000
00000100
00020000
00000000
00001000
00000000
00230000
00000000
,  // measure 45
00010000
20300000
01000000
30020000
,  // measure 46
00001000
00030200
00000010
00002300
,  // measure 47
00000001
00003020
00000100
00002030
,  // measure 48
00010000
00000000
01003000
00200000
00000000
00001000
00000000
00320000
,  // measure 49
00000000
01000000
00000000
20030000
00000000
00100000
00000000
30010000
,  // measure 50
00000000
00001000
00000100
00000000
00000010
00000000
00001000
00000001
,  // measure 51
00000000
00000100
00000010
00000000
00010000
00000000
00001000
00100000
,  // measure 52
00000000
01000000
10000000
00000000
00000000
00000000
00000000
00000000
,  // measure 53
00010000
00000000
10000000
01000000
00100000
00000000
00001000
00010000
,  // measure 54
00000000
00000010
00000100
00000000
00001000
00000001
00000100
00000000
,  // measure 55
00000010
00000000
00010000
00000100
00000010
00000000
00000100
00010000
,  // measure 56
00000000
00001000
00100000
00000000
00010000
10000000
01000000
00000000
,  // measure 57
00100000
00000000
10000000
01000000
00100000
00000000
00001000
00010000
,  // measure 58
00000000
00000010
00000100
00000000
00000001
00001000
00000100
00000000
,  // measure 59
00000001
00000000
00000100
00000010
00010000
00000000
00001000
00100000
,  // measure 60
00000000
00010000
10000000
00000000
00100000
01000000
00001000
00000000
,  // measure 61
00010000
00000010
00000000
00000100
00001000
00000010
00000000
00000001
,  // measure 62
00000000
00000100
00000010
00010000
00000000
00001000
00000000
00100000
,  // measure 63
00000000
00010000
10000000
01000000
00000000
00100000
00000000
00001000
,  // measure 64
00000000
00010000
00000010
00000100
00000000
00000001
00000000
00001001
,  // measure 65
00000000
00000100
00000010
00010000
00000000
00001000
00000000
00100000
,  // measure 66
00000000
00010000
10000000
01000000
00000000
00100000
00000000
00101000
,  // measure 67
00000000
00010000
00001000
00000100
00000000
00000010
00000000
00000110
,  // measure 68
00000000
00000001
00001000
00000100
00000000
00000010
00000000
00000110
,  // measure 69
00010000
00001000
00000000
00100000
00000000
10000000
00000000
01000000
,  // measure 70
00100000
00001000
00000000
00010000
00000000
00000010
00000000
00000100
,  // measure 71
00000001
00001000
00000000
00000100
00000000
00000010
00000000
00010000
,  // measure 72
00000000
00001000
00000000
00100000
00000000
01000000
10000000
00200000
,  // measure 73
00000000
00300000
00000000
00000000
00000000
00000000
00000000
00000000
;

//---------------dance-double - ----------------
#NOTES:
     dance-double:
     :
     Easy:
     6:
     0.340,0.390,0.208,0.050,0.000: // measure 1
00000000
00000000
00000000
00000000
,  // measure 2
00000000
00000000
00000000
00000000
,  // measure 3
00000000
00000000
00000000
00000000
,  // measure 4
00000000
00000000
00000000
00000000
,  // measure 5
00000000
00000000
00000000
00000000
,  // measure 6
00000000
00000000
00000000
00000000
,  // measure 7
00000000
00000000
00000000
00000000
,  // measure 8
00000000
00000000
00000000
00000000
,  // measure 9
10000000
00000000
00010000
00000000
01000000
00000000
00000000
00001000
,  // measure 10
00000000
00010000
00000010
00000100
,  // measure 11
00000001
00000000
00001000
00000000
00000010
00000000
00000000
00000100
,  // measure 12
00000000
00010000
00001000
00100000
,  // measure 13
01000000
00000000
10000000
00000000
00100000
00000000
00000000
00001000
,  // measure 14
00000000
00010000
00000010
00000100
,  // measure 15
00000001
00000000
00001000
00000000
00000100
00000000
00000000
00000010
,  // measure 16
00000000
00000000
00000000
00010000
00000000
00000100
00000000
00000010
,  // measure 17
00000000
00000001
00000000
00000100
00000000
00010000
00000000
00001000
,  // measure 18
00000000
00100000
00000000
00010000
00000000
10000000
00000000
00100000
,  // measure 19
00000000
01000000
00000000
00001000
00000000
00020000
00000010
00000000
,  // measure 20
00030010
00000000
00000000
00000100
00000000
00010000
00000000
00001000
,  // measure 21
00000000
00100000
00000000
10000000
00000000
01000000
00000000
00100000
,  // measure 22
00000000
00001000
00000000
00010000
00000000
00000010
00000000
00000100
,  // measure 23
00000000
00000001
00000000
00000010
00000000
00000200
00010000
00000000
,  // measure 24
00010300
00100000
10000000
01000000
,  // measure 25
01010000
01000000
00010000
00001000
,  // measure 26
00001010
00000001
00000100
00001000
,  // measure 27
00101000
00010000
00100000
01000000
,  // measure 28
10000000
00000000
00110000
00000000
00000000
10000000
00000000
01000000
,  // measure 29
00000000
00010000
00000000
00011000
00000000
00000010
00000000
00000100
,  // measure 30
00000000
00000001
00000000
00000110
00000000
00010000
00000000
00001000
,  // measure 31
00000000
01000000
00000000
01100000
00000000
20000000
00100000
00000000
,  // measure 32
30100000
00000000
00011000
00000000
00000000
00000010
00000000
00000100
,  // measure 33
00000000
00000001
00000000
00001100
00000000
00010000
00000000
00001000
,  // measure 34
00000000
00100000
00000000
11000000
00000000
00010000
00000000
00100000
,  // measure 35
00000000
10000000
00000000
01010000
00000000
00200000
00001000
00000000
,  // measure 36
00301000
00000000
00010000
00000000
00010000
00000000
00000000
00000100
,  // measure 37
00000000
00000010
00000000
00000100
00000000
00000010
00000000
00000001
,  // measure 38
00000000
00001000
00000100
00000000
00000100
00000000
00010000
00000000
,  // measure 39
00010000
00001000
00001000
00100000
,  // measure 40
00100000
10000000
01000000
00010000
,  // measure 41
00001000
00000001
00000100
00001000
,  // measure 42
00010000
10000000
00100000
00010000
,  // measure 43
00001000
00000001
00000010
00001000
,  // measure 44
00010000
00000000
00100000
00000000
01000000
00000000
00000000
10000000
,  // measure 45
00000000
00010000
00000000
01000000
00000000
00100000
00000000
00010000
,  // measure 46
00000000
00001000
00000010
00000000
00000100
00000000
00000000
00000001
,  // measure 47
00000000
00001000
00000000
00010000
00000000
00000100
00000000
00000010
,  // measure 48
00000000
00001000
00010000
00000000
00100000
00000000
00000000
10000000
,  // measure 49
00000000
00010000
00000000
00100000
00000000
01000000
00000000
00001000
,  // measure 50
00000000
00010000
00000100
00000000
00000010
00000000
00000000
00000001
,  // measure 51
00000000
00001000
00000000
00010000
00000000
00000100
00000000
00000010
,  // measure 52
00000000
00001000
00010000
00000000
00000000
00000000
00000000
00000000
,  // measure 53
01100000
00000000
01000000
00000000
10000000
00000000
01000000
00010000
,  // measure 54
00000000
00001000
00000100
00000000
00000010
00000000
00000110
00000000
,  // measure 55
00000110
00000000
00000001
00000000
00000100
00000000
00001000
00010000
,  // measure 56
00000000
01000000
00100000
00000000
00100000
00000000
01100000
00000000
,  // measure 57
01100000
00000000
10000000
00000000
01000000
00000000
00010000
00001000
,  // measure 58
00000000
00000100
00000010
00000000
00000010
00000000
00000110
00000000
,  // measure 59
00000110
00000000
00000001
00000000
00000100
00000000
00001000
00010000
,  // measure 60
00000000
01000000
00100000
00000000
01100000
00000000
10000000
00000000
,  // measure 61
00000000
01000000
00000000
00010000
00000000
00001000
00000000
00000110
,  // measure 62
00000000
00000100
00000000
00001000
00000000
00010000
00000000
01100000
,  // measure 63
00000000
01000000
00000000
00010000
00000000
00001000
00000000
00000110
,  // measure 64
00000000
00000001
00000000
00000200
00010000
00000000
00010300
00000000
,  // measure 65
00000000
10000000
00000000
00100000
00000000
01000000
00000000
01010000
,  // measure 66
00000000
00001000
00000000
00000010
00000000
00000100
00000000
00000101
,  // measure 67
00000000
00000001
00000000
00000010
00000000
00000100
00000000
00001100
,  // measure 68
00000000
00010000
00000000
00200000
10000000
00000000
10300000
00000000
,  // measure 69
10000000
00000000
00010000
00000000
00000000
00001000
00000000
00000001
,  // measure 70
00000000
00001000
00000000
00010000
00000000
10000000
00000000
00010000
,  // measure 71
00001000
00000000
00000001
00000000
00000000
00001000
00000000
00010000
,  // measure 72
00000000
10000000
00000000
00010000
00000000
00001000
00000000
00000001
,  // measure 73
00001000
00000000
00000000
00000000
;

//---------------dance-single - ----------------
#NOTES:
     dance-single:
     :
     Beginner:
     1:
     0.079,0.150,0.000,0.000,0.000:
0000
0000
0000
0000
,
0000
0000
0000
0000
,
0000
0000
0000
0000
,
0000
0000
0000
0000
,
0000
0000
0000
0000
,
0000
0000
0000
0000
,
0000
0000
0000
0000
,
0000
0000
0000
0000
,
0010
0000
0000
0000
,
0001
0000
1000
1000
,
1000
0000
0000
0000
,
0100
0000
0000
0000
,
0010
0000
0000
0000
,
1000
0000
0001
0001
,
0001
0000
0000
0100
,
0000
0010
0000
0000
,
0000
0010
0000
0000
,
0000
0010
0000
0000
,
0000
0010
0000
1000
,
1000
1000
0000
0000
,
0000
1000
0000
0000
,
0000
1000
0000
0000
,
0000
1000
0000
1000
,
1000
1000
0000
0000
,
0000
0001
0000
0001
,
0000
0100
0000
0100
,
0000
0010
0000
0000
,
0000
1000
0000
0000
,
0000
0000
0000
0000
,
0000
0001
0000
0000
,
0000
0000
0000
0000
,
0000
1000
0000
0000
,
0000
0000
0000
0000
,
0000
0001
0000
0000
,
0000
0000
0000
0000
,
0000
0010
0000
0000
,
0000
0000
0000
0000
,
0000
0010
0000
0000
,
0000
0000
0000
0000
,
0000
0010
0000
0000
,
0000
0000
0000
0000
,
0000
0010
0000
0000
,
0000
0000
0000
0000
,
0000
0100
0000
0000
,
0000
0000
0000
0000
,
0000
1000
0000
0000
,
0000
0000
0000
0000
,
0000
0001
0000
0000
,
0000
0000
0000
0000
,
0000
0010
0000
0000
,
0000
0000
0000
0000
,
0000
1000
0000
0000
,
1000
0000
0000
0000
,
0001
0000
0000
0000
,
0010
0000
0000
0000
,
0100
0000
0000
0000
,
1000
0000
0000
0000
,
0001
0000
0000
0000
,
0010
0000
0000
0000
,
0100
0000
0000
0000
,
1000
0000
0000
0000
,
0100
0000
0000
0000
,
0001
0000
0000
0000
,
0100
0000
0000
0000
,
1000
0000
0100
0000
,
0001
0000
0100
0000
,
1000
0000
0100
0000
,
0001
0000
0100
0000
,
0010
0000
0000
0000
,
0000
0000
0000
0000
,
0010
0000
0000
0000
,
0000
0000
0000
0000
,
0100
0000
0000
0000
;
